osu file format v14

[General]
AudioFilename: audio.mp3
AudioLeadIn: 0
PreviewTime: 58832
Countdown: 0
SampleSet: Soft
StackLeniency: 0.7
Mode: 0
LetterboxInBreaks: 0
WidescreenStoryboard: 1

[Editor]
Bookmarks: 17500,27935,38370,48805,59239,80109,90544,111413,121848,132283,150544,160987,171421,192291,213160,215769,257500,273160,278378
DistanceSpacing: 1.7
BeatDivisor: 4
GridSize: 32
TimelineZoom: 1.9

[Metadata]
Title:KOWAREYASUKI
TitleUnicode:コワレヤスキ
Artist:Guilty Kiss
ArtistUnicode:Guilty Kiss
Creator:Shirahane Suou
Version:Expert
Source:ラブライブ!サンシャイン!!
Tags:love live live! sunshine lovelive! sunshine!! yohane school idol project japanese rock anime video game mocaotic ohara mari 小原鞠莉 suzuki aina 鈴木愛奈 sakurauchi riko 桜内梨子 aida rikako 逢田梨香子 tsushima yoshiko 津島善子 kobayashi aika 小林愛香
BeatmapID:3447326
BeatmapSetID:1686749

[Difficulty]
HPDrainRate:5.5
CircleSize:4.5
OverallDifficulty:9
ApproachRate:9.4
SliderMultiplier:2
SliderTickRate:1

[Events]
//Background and Video events
0,0,"kowareyasuki.jpg",0,0
//Break Periods
//Storyboard Layer 0 (Background)
//Storyboard Layer 1 (Fail)
//Storyboard Layer 2 (Pass)
//Storyboard Layer 3 (Foreground)
//Storyboard Layer 4 (Overlay)
//Storyboard Sound Samples

[TimingPoints]
7066,326.086956521739,4,2,1,40,1,0
7066,-117.647058823529,4,2,1,70,0,0
16033,-90.9090909090909,4,2,1,70,0,0
17500,-153.846153846154,4,2,1,60,0,0
27935,-133.333333333333,4,2,1,60,0,0
38370,-250,4,2,1,50,0,0
38859,-250,4,2,2,50,0,0
47337,-133.333333333333,4,2,1,60,0,0
48805,-166.666666666667,4,2,1,60,0,0
58913,-250.000000000001,4,2,1,60,0,0
59239,-90.9090909090909,4,2,1,80,0,1
74892,-133.333333333333,4,2,1,80,0,0
80109,-100,4,2,1,70,0,0
80761,-117.647058823529,4,2,1,70,0,0
81413,-133.333333333333,4,2,1,70,0,0
82065,-117.647058823529,4,2,1,70,0,0
82718,-200,4,2,1,70,0,0
83370,-117.647058823529,4,2,1,70,0,0
89076,-90.9090909090909,4,2,1,70,0,0
90544,-117.647058823529,4,2,1,70,0,0
111413,-250,4,2,1,50,0,0
111902,-250,4,2,2,50,0,0
120381,-133.333333333333,4,2,1,60,0,0
121848,-166.666666666667,4,2,1,60,0,0
130979,-117.647058823529,4,2,1,60,0,0
132283,-90.909090909091,4,2,1,80,0,1
147935,-133.333333333333,4,2,1,80,0,0
150544,-153.846153846153,4,2,1,60,0,0
160979,-125,4,2,1,70,0,0
171413,-100,4,2,1,80,0,0
192283,-133.333333333333,4,2,1,70,0,0
210544,-100,4,2,1,70,0,0
213152,-500,4,2,1,50,0,0
214783,-500,4,2,1,70,0,0
215761,-90.9090909090909,4,2,1,80,0,1
273152,-133.333333333333,4,2,1,80,0,0
278370,-117.647058823529,4,2,1,70,0,0
287337,-90.9090909090909,4,2,1,70,0,0
288805,-117.647058823529,4,2,1,70,0,0
294022,-111.111111111111,4,2,1,70,0,0
296631,-105.263157894737,4,2,1,70,0,0
297772,-80,4,2,1,80,0,0
299239,-80,4,2,1,5,0,0

[Colours]
Combo1 : 221,157,159
Combo2 : 147,164,200
Combo3 : 247,244,159
Combo4 : 189,115,147

[HitObjects]
256,192,544,12,0,6902,0:0:0:0:
300,115,7066,5,4,3:2:0:0:
157,198,7229,1,0,3:2:0:0:
313,104,7392,2,0,L|298:210,1,85.0000016212464,0|0,3:2|0:0,0:0:0:0:
86,139,7718,2,0,P|134:100|194:110,1,127.50000243187,8|0,0:2|0:0,0:0:0:0:
213,133,8044,1,0,3:2:0:0:
11,201,8207,6,0,L|-4:95,1,85.0000016212464,0|0,3:2|0:0,0:0:0:0:
145,282,8533,2,0,L|160:176,1,85.0000016212464,0|0,3:2|0:0,0:0:0:0:
54,359,8859,1,0,3:2:0:0:
54,359,8941,1,0,3:2:0:0:
54,359,9022,2,0,L|256:387,1,170.000003242493,8|0,0:2|3:2,0:0:0:0:
333,218,9511,1,0,3:0:0:0:
333,218,9593,1,0,3:0:0:0:
333,218,9674,5,0,3:2:0:0:
331,384,9837,1,0,3:2:0:0:
328,190,10000,2,0,L|244:202,1,85.0000016212464,0|0,3:2|0:0,0:0:0:0:
496,332,10326,2,0,L|478:205,1,127.50000243187,8|0,0:2|0:0,0:0:0:0:
474,173,10652,1,0,3:2:0:0:
343,15,10815,6,0,L|358:121,1,85.0000016212464,0|0,3:2|0:0,0:0:0:0:
256,286,11142,2,0,L|241:180,1,85.0000016212464,0|0,3:2|0:0,0:0:0:0:
113,57,11468,1,0,3:2:0:0:
113,57,11549,1,0,3:2:0:0:
113,57,11631,1,8,0:2:0:0:
261,100,11794,1,0,3:2:0:0:
143,260,11957,2,0,L|122:118,1,127.50000243187,8|0,0:2|0:0,0:0:0:0:
113,57,12283,5,4,3:2:0:0:
49,229,12446,1,0,3:2:0:0:
117,40,12609,2,0,P|154:19|205:36,1,85.0000016212464,0|0,3:2|0:0,0:0:0:0:
333,167,12935,2,0,L|191:187,1,127.50000243187,8|0,0:2|0:0,0:0:0:0:
173,191,13261,1,0,3:2:0:0:
302,69,13424,6,0,L|386:80,1,85.0000016212464,0|0,3:2|0:0,0:0:0:0:
279,266,13750,2,0,L|363:254,1,85.0000016212464,0|0,3:2|0:0,0:0:0:0:
473,113,14076,1,0,3:2:0:0:
473,113,14158,1,0,3:2:0:0:
473,113,14239,2,0,B|462:142|433:160|433:160|480:276,1,170.000003242493,8|0,0:2|3:2,0:0:0:0:
343,347,14729,1,0,3:0:0:0:
343,347,14810,1,0,3:0:0:0:
343,347,14892,5,0,3:2:0:0:
307,175,15055,1,0,3:2:0:0:
349,363,15218,2,0,L|255:349,1,85.0000016212464,0|0,3:2|0:0,0:0:0:0:
184,172,15544,2,0,P|233:135|291:155,1,127.50000243187,8|0,0:2|0:0,0:0:0:0:
307,175,15870,1,0,3:2:0:0:
105,349,16033,6,0,L|114:388,1,27.5000008392334,4|0,3:2|0:0,0:0:0:0:
245,227,16359,6,0,L|251:253,1,27.5000008392334,0|0,3:2|0:0,0:0:0:0:
407,61,16685,6,0,L|416:100,1,27.5000008392334,0|0,3:2|0:0,0:0:0:0:
440,169,16848,1,8,0:2:0:0:
316,32,17011,5,10,0:2:0:0:
223,5,17174,1,10,0:2:0:0:
153,72,17337,1,10,0:2:0:0:
313,225,17500,5,6,3:2:0:0:
223,266,17663,2,0,L|239:158,1,97.4999955368044,0|0,3:2|0:0,0:0:0:0:
249,94,17989,1,10,0:2:0:0:
389,280,18479,5,2,3:2:0:0:
299,321,18642,2,0,L|315:213,1,97.4999955368044,2|0,3:2|0:0,0:0:0:0:
325,149,18968,1,0,3:2:0:0:
325,149,19294,2,0,L|369:139,1,32.4999985122681,2|0,3:2|0:0,0:0:0:0:
223,266,19457,5,10,0:2:0:0:
140,282,19620,1,2,0:2:0:0:
124,199,19783,1,2,0:2:0:0:
207,183,19946,1,2,0:2:0:0:
55,320,20109,5,2,3:2:0:0:
39,237,20272,2,0,L|54:137,1,97.4999955368044,0|0,3:2|0:0,0:0:0:0:
67,68,20598,1,10,0:2:0:0:
140,282,21087,5,0,3:2:0:0:
124,199,21250,2,0,L|139:99,1,97.4999955368044,2|0,3:2|0:0,0:0:0:0:
152,30,21576,1,2,3:2:0:0:
152,30,21902,2,0,L|185:24,1,32.4999985122681,0|0,3:2|0:0,0:0:0:0:
357,50,22065,5,10,0:2:0:0:
270,37,22229,1,2,0:2:0:0:
216,105,22392,1,2,0:2:0:0:
251,189,22555,1,10,0:2:0:0:
251,189,22636,1,8,0:2:0:0:
251,189,22718,5,2,3:2:0:0:
169,231,22881,2,0,L|64:211,1,97.4999955368044,0|0,3:2|0:0,0:0:0:0:
5,195,23207,1,10,0:2:0:0:
251,280,23696,5,2,3:2:0:0:
169,322,23859,2,0,L|64:302,1,97.4999955368044,0|0,3:2|0:0,0:0:0:0:
5,286,24185,1,0,3:2:0:0:
5,286,24511,2,0,L|15:250,1,32.4999985122681,2|0,3:2|0:0,0:0:0:0:
95,70,24674,5,10,0:2:0:0:
120,151,24837,1,2,0:2:0:0:
14,95,25000,1,2,3:2:0:0:
39,176,25163,1,2,0:2:0:0:
178,89,25326,5,2,3:2:0:0:
203,170,25489,2,0,L|187:289,1,97.4999955368044,0|0,3:2|0:0,0:0:0:0:
180,340,25815,1,10,0:2:0:0:
95,70,26305,5,0,3:2:0:0:
120,151,26468,2,0,L|104:270,1,97.4999955368044,2|0,3:2|0:0,0:0:0:0:
97,325,26794,1,2,3:2:0:0:
97,325,27120,2,0,L|146:314,1,32.4999985122681,0|0,3:2|0:0,0:0:0:0:
264,291,27283,5,8,0:2:0:0:
416,343,27446,1,2,3:2:0:0:
325,361,27609,1,2,0:2:0:0:
355,273,27772,1,10,0:2:0:0:
355,273,27854,1,8,0:2:0:0:
355,273,27935,5,6,3:2:0:0:
385,185,28098,2,0,L|363:67,1,112.500004291535,0|0,3:2|0:0,0:0:0:0:
383,0,28424,2,0,B|302:-19|324:54|234:25,1,150.000005722046,10|0,0:2|0:0,0:0:0:0:
139,197,28913,5,2,3:2:0:0:
97,100,29076,2,0,L|229:121,1,112.500004291535,2|0,3:2|0:0,0:0:0:0:
287,133,29402,1,0,3:2:0:0:
287,133,29729,2,0,L|295:177,1,37.5000014305115,2|0,3:2|0:0,0:0:0:0:
311,262,29892,5,10,0:2:0:0:
223,231,30055,1,10,0:2:0:0:
382,202,30218,1,2,0:2:0:0:
328,355,30381,1,10,0:2:0:0:
328,355,30462,1,8,0:2:0:0:
328,355,30544,5,2,3:2:0:0:
240,324,30707,2,0,L|108:345,1,112.500004291535,0|0,3:2|0:0,0:0:0:0:
65,384,31033,2,0,B|98:338|98:338|59:245,1,150.000005722046,10|2,0:2|0:2,0:0:0:0:
92,90,31522,5,0,3:2:0:0:
21,157,31685,2,0,L|144:179,1,112.500004291535,2|0,3:2|0:0,0:0:0:0:
210,194,32011,1,2,3:2:0:0:
210,194,32337,2,0,L|199:255,1,37.5000014305115,0|0,3:2|0:0,0:0:0:0:
284,158,32500,5,10,0:2:0:0:
263,74,32663,1,2,0:2:0:0:
367,181,32826,5,10,0:2:0:0:
325,13,32989,1,2,0:2:0:0:
450,204,33152,5,6,3:2:0:0:
511,143,33315,2,0,P|516:92|454:55,1,112.500004291535,0|0,3:2|0:0,0:0:0:0:
406,0,33642,2,0,L|391:125,1,112.500004291535,10|0,0:2|0:0,0:0:0:0:
367,181,33968,1,8,0:2:0:0:
239,67,34131,5,2,3:2:0:0:
325,13,34294,2,0,L|310:138,1,112.500004291535,2|0,3:2|0:0,0:0:0:0:
265,186,34620,2,0,P|211:198|167:166,1,112.500004291535,0|0,3:2|0:0,0:0:0:0:
139,96,34946,1,2,3:2:0:0:
62,254,35109,5,10,0:2:0:0:
153,271,35272,1,10,0:2:0:0:
30,166,35435,1,2,0:2:0:0:
0,326,35598,1,10,0:2:0:0:
0,326,35679,1,8,0:2:0:0:
0,326,35761,5,0,3:2:0:0:
70,378,35924,2,0,L|190:357,1,112.500004291535,8|0,0:2|0:0,0:0:0:0:
236,310,36250,2,0,P|289:293|346:338,1,112.500004291535,10|0,0:2|0:0,0:0:0:0:
371,384,36576,1,10,0:2:0:0:
488,242,36739,5,0,3:2:0:0:
408,191,36902,2,0,L|425:316,1,112.500004291535,2|0,3:2|0:0,0:0:0:0:
452,375,37229,1,2,3:2:0:0:
511,156,37392,5,10,0:2:0:0:
336,319,37555,1,10,0:2:0:0:
494,74,37718,5,8,0:2:0:0:
423,302,37881,1,8,0:2:0:0:
436,10,38044,5,8,0:2:0:0:
488,242,38207,1,8,0:2:0:0:
268,58,38370,5,6,3:2:0:0:
268,58,38859,1,2,3:2:0:0:
227,136,39022,2,0,L|242:215,1,80,8|2,0:2|0:2,0:0:0:0:
449,384,39674,2,0,P|477:355|465:278,1,120,2|0,3:2|0:0,0:0:0:0:
394,243,40326,2,0,L|315:258,1,80,8|2,0:2|0:2,0:0:0:0:
242,300,40815,1,2,0:2:0:0:
242,300,40979,5,2,3:2:0:0:
242,300,41468,1,2,3:2:0:0:
188,229,41631,2,0,L|203:150,1,80,8|2,0:2|0:2,0:0:0:0:
312,0,42283,2,0,P|369:17|428:27,1,120,2|0,3:2|0:0,0:0:0:0:
494,102,42935,2,0,P|457:99|420:138,1,80,8|2,0:2|0:2,0:0:0:0:
408,206,43424,1,2,0:2:0:0:
408,206,43587,6,0,P|447:213|485:224,2,80,2|0|8,3:2|0:0|0:2,0:0:0:0:
243,279,44565,1,2,0:2:0:0:
243,279,44729,1,2,0:2:0:0:
316,339,44892,2,0,P|323:299|334:261,1,80,2|2,3:2|3:2,0:0:0:0:
220,116,45544,2,0,P|212:155|201:193,1,80,10|2,0:2|0:2,0:0:0:0:
43,317,46196,5,2,3:2:0:0:
43,317,46685,1,2,3:2:0:0:
115,277,46848,2,0,P|141:271|186:295,1,80,8|2,0:2|0:2,0:0:0:0:
343,349,47337,1,8,0:2:0:0:
343,349,47419,1,8,0:2:0:0:
343,349,47500,6,0,P|287:357|232:370,1,112.500004291535,8|0,0:2|0:0,0:0:0:0:
213,384,47826,2,0,P|176:376|139:370,1,75.0000028610231,8|0,0:2|0:0,0:0:0:0:
47,217,48152,1,0,3:2:0:0:
186,295,48315,1,0,3:2:0:0:
42,384,48479,2,0,P|49:347|55:310,1,75.0000028610231,10|2,0:2|0:2,0:0:0:0:
240,149,48805,6,0,P|210:189|128:174,1,119.999996337891,6|0,3:2|0:0,0:0:0:0:
26,120,49294,1,2,3:2:0:0:
142,26,49457,2,0,P|135:63|129:100,1,59.9999981689454,8|0,0:2|0:0,0:0:0:0:
49,227,49783,1,2,3:2:0:0:
49,227,50109,6,0,P|79:187|161:202,1,119.999996337891,2|0,0:2|0:0,0:0:0:0:
259,248,50598,1,0,3:2:0:0:
161,336,50761,2,0,P|166:306|171:276,1,59.9999981689454,8|0,0:2|0:0,0:0:0:0:
233,144,51087,1,2,3:2:0:0:
233,144,51250,1,2,0:2:0:0:
353,276,51413,6,0,P|410:280|448:236,1,119.999996337891,6|0,3:2|0:0,0:0:0:0:
409,93,51902,1,2,3:2:0:0:
309,172,52065,2,0,P|339:177|369:182,1,59.9999981689454,8|0,0:2|0:0,0:0:0:0:
507,115,52392,1,2,3:2:0:0:
507,115,52718,5,2,0:2:0:0:
376,12,52881,2,0,B|310:0|333:53|250:37,1,119.999996337891,8|2,0:2|3:2,0:0:0:0:
193,3,53288,1,2,0:2:0:0:
185,0,53370,2,0,P|182:29|178:59,1,59.9999981689454,10|0,0:2|0:0,0:0:0:0:
309,172,53696,1,2,3:2:0:0:
309,172,53859,1,2,0:2:0:0:
200,276,54022,6,0,P|205:209|214:143,1,119.999996337891,6|2,3:2|0:2,0:0:0:0:
309,279,54511,1,2,3:2:0:0:
206,363,54674,2,0,P|169:362|142:343,1,59.9999981689454,8|0,0:2|0:0,0:0:0:0:
10,316,55000,1,0,3:2:0:0:
10,316,55326,5,2,0:2:0:0:
91,293,55489,1,0,3:2:0:0:
70,374,55652,1,2,3:2:0:0:
31,235,55815,1,0,3:2:0:0:
169,270,55979,2,0,P|198:261|228:256,1,59.9999981689454,10|0,0:2|0:0,0:0:0:0:
394,165,56305,2,0,P|364:159|335:151,1,59.9999981689454,2|8,3:2|0:2,0:0:0:0:
282,98,56549,1,8,0:2:0:0:
282,98,56631,6,0,P|292:157|298:216,1,119.999996337891,6|2,3:2|0:2,0:0:0:0:
267,368,57120,1,2,3:2:0:0:
396,313,57283,2,0,P|367:304|337:299,1,59.9999981689454,8|2,0:2|0:2,0:0:0:0:
210,180,57609,2,0,P|180:185|151:193,1,59.9999981689454,0|2,3:2|0:2,0:0:0:0:
295,114,57935,5,10,0:2:0:0:
199,274,58098,1,8,0:2:0:0:
195,297,58180,1,8,0:2:0:0:
205,317,58261,1,8,0:2:0:0:
378,185,58424,1,8,0:2:0:0:
166,89,58587,1,12,0:2:0:0:
166,89,58913,6,0,P|136:90|114:110,1,60,2|0,0:2|0:0,0:0:0:0:
52,143,59239,6,0,P|106:152|159:163,1,110.000003356934,6|0,3:2|3:2,0:0:0:0:
356,282,59565,1,8,0:2:0:0:
309,0,59729,2,0,P|286:107|268:216,1,220.000006713867,0|0,3:2|3:2,0:0:0:0:
477,345,60218,1,10,0:2:0:0:
401,136,60381,1,0,3:2:0:0:
256,348,60544,6,0,P|201:337|147:328,1,110.000003356934,2|0,3:2|3:2,0:0:0:0:
0,163,60870,2,0,P|44:228|123:222,1,165.000005035401,8|0,0:2|0:0,0:0:0:0:
172,160,61196,2,0,P|163:105|153:51,1,110.000003356934,2|0,3:2|3:2,0:0:0:0:
401,136,61522,2,0,P|356:70|277:76,1,165.000005035401,8|0,0:2|0:0,0:0:0:0:
271,153,61848,6,0,P|281:207|289:261,1,110.000003356934,2|0,3:2|3:2,0:0:0:0:
401,136,62174,1,8,0:2:0:0:
173,275,62337,2,0,P|281:292|389:316,1,220.000006713867,0|0,3:2|3:2,0:0:0:0:
496,121,62826,1,10,0:2:0:0:
289,261,62989,1,2,3:2:0:0:
512,354,63152,6,0,P|503:299|493:245,1,110.000003356934,2|0,3:2|3:2,0:0:0:0:
351,37,63479,2,0,P|359:91|369:145,1,110.000003356934,10|0,0:2|3:2,0:0:0:0:
223,330,63805,1,10,0:2:0:0:
217,357,63887,1,8,0:2:0:0:
213,384,63968,1,0,3:2:0:0:
29,228,64131,1,10,0:2:0:0:
35,255,64213,1,8,0:2:0:0:
39,282,64294,1,0,3:2:0:0:
179,92,64457,6,0,P|168:146|160:200,1,110.000003356934,6|0,3:2|3:2,0:0:0:0:
307,371,64783,1,8,0:2:0:0:
442,170,64946,2,0,B|380:162|318:145|318:145|269:185|314:253,1,220.000006713867,0|0,3:2|3:2,0:0:0:0:
461,60,65435,2,0,P|407:50|353:39,1,110.000003356934,10|0,0:2|3:2,0:0:0:0:
96,143,65761,6,0,P|149:132|204:122,1,110.000003356934,2|0,3:2|3:2,0:0:0:0:
349,318,66087,2,0,P|295:260|218:277,1,165.000005035401,8|0,0:2|0:0,0:0:0:0:
134,238,66413,2,0,P|144:291|154:346,1,110.000003356934,2|0,3:2|3:2,0:0:0:0:
394,170,66739,2,0,P|411:93|353:39,1,165.000005035401,8|0,0:2|0:0,0:0:0:0:
244,0,67065,5,2,3:2:0:0:
334,118,67229,1,0,3:2:0:0:
144,68,67392,5,10,0:2:0:0:
354,40,67556,1,0,3:2:0:0:
136,265,67718,5,2,0:2:0:0:
244,0,67881,1,0,3:2:0:0:
419,222,68044,1,10,0:2:0:0:
107,186,68207,6,0,L|277:162,1,165.000005035401,2|0,3:2|0:0,0:0:0:0:
334,118,68533,1,2,3:2:0:0:
361,122,68614,1,2,0:2:0:0:
388,127,68696,1,10,0:2:0:0:
216,275,68859,1,10,0:2:0:0:
216,275,68940,1,8,0:2:0:0:
216,275,69022,1,2,3:2:0:0:
269,36,69185,1,2,3:2:0:0:
419,222,69348,5,10,0:2:0:0:
412,262,69429,1,8,0:2:0:0:
406,303,69511,1,8,0:2:0:0:
399,344,69592,1,8,0:2:0:0:
393,384,69674,6,0,P|339:373|284:363,1,110.000003356934,6|0,3:2|3:2,0:0:0:0:
98,259,70000,1,8,0:2:0:0:
257,58,70163,2,0,P|234:165|216:274,1,220.000006713867,0|0,3:2|3:2,0:0:0:0:
146,58,70652,1,10,0:2:0:0:
334,200,70815,1,0,3:2:0:0:
140,360,70979,6,0,P|86:349|31:339,1,110.000003356934,2|0,3:2|3:2,0:0:0:0:
241,139,71305,2,0,P|191:194|231:284,1,165.000005035401,8|0,0:2|0:0,0:0:0:0:
278,321,71631,2,0,P|331:310|386:300,1,110.000003356934,2|0,3:2|3:2,0:0:0:0:
512,87,71957,2,0,P|456:37|366:77,1,165.000005035401,8|0,0:2|0:0,0:0:0:0:
323,116,72283,6,0,P|334:169|344:224,1,110.000003356934,2|0,3:2|3:2,0:0:0:0:
238,44,72609,1,8,0:2:0:0:
436,126,72772,1,0,3:2:0:0:
216,273,72935,2,0,P|163:262|108:252,1,110.000003356934,0|0,3:2|3:2,0:0:0:0:
296,365,73261,1,10,0:2:0:0:
196,165,73424,1,2,3:2:0:0:
29,371,73587,6,0,P|82:360|137:350,1,110.000003356934,2|0,3:2|3:2,0:0:0:0:
305,202,73913,1,10,0:2:0:0:
101,121,74076,1,0,3:2:0:0:
216,273,74239,2,0,P|207:219|196:166,1,110.000003356934,2|8,3:2|0:2,0:0:0:0:
22,0,74565,2,0,P|-11:51|16:106,1,110.000003356934,10|8,0:2|0:2,0:0:0:0:
23,104,74810,1,8,0:2:0:0:
23,104,74892,6,0,P|96:89|170:76,1,150.000005722046,6|0,3:2|3:2,0:0:0:0:
232,7,75381,1,0,3:2:0:0:
121,177,75544,2,0,P|157:169|194:163,1,75.0000028610231,8|0,0:2|0:0,0:0:0:0:
344,230,75870,1,2,3:2:0:0:
256,92,76033,1,2,3:2:0:0:
220,261,76196,5,6,0:2:0:0:
300,161,76359,1,8,0:2:0:0:
209,275,76522,2,0,L|226:358,1,75.0000028610231,0|0,3:2|0:0,0:0:0:0:
435,369,76848,2,0,P|385:316|314:328,1,150.000005722046,10|0,0:2|0:0,0:0:0:0:
151,333,77337,1,10,0:2:0:0:
151,333,77419,1,8,0:2:0:0:
151,333,77500,6,0,L|224:348,1,75.0000028610231,6|0,3:2|0:0,0:0:0:0:
344,222,77826,2,0,L|270:206,1,75.0000028610231,0|0,3:2|0:0,0:0:0:0:
140,89,78152,2,0,L|177:262,1,150.000005722046,8|0,0:2|3:2,0:0:0:0:
259,45,78642,6,0,L|243:119,1,75.0000028610231,0|0,3:2|0:0,0:0:0:0:
172,0,78968,1,8,0:2:0:0:
336,108,79131,6,0,L|389:100,1,37.5000014305115,2|0,3:2|0:0,0:0:0:0:
271,206,79294,2,0,L|324:198,1,37.5000014305115,2|0,3:2|0:0,0:0:0:0:
412,185,79457,5,10,0:2:0:0:
243,118,79620,1,10,0:2:0:0:
374,283,79783,1,10,0:2:0:0:
497,55,79946,1,10,0:2:0:0:
497,55,80027,1,8,0:2:0:0:
497,55,80109,6,0,B|482:127|482:127|503:171|503:171|480:272,1,200,6|0,3:2|3:2,0:0:0:0:
301,162,80598,1,0,0:0:0:0:
408,39,80761,2,0,L|389:121,1,85.0000016212464,8|0,0:2|0:0,0:0:0:0:
289,258,81087,1,2,3:2:0:0:
389,121,81250,1,2,3:2:0:0:
392,348,81413,6,0,B|404:294|404:294|387:260|387:260|399:204,1,150.000005722046,2|0,0:2|0:0,0:0:0:0:
233,176,81902,1,0,3:2:0:0:
270,340,82065,2,0,L|288:257,1,85.0000016212464,8|0,0:2|0:0,0:0:0:0:
145,138,82392,1,2,3:2:0:0:
288,257,82555,1,2,0:2:0:0:
239,80,82718,6,0,B|231:116|231:116|242:138|242:138|230:188,1,100,2|0,3:2|3:2,0:0:0:0:
154,45,83207,1,0,0:0:0:0:
344,13,83370,2,0,L|325:95,1,85.0000016212464,8|0,0:2|0:0,0:0:0:0:
292,261,83696,1,2,3:2:0:0:
324,95,83859,1,2,3:2:0:0:
358,316,84022,5,2,0:2:0:0:
307,177,84185,1,2,3:2:0:0:
453,201,84348,1,2,0:2:0:0:
373,232,84511,1,2,3:2:0:0:
373,232,84593,1,0,3:2:0:0:
373,232,84674,5,10,0:2:0:0:
468,117,84837,1,2,3:2:0:0:
458,367,85000,2,0,L|439:282,1,85.0000016212464,10|2,0:2|0:0,0:0:0:0:
328,98,85326,5,6,3:2:0:0:
453,201,85489,1,0,3:2:0:0:
319,88,85652,2,0,L|298:181,1,85.0000016212464,0|0,3:2|0:0,0:0:0:0:
171,335,85979,2,0,P|212:286|288:298,1,127.50000243187,8|0,0:2|0:0,0:0:0:0:
296,307,86305,1,0,3:2:0:0:
146,145,86468,6,0,L|125:238,1,85.0000016212464,0|0,3:2|0:0,0:0:0:0:
283,88,86794,2,0,L|303:181,1,85.0000016212464,0|0,3:2|0:0,0:0:0:0:
62,114,87120,1,0,3:2:0:0:
62,114,87201,1,0,3:2:0:0:
62,114,87283,2,0,P|96:65|202:76,1,170.000003242493,8|0,0:2|3:2,0:0:0:0:
237,261,87772,1,0,3:0:0:0:
237,261,87854,1,0,3:0:0:0:
237,261,87935,5,0,3:2:0:0:
283,88,88098,1,0,3:2:0:0:
208,246,88261,2,0,L|185:147,1,85.0000016212464,0|0,3:2|0:0,0:0:0:0:
357,0,88587,2,0,L|387:131,1,127.50000243187,8|0,0:2|0:0,0:0:0:0:
394,148,88913,1,0,3:2:0:0:
196,72,89076,6,0,L|202:45,1,27.5000008392334,4|0,3:2|0:0,0:0:0:0:
299,222,89402,6,0,L|305:195,1,27.5000008392334,0|0,3:2|0:0,0:0:0:0:
416,374,89729,6,0,L|422:347,1,27.5000008392334,0|0,3:2|0:0,0:0:0:0:
446,264,89892,1,8,0:2:0:0:
333,359,90055,5,10,0:2:0:0:
250,344,90218,1,10,0:2:0:0:
167,329,90382,1,10,0:2:0:0:
202,118,90544,6,0,B|215:145|246:157|246:157|221:265,1,170.000003242493,6|2,3:2|0:2,0:0:0:0:
119,150,91033,1,2,3:2:0:0:
278,74,91196,2,0,L|385:89,1,85.0000016212464,8|0,0:2|0:0,0:0:0:0:
205,24,91522,1,2,3:2:0:0:
309,167,91685,1,2,3:2:0:0:
192,9,91848,6,0,B|93:-2|93:-2|59:32|79:71,1,170.000003242493,2|2,0:2|0:2,0:0:0:0:
201,214,92337,1,2,3:2:0:0:
36,167,92500,2,0,L|119:150,1,85.0000016212464,8|0,0:2|0:0,0:0:0:0:
264,295,92826,2,0,L|180:311,1,85.0000016212464,0|0,3:2|3:2,0:0:0:0:
333,112,93152,6,0,P|388:158|370:253,1,170.000003242493,2|2,3:2|0:2,0:0:0:0:
242,384,93642,1,2,3:2:0:0:
298,201,93805,1,8,0:2:0:0:
432,352,93968,2,0,L|343:337,1,85.0000016212464,2|0,0:2|3:2,0:0:0:0:
183,212,94294,6,0,B|151:170|96:196|96:196|92:244|42:262,1,170.000003242493,2|2,3:2|3:2,0:0:0:0:
139,384,94783,2,0,L|153:295,1,85.0000016212464,2|0,3:2|0:0,0:0:0:0:
12,183,95109,5,12,0:2:0:0:
212,110,95272,1,2,3:2:0:0:
0,92,95435,5,10,0:2:0:0:
224,217,95598,1,2,3:2:0:0:
137,50,95761,6,0,B|96:90|96:90|136:203,1,170.000003242493,6|2,3:2|0:2,0:0:0:0:
295,153,96250,1,2,3:2:0:0:
225,26,96413,2,0,L|211:119,1,85.0000016212464,8|0,0:2|0:0,0:0:0:0:
302,240,96739,1,2,3:2:0:0:
135,123,96902,1,2,3:2:0:0:
313,253,97065,6,0,B|378:242|378:242|407:261|407:261|486:249,1,170.000003242493,2|2,0:2|0:2,0:0:0:0:
295,153,97555,1,2,3:2:0:0:
268,356,97718,2,0,L|351:342,1,85.0000016212464,8|0,0:2|0:0,0:0:0:0:
208,203,98044,2,0,L|194:286,1,85.0000016212464,0|0,3:2|3:2,0:0:0:0:
406,171,98370,6,0,B|424:62|424:62|407:91|377:102,1,170.000003242493,2|2,3:2|0:2,0:0:0:0:
356,247,98859,1,2,3:2:0:0:
497,133,99022,1,8,0:2:0:0:
342,20,99185,2,0,P|300:28|258:36,1,85.0000016212464,2|0,0:2|3:2,0:0:0:0:
106,149,99511,6,0,B|139:98|199:131|199:131|203:170|168:193,1,170.000003242493,2|2,3:2|3:2,0:0:0:0:
84,345,100000,2,0,P|51:307|67:262,1,85.0000016212464,2|0,3:2|0:0,0:0:0:0:
290,141,100326,5,8,0:2:0:0:
144,282,100489,2,0,B|211:265|192:333|293:299,1,127.50000243187,10|0,0:2|0:0,0:0:0:0:
327,231,100815,1,10,0:2:0:0:
327,231,100897,1,8,0:2:0:0:
327,231,100979,6,0,B|288:281|288:281|330:393,1,170.000003242493,6|2,3:2|0:2,0:0:0:0:
496,331,101468,1,2,3:2:0:0:
420,203,101631,2,0,L|405:303,1,85.0000016212464,8|0,0:2|0:0,0:0:0:0:
476,131,101957,1,2,3:2:0:0:
327,231,102120,1,2,3:2:0:0:
490,119,102283,6,0,B|381:99|381:99|373:137|330:157,1,170.000003242493,2|2,0:2|0:2,0:0:0:0:
317,0,102772,1,2,3:2:0:0:
206,96,102935,2,0,L|305:78,1,85.0000016212464,8|0,0:2|0:0,0:0:0:0:
410,215,103261,2,0,L|326:230,1,85.0000016212464,0|0,3:2|3:2,0:0:0:0:
146,384,103587,6,0,P|206:330|190:245,1,170.000003242493,2|2,3:2|0:2,0:0:0:0:
20,159,104076,1,2,3:2:0:0:
127,303,104239,1,8,0:2:0:0:
210,119,104402,2,0,L|127:137,1,85.0000016212464,2|0,0:2|3:2,0:0:0:0:
306,338,104729,6,0,B|399:356|399:356|440:326|418:279,1,170.000003242493,2|2,3:2|3:2,0:0:0:0:
311,146,105218,2,0,P|319:187|326:229,1,85.0000016212464,2|0,3:2|0:0,0:0:0:0:
210,119,105544,5,12,0:2:0:0:
426,161,105707,1,2,3:2:0:0:
213,226,105870,5,10,0:2:0:0:
357,59,106033,1,2,3:2:0:0:
423,290,106196,6,0,P|339:303|255:320,1,170.000003242493,6|2,3:2|0:2,0:0:0:0:
106,254,106685,1,2,3:2:0:0:
228,142,106848,2,0,P|220:183|213:225,1,85.0000016212464,8|0,0:2|0:0,0:0:0:0:
155,67,107174,1,2,3:2:0:0:
306,202,107337,1,2,3:2:0:0:
154,335,107500,6,0,P|74:353|16:275,1,170.000003242493,2|2,0:2|0:2,0:0:0:0:
139,162,107989,1,2,3:2:0:0:
11,32,108152,2,0,P|31:125|49:219,1,170.000003242493,8|0,0:2|0:0,0:0:0:0:
217,111,108642,1,8,0:2:0:0:
217,111,108723,1,8,0:2:0:0:
217,111,108805,5,2,3:2:0:0:
98,0,108968,2,0,P|106:41|115:83,1,85.0000016212464,8|2,0:2|0:2,0:0:0:0:
294,196,109294,2,0,P|307:129|321:63,1,127.50000243187,10|0,0:2|0:0,0:0:0:0:
332,49,109620,1,10,0:2:0:0:
378,234,109783,1,0,3:2:0:0:
217,111,109946,6,0,P|203:177|189:243,1,127.50000243187,2|0,3:2|0:0,0:0:0:0:
176,260,110272,1,2,3:2:0:0:
89,67,110435,5,10,0:2:0:0:
294,196,110598,1,10,0:2:0:0:
88,317,110761,5,8,0:2:0:0:
217,111,110924,1,8,0:2:0:0:
314,326,111087,5,8,0:2:0:0:
109,195,111250,1,8,0:2:0:0:
355,57,111413,5,6,3:2:0:0:
355,57,111902,1,2,3:2:0:0:
400,129,112065,2,0,P|392:168|387:207,1,80,8|2,0:2|0:2,0:0:0:0:
234,347,112718,2,0,P|190:308|130:332,1,120,2|0,3:2|0:0,0:0:0:0:
66,379,113370,2,0,P|60:339|53:300,1,80,8|2,0:2|0:2,0:0:0:0:
6,233,113859,1,2,0:2:0:0:
6,233,114022,5,2,3:2:0:0:
6,233,114511,1,2,3:2:0:0:
66,178,114674,2,0,P|90:168|135:194,1,80,8|2,0:2|0:2,0:0:0:0:
358,272,115326,2,0,P|337:309|258:308,1,120,2|0,3:2|0:0,0:0:0:0:
217,248,115979,2,0,P|222:208|229:169,1,80,8|2,0:2|0:2,0:0:0:0:
288,109,116468,1,2,0:2:0:0:
288,109,116631,6,0,P|318:134|361:125,2,80,2|0|8,3:2|0:0|0:2,0:0:0:0:
67,61,117609,1,2,0:2:0:0:
67,61,117772,1,2,0:2:0:0:
140,0,117935,2,0,P|147:39|152:78,1,80,2|2,3:2|3:2,0:0:0:0:
48,218,118587,2,0,P|40:178|35:139,1,80,10|2,0:2|0:2,0:0:0:0:
208,253,119239,5,2,3:2:0:0:
208,253,119729,1,2,3:2:0:0:
146,312,119892,2,0,P|106:304|67:299,1,80,8|2,0:2|0:2,0:0:0:0:
0,163,120381,1,8,0:2:0:0:
0,163,120462,1,8,0:2:0:0:
0,163,120544,6,0,P|36:132|105:152,1,112.500004291535,8|0,0:2|0:0,0:0:0:0:
114,152,120870,2,0,P|135:122|124:79,1,75.0000028610231,8|0,0:2|0:0,0:0:0:0:
62,220,121196,1,0,3:2:0:0:
220,131,121359,1,0,3:2:0:0:
49,18,121522,2,0,P|41:57|36:96,1,75.0000028610231,10|2,0:2|0:2,0:0:0:0:
172,229,121848,6,0,P|231:218|290:209,1,119.999996337891,6|0,3:2|0:0,0:0:0:0:
424,144,122337,1,2,3:2:0:0:
327,65,122500,2,0,P|332:94|337:124,1,59.9999981689454,8|0,0:2|0:0,0:0:0:0:
459,247,122826,1,2,3:2:0:0:
459,247,123152,6,0,P|403:234|356:275,1,119.999996337891,2|0,0:2|3:2,0:0:0:0:
512,321,123642,1,0,3:2:0:0:
416,384,123805,2,0,P|420:354|425:324,1,59.9999981689454,8|0,0:2|0:0,0:0:0:0:
331,189,124131,1,2,0:2:0:0:
331,189,124294,1,2,0:2:0:0:
182,353,124457,6,0,P|241:342|300:333,1,119.999996337891,6|0,3:2|0:0,0:0:0:0:
246,176,124946,1,2,3:2:0:0:
151,269,125109,2,0,P|180:263|209:259,1,59.9999981689454,8|0,0:2|0:0,0:0:0:0:
310,99,125435,1,2,3:2:0:0:
310,99,125761,5,2,0:2:0:0:
190,7,125924,2,0,P|142:-6|90:49,1,119.999996337891,8|2,0:2|3:2,0:0:0:0:
42,94,126332,1,2,0:2:0:0:
52,104,126413,2,0,P|81:108|110:114,1,59.9999981689454,10|0,0:2|0:0,0:0:0:0:
10,22,126739,1,2,3:2:0:0:
10,22,126902,1,2,0:2:0:0:
159,182,127065,6,0,P|195:137|184:76,1,119.999996337891,6|2,3:2|0:2,0:0:0:0:
76,194,127555,1,2,3:2:0:0:
215,258,127718,2,0,P|244:248|273:243,1,59.9999981689454,8|0,0:2|0:0,0:0:0:0:
405,143,128044,1,0,3:2:0:0:
405,143,128370,5,6,0:2:0:0:
416,222,128533,1,0,3:2:0:0:
339,193,128696,1,2,3:2:0:0:
479,171,128859,1,0,3:2:0:0:
427,301,129022,2,0,P|420:330|416:359,1,59.9999981689454,10|0,0:2|0:0,0:0:0:0:
273,243,129348,2,0,P|279:272|283:301,1,59.9999981689454,2|0,3:2|0:0,0:0:0:0:
405,143,129674,6,0,P|373:112|285:130,1,119.999996337891,6|2,3:2|0:2,0:0:0:0:
192,283,130163,1,10,0:2:0:0:
339,193,130326,1,8,0:2:0:0:
170,95,130489,1,10,0:2:0:0:
273,243,130652,1,8,0:2:0:0:
324,29,130815,1,10,0:2:0:0:
108,172,130979,6,0,P|142:179|190:190,1,85.0000016212464,6|0,3:2|3:2,0:0:0:0:
343,307,131305,1,8,0:2:0:0:
323,331,131386,1,8,0:2:0:0:
294,346,131468,1,8,0:2:0:0:
263,347,131549,1,8,0:2:0:0:
233,336,131631,1,8,0:2:0:0:
377,159,131794,1,8,0:2:0:0:
451,378,131957,1,10,0:2:0:0:
273,243,132120,1,8,0:2:0:0:
500,117,132283,6,0,P|486:170|475:224,1,110.000003356934,6|0,3:2|3:2,0:0:0:0:
294,346,132609,1,8,0:2:0:0:
316,59,132772,2,0,P|342:165|365:273,1,220.000006713867,0|0,3:2|3:2,0:0:0:0:
166,384,133261,1,10,0:2:0:0:
231,154,133424,1,0,3:2:0:0:
401,370,133587,6,0,P|347:356|293:345,1,110.000003356934,2|0,3:2|3:2,0:0:0:0:
74,266,133913,2,0,P|145:285|209:218,1,165.000005035401,8|0,0:2|0:0,0:0:0:0:
231,154,134239,2,0,P|219:100|206:46,1,110.000003356934,2|0,3:2|3:2,0:0:0:0:
366,273,134565,2,0,P|383:189|403:106,1,165.000005035401,8|0,0:2|0:0,0:0:0:0:
435,24,134892,6,0,P|381:36|327:48,1,110.000003356934,2|0,3:2|3:2,0:0:0:0:
279,260,135218,1,8,0:2:0:0:
90,95,135381,2,0,B|152:87|214:70|214:70|263:110|218:178,1,220.000006713867,0|0,3:2|3:2,0:0:0:0:
163,380,135870,1,10,0:2:0:0:
69,196,136033,1,2,3:2:0:0:
279,260,136196,6,0,P|332:249|387:240,1,110.000003356934,2|0,3:2|3:2,0:0:0:0:
184,46,136522,2,0,P|237:56|292:65,1,110.000003356934,10|0,0:2|3:2,0:0:0:0:
386,341,136848,1,10,0:2:0:0:
358,346,136930,1,8,0:2:0:0:
331,351,137011,1,0,3:2:0:0:
469,156,137174,1,10,0:2:0:0:
442,151,137255,1,8,0:2:0:0:
414,146,137337,1,0,3:2:0:0:
473,384,137500,6,0,P|481:329|493:275,1,110.000003356934,6|0,3:2|3:2,0:0:0:0:
446,50,137826,1,8,0:2:0:0:
255,205,137989,2,0,P|361:179|469:156,1,220.000006713867,0|0,3:2|3:2,0:0:0:0:
273,0,138479,2,0,P|261:53|252:108,1,110.000003356934,10|2,0:2|3:2,0:0:0:0:
321,340,138805,6,0,P|329:285|341:231,1,110.000003356934,2|0,3:2|3:2,0:0:0:0:
41,248,139131,2,0,P|74:195|179:202,1,165.000005035401,8|0,0:2|0:0,0:0:0:0:
233,238,139457,2,0,P|178:246|125:258,1,110.000003356934,2|0,3:2|3:2,0:0:0:0:
270,23,139783,2,0,P|323:56|316:161,1,165.000005035401,8|0,0:2|0:0,0:0:0:0:
341,232,140109,5,2,3:2:0:0:
253,108,140272,1,0,3:2:0:0:
445,219,140435,5,10,0:2:0:0:
233,238,140598,1,0,3:2:0:0:
509,125,140761,5,2,0:2:0:0:
363,368,140924,1,0,3:2:0:0:
253,108,141087,1,10,0:2:0:0:
463,305,141250,6,0,L|300:277,1,165.000005035401,2|0,3:2|0:0,0:0:0:0:
233,238,141576,1,2,3:2:0:0:
205,242,141658,1,2,0:2:0:0:
178,247,141739,1,10,0:2:0:0:
353,117,141902,1,10,0:2:0:0:
353,117,141984,1,8,0:2:0:0:
353,117,142065,1,2,3:2:0:0:
224,346,142229,1,2,3:2:0:0:
61,132,142392,5,10,0:2:0:0:
37,100,142474,1,8,0:2:0:0:
37,59,142555,1,8,0:2:0:0:
62,26,142637,1,8,0:2:0:0:
101,15,142718,6,0,P|155:22|209:31,1,110.000003356934,6|0,3:2|3:2,0:0:0:0:
300,277,143044,1,8,0:2:0:0:
61,132,143207,2,0,P|171:146|281:165,1,220.000006713867,0|0,3:2|3:2,0:0:0:0:
386,384,143696,1,10,0:2:0:0:
178,252,143859,1,0,3:2:0:0:
414,124,144022,6,0,P|404:178|397:232,1,110.000003356934,2|0,3:2|3:2,0:0:0:0:
144,333,144348,2,0,P|86:278|101:201,1,165.000005035401,8|0,0:2|0:0,0:0:0:0:
170,148,144674,2,0,P|224:155|278:164,1,110.000003356934,2|0,3:2|3:2,0:0:0:0:
93,0,145000,2,0,B|40:20|-16:29|-16:29|15:31|51:50,1,165.000005035401,8|0,0:2|0:0,0:0:0:0:
86,92,145326,6,0,P|95:146|102:200,1,110.000003356934,2|0,3:2|3:2,0:0:0:0:
185,27,145652,1,8,0:2:0:0:
5,158,145815,1,0,3:2:0:0:
199,274,145979,2,0,P|253:264|307:257,1,110.000003356934,0|0,3:0|3:2,0:0:0:0:
419,51,146305,1,10,0:2:0:0:
242,173,146468,1,2,3:2:0:0:
419,296,146631,6,0,P|411:241|401:187,1,110.000003356934,2|0,3:2|3:2,0:0:0:0:
158,105,146957,1,10,0:2:0:0:
308,257,147120,1,0,3:2:0:0:
259,64,147283,2,0,P|248:118|241:172,1,110.000003356934,2|8,3:2|0:2,0:0:0:0:
79,316,147609,2,0,P|89:261|96:207,1,110.000003356934,10|8,0:2|0:2,0:0:0:0:
113,181,147854,1,8,0:2:0:0:
113,181,147935,6,0,B|192:192|143:250|237:259,1,150.000005722046,6|0,3:2|3:2,0:0:0:0:
373,194,148424,1,0,3:2:0:0:
321,331,148587,2,0,P|315:293|308:257,1,75.0000028610231,8|0,0:2|0:0,0:0:0:0:
446,131,148913,1,2,3:2:0:0:
401,288,149076,1,2,3:2:0:0:
353,102,149239,5,2,0:2:0:0:
475,226,149402,1,8,0:2:0:0:
344,93,149565,2,0,L|250:111,1,75.0000028610231,0|0,3:2|0:0,0:0:0:0:
212,272,149892,1,10,0:2:0:0:
86,161,150055,2,0,L|204:183,1,112.500004291535,8|0,0:2|0:0,0:0:0:0:
276,203,150381,1,10,0:2:0:0:
276,203,150462,1,8,0:2:0:0:
276,203,150544,5,6,3:2:0:0:
146,321,150707,2,0,P|101:337|60:313,1,97.4999955368044,0|0,3:2|0:0,0:0:0:0:
15,251,151033,2,0,P|8:186|0:121,1,129.999994049073,8|0,0:2|0:0,0:0:0:0:
135,103,151522,1,0,3:2:0:0:
47,0,151685,6,0,P|51:32|54:64,1,64.9999970245363,0|0,3:2|0:0,0:0:0:0:
225,128,152011,2,0,P|220:95|217:63,1,64.9999970245363,0|0,3:2|0:0,0:0:0:0:
152,185,152337,1,0,3:2:0:0:
302,79,152500,1,8,0:2:0:0:
123,6,152663,2,0,P|129:54|134:102,1,97.4999955368044,8|0,0:2|0:0,0:0:0:0:
152,185,152989,1,8,0:2:0:0:
152,185,153071,1,8,0:2:0:0:
152,185,153152,5,0,3:2:0:0:
217,63,153315,2,0,P|252:51|306:87,1,97.4999955368044,0|0,3:2|0:0,0:0:0:0:
378,106,153642,2,0,P|316:105|285:161,1,129.999994049073,8|0,0:2|0:0,0:0:0:0:
308,249,154131,1,0,3:2:0:0:
432,198,154294,6,0,P|400:191|367:188,1,64.9999970245363,0|0,3:2|0:0,0:0:0:0:
264,332,154620,2,0,P|296:335|328:341,1,64.9999970245363,0|0,3:2|0:0,0:0:0:0:
215,235,154946,1,0,3:2:0:0:
174,381,155109,1,8,0:2:0:0:
174,381,155435,1,8,0:2:0:0:
308,249,155598,1,8,0:2:0:0:
127,199,155761,5,4,3:2:0:0:
233,331,155924,2,0,P|225:282|214:235,1,97.4999955368044,0|0,3:2|0:0,0:0:0:0:
260,173,156250,2,0,P|267:124|278:77,1,97.4999955368044,8|0,0:2|0:0,0:0:0:0:
339,31,156576,1,8,0:2:0:0:
178,110,156739,1,0,3:2:0:0:
308,249,156902,6,0,P|339:242|371:237,1,64.9999970245363,0|0,3:2|0:0,0:0:0:0:
512,138,157229,2,0,P|461:175|401:155,1,129.999994049073,0|0,3:2|0:0,0:0:0:0:
248,69,157718,1,8,0:2:0:0:
339,31,157881,2,0,P|329:80|321:130,1,97.4999955368044,8|0,0:2|0:0,0:0:0:0:
271,187,158207,1,8,0:2:0:0:
271,187,158288,1,8,0:2:0:0:
271,187,158370,5,0,3:2:0:0:
413,260,158533,2,0,P|365:254|328:284,1,97.4999955368044,0|0,3:2|0:0,0:0:0:0:
278,340,158859,2,0,P|230:345|193:315,1,97.4999955368044,8|0,0:2|0:0,0:0:0:0:
178,242,159185,1,8,0:2:0:0:
59,345,159348,1,0,3:2:0:0:
76,144,159511,6,0,P|87:207|99:271,1,129.999994049073,0|0,3:2|3:2,0:0:0:0:
159,132,160000,1,8,0:2:0:0:
13,229,160163,1,8,0:2:0:0:
194,316,160326,2,0,P|225:310|257:304,1,64.9999970245363,10|2,0:2|0:2,0:0:0:0:
429,235,160652,1,8,0:2:0:0:
266,181,160815,1,8,0:2:0:0:
338,267,160979,5,6,3:2:0:0:
364,109,161142,2,0,P|350:187|338:267,1,160,0|0,3:2|3:2,0:0:0:0:
173,210,161631,2,0,P|179:170|185:130,1,80,8|0,0:2|0:0,0:0:0:0:
249,283,161957,1,0,3:2:0:0:
86,171,162120,6,0,P|46:177|6:183,1,80,0|0,3:2|0:0,0:0:0:0:
145,0,162446,2,0,P|201:51|276:33,1,160,0|0,3:2|3:2,0:0:0:0:
474,114,162935,5,8,0:2:0:0:
383,2,163098,2,0,P|370:60|359:119,1,120,8|0,0:2|0:0,0:0:0:0:
282,167,163424,1,8,0:2:0:0:
282,167,163506,1,8,0:2:0:0:
282,167,163587,5,0,3:2:0:0:
413,200,163750,2,0,P|356:148|281:166,1,160,0|0,3:2|3:2,0:0:0:0:
179,308,164239,2,0,P|226:298|273:288,1,80,8|0,0:2|0:0,0:0:0:0:
97,155,164565,1,0,3:2:0:0:
65,289,164729,6,0,P|74:336|84:383,1,80,0|0,3:2|0:0,0:0:0:0:
197,209,165055,2,0,P|179:125|163:41,1,160,0|0,3:2|3:2,0:0:0:0:
19,171,165544,2,0,P|58:162|97:154,1,80,10|2,0:2|0:2,0:0:0:0:
258,292,165870,1,8,0:2:0:0:
97,154,166033,1,8,0:2:0:0:
283,380,166196,5,6,3:2:0:0:
315,224,166359,2,0,P|298:302|283:380,1,160,0|0,3:2|3:2,0:0:0:0:
155,309,166848,2,0,P|163:269|170:230,1,80,8|8,0:2|0:0,0:0:0:0:
336,139,167174,1,0,3:2:0:0:
222,68,167337,6,0,P|230:107|237:146,1,80,0|2,3:2|0:2,0:0:0:0:
442,192,167663,2,0,P|425:113|410:35,1,160,0|0,3:2|3:2,0:0:0:0:
315,224,168152,5,8,0:2:0:0:
512,294,168315,2,0,P|462:280|408:338,1,120,8|0,0:2|0:0,0:0:0:0:
355,368,168642,1,8,0:2:0:0:
355,368,168723,1,8,0:2:0:0:
355,368,168805,5,4,3:2:0:0:
263,345,168968,1,0,3:2:0:0:
171,322,169131,1,8,0:2:0:0:
348,199,169294,2,0,P|336:237|328:276,1,80,8|0,0:2|0:0,0:0:0:0:
182,147,169620,2,0,P|193:108|201:69,1,80,8|0,0:2|0:0,0:0:0:0:
93,287,169946,6,0,P|149:234|225:253,1,160,0|0,3:2|3:2,0:0:0:0:
421,300,170435,5,10,0:2:0:0:
171,322,170598,1,10,0:2:0:0:
441,171,170761,5,10,0:2:0:0:
263,345,170924,1,10,0:2:0:0:
335,90,171087,5,10,0:2:0:0:
355,368,171250,1,10,0:2:0:0:
218,148,171413,6,0,P|228:99|237:50,1,100,6|0,3:2|3:2,0:0:0:0:
319,219,171739,1,8,0:2:0:0:
128,87,171902,2,0,P|62:76|3:188,1,200,0|2,3:2|3:2,0:0:0:0:
192,290,172392,2,0,L|200:240,1,50,10|0,0:2|0:0,0:0:0:0:
28,297,172555,6,0,B|96:315|96:315|118:364|118:364|202:388,1,200,2|0,3:2|3:2,0:0:0:0:
379,250,173044,2,0,L|269:280,1,100,8|0,0:2|3:2,0:0:0:0:
468,335,173370,1,2,3:2:0:0:
288,158,173533,1,2,3:2:0:0:
287,384,173696,1,10,0:2:0:0:
455,193,173859,2,0,L|444:138,1,50,2|0,3:2|0:0,0:0:0:0:
334,36,174022,6,0,B|302:36|273:19|273:19|236:54|242:96,1,150,2|0,3:2|0:0,0:0:0:0:
288,158,174348,1,10,0:2:0:0:
104,45,174511,2,0,P|120:118|135:191,1,150,2|0,3:2|0:0,0:0:0:0:
104,263,174837,2,0,P|55:270|21:225,1,100,2|8,3:2|0:2,0:0:0:0:
191,3,175163,6,0,P|289:19|388:34,1,200,2|0,3:2|3:2,0:0:0:0:
303,256,175652,2,0,P|295:206|287:157,1,100,8|0,0:2|0:0,0:0:0:0:
246,98,175897,1,8,0:0:0:0:
246,98,175979,1,0,3:2:0:0:
431,233,176142,1,0,3:2:0:0:
247,384,176305,1,8,0:2:0:0:
247,384,176386,1,0,3:2:0:0:
247,384,176468,2,0,L|167:363,1,50,2|0,3:2|0:0,0:0:0:0:
68,278,176631,6,0,P|117:268|166:260,1,100,6|0,3:2|3:2,0:0:0:0:
166,59,176957,1,8,0:2:0:0:
0,192,177120,2,0,P|106:171|212:153,1,200,0|2,3:2|3:2,0:0:0:0:
421,107,177609,1,10,0:2:0:0:
269,0,177772,2,0,P|275:24|280:48,1,50,2|0,3:2|0:0,0:0:0:0:
410,198,177935,6,0,P|336:214|264:235,1,150,2|0,3:2|0:0,0:0:0:0:
205,289,178261,2,0,P|157:297|116:270,1,100,8|0,0:2|3:2,0:0:0:0:
4,76,178588,1,2,3:2:0:0:
188,187,178751,1,2,3:2:0:0:
0,305,178914,1,10,0:2:0:0:
109,98,179077,2,0,L|99:147,1,50,2|0,3:2|0:0,0:0:0:0:
205,289,179239,6,0,P|253:277|302:267,1,100,2|0,3:2|3:2,0:0:0:0:
197,85,179565,1,8,0:2:0:0:
384,145,179729,2,0,P|278:166|173:191,1,200,0|0,3:2|3:2,0:0:0:0:
3,44,180218,2,0,P|41:107|125:78,1,150,10|0,0:2|0:0,0:0:0:0:
77,33,180544,6,0,P|57:131|45:230,1,200,2|8,3:2|0:2,0:0:0:0:
259,384,181033,1,10,0:2:0:0:
259,384,181115,1,8,0:2:0:0:
259,384,181197,1,0,3:2:0:0:
189,187,181360,1,0,3:2:0:0:
26,322,181522,1,8,0:2:0:0:
62,314,181603,1,8,0:2:0:0:
99,306,181685,1,8,0:2:0:0:
135,298,181766,1,8,0:2:0:0:
172,290,181848,6,0,P|221:281|270:276,1,100,6|0,3:2|3:2,0:0:0:0:
439,146,182174,1,8,0:2:0:0:
374,340,182337,2,0,P|360:266|343:193,1,150,0|0,3:2|0:0,0:0:0:0:
304,126,182663,1,2,3:2:0:0:
454,245,182826,1,10,0:2:0:0:
271,372,182989,2,0,P|247:375|223:382,1,50,2|0,3:2|0:0,0:0:0:0:
149,202,183152,6,0,P|197:213|246:221,1,100,2|0,3:2|3:2,0:0:0:0:
385,65,183479,2,0,P|332:15|261:28,1,150,10|0,0:2|0:0,0:0:0:0:
181,0,183805,2,0,P|192:48|200:97,1,100,2|0,3:2|3:2,0:0:0:0:
360,292,184131,2,0,P|421:255|414:185,1,150,10|0,0:2|0:0,0:0:0:0:
344,157,184457,6,0,P|246:177|149:201,1,200,2|8,3:2|0:2,0:0:0:0:
249,384,184946,1,2,3:2:0:0:
249,384,185027,1,2,0:2:0:0:
249,384,185109,2,0,P|259:335|271:286,1,100,2|0,0:2|3:2,0:0:0:0:
201,98,185435,1,10,0:2:0:0:
26,228,185598,1,2,3:2:0:0:
26,228,185680,1,2,0:2:0:0:
26,228,185761,6,0,P|99:179|165:229,1,150,2|0,3:2|0:0,0:0:0:0:
176,275,186087,2,0,P|166:324|158:373,1,100,10|0,0:2|3:2,0:0:0:0:
344,157,186413,6,0,P|319:152|294:147,1,50,2|0,3:2|0:0,0:0:0:0:
271,286,186576,2,0,P|295:290|320:295,1,50,6|0,3:2|0:0,0:0:0:0:
432,241,186739,5,10,0:2:0:0:
460,216,186820,1,8,0:2:0:0:
475,183,186902,1,10,0:2:0:0:
475,145,186983,1,8,0:2:0:0:
459,112,187065,6,0,P|450:62|443:13,1,100,6|0,3:2|3:2,0:0:0:0:
200,123,187392,2,0,P|208:172|215:221,1,100,8|0,0:2|0:0,0:0:0:0:
292,44,187718,1,2,3:2:0:0:
110,183,187881,1,0,3:2:0:0:
327,250,188044,2,0,P|322:225|319:200,1,50,10|0,0:2|0:0,0:0:0:0:
153,32,188207,6,0,B|40:13|40:13|-7:54|32:121,1,200,6|0,3:2|3:2,0:0:0:0:
63,348,188696,2,0,P|73:299|83:250,1,100,8|8,0:2|0:2,0:0:0:0:
110,183,188940,1,8,0:2:0:0:
110,183,189022,1,0,3:2:0:0:
240,334,189185,1,0,3:2:0:0:
215,102,189348,1,10,0:2:0:0:
208,138,189429,1,10,0:2:0:0:
200,175,189511,1,10,0:2:0:0:
193,212,189592,1,10,0:2:0:0:
186,249,189674,6,0,P|234:237|284:229,1,100,6|0,3:2|3:2,0:0:0:0:
116,71,190000,2,0,P|67:82|17:90,1,100,8|0,0:2|0:0,0:0:0:0:
208,138,190326,1,2,3:2:0:0:
52,0,190489,1,0,3:2:0:0:
56,210,190652,1,10,0:2:0:0:
257,42,190815,2,0,L|209:31,1,50,6|0,3:2|3:0,0:0:0:0:
132,174,190979,5,0,3:2:0:0:
306,118,191142,1,0,3:2:0:0:
268,296,191305,2,0,P|262:246|255:196,1,100,8|8,0:2|0:2,0:0:0:0:
208,138,191549,1,8,0:2:0:0:
208,138,191631,5,2,3:2:0:0:
370,235,191794,1,0,3:2:0:0:
188,358,191957,1,8,0:2:0:0:
151,350,192038,1,8,0:2:0:0:
114,343,192120,1,8,0:2:0:0:
77,336,192201,1,8,0:2:0:0:
40,329,192283,5,4,3:2:0:0:
25,242,192446,1,0,3:2:0:0:
9,154,192609,1,0,3:2:0:0:
40,329,192935,5,10,0:2:0:0:
189,184,193098,2,0,B|212:200|242:199|242:199|212:205|190:243,1,112.500004291535,0|0,3:2|3:2,0:0:0:0:
113,226,193424,5,2,3:2:0:0:
113,226,193750,2,0,L|98:136,1,75.0000028610231,0|0,3:2|3:2,0:0:0:0:
86,72,194076,1,2,3:2:0:0:
25,242,194239,6,0,L|31:278,1,37.5000014305115,8|0,0:2|0:0,0:0:0:0:
189,184,194484,6,0,L|195:220,1,37.5000014305115,0|2,3:2|0:2,0:0:0:0:
353,126,194729,5,0,3:2:0:0:
25,242,195055,5,0,3:2:0:0:
21,223,195137,1,0,3:2:0:0:
18,205,195218,1,0,3:2:0:0:
86,72,195381,1,0,3:2:0:0:
189,184,195544,6,0,L|152:177,1,37.5000014305115,10|0,0:2|0:0,0:0:0:0:
221,13,195788,6,0,L|184:6,1,37.5000014305115,0|0,3:2|0:0,0:0:0:0:
353,126,196033,6,0,L|316:119,1,37.5000014305115,2|0,3:2|0:0,0:0:0:0:
240,104,196196,5,0,3:2:0:0:
401,11,196359,1,0,3:2:0:0:
401,11,196685,1,2,3:2:0:0:
505,163,196848,5,8,0:2:0:0:
503,175,196929,1,0,3:2:0:0:
501,187,197011,1,0,3:2:0:0:
499,200,197092,1,0,3:2:0:0:
465,227,197174,1,10,0:2:0:0:
466,239,197255,1,0,3:2:0:0:
468,251,197337,1,0,3:2:0:0:
470,264,197418,1,0,3:2:0:0:
487,295,197500,5,4,3:2:0:0:
402,313,197663,1,0,3:2:0:0:
317,331,197826,1,0,3:2:0:0:
487,295,198152,5,10,0:2:0:0:
343,248,198315,2,0,P|290:241|241:299,1,112.500004291535,0|0,3:2|3:2,0:0:0:0:
235,364,198642,5,2,3:2:0:0:
235,364,198968,2,0,L|161:351,1,75.0000028610231,0|0,3:2|3:2,0:0:0:0:
81,331,199294,1,2,3:2:0:0:
225,166,199457,6,0,L|231:209,1,37.5000014305115,8|0,0:2|0:0,0:0:0:0:
122,93,199701,6,0,L|128:136,1,37.5000014305115,0|2,3:2|0:2,0:0:0:0:
19,20,199946,5,0,3:2:0:0:
225,166,200272,2,0,B|278:156|278:156|296:123|296:123|379:109,1,150.000005722046,0|0,3:2|3:2,0:0:0:0:
208,42,200761,6,0,L|214:79,1,37.5000014305115,10|0,0:2|0:0,0:0:0:0:
180,267,201006,6,0,L|186:304,1,37.5000014305115,0|0,3:2|0:0,0:0:0:0:
359,202,201250,6,0,L|365:239,1,37.5000014305115,2|0,3:2|0:0,0:0:0:0:
283,296,201413,6,0,L|270:221,1,75.0000028610231,0|0,3:2|0:0,0:0:0:0:
225,166,201658,2,0,B|255:145|255:145|293:151,1,75.0000028610231,0|0,3:2|0:0,0:0:0:0:
359,202,201902,1,2,3:2:0:0:
180,267,202065,5,8,0:2:0:0:
168,265,202146,1,0,3:2:0:0:
156,263,202228,1,0,3:2:0:0:
143,261,202309,1,0,3:2:0:0:
131,259,202392,2,0,L|57:247,1,75.0000028610231,10|0,0:2|0:0,0:0:0:0:
5,25,202718,5,8,0:2:0:0:
47,0,202799,1,8,0:2:0:0:
94,14,202881,1,0,3:2:0:0:
116,56,202962,1,0,3:2:0:0:
152,60,203044,5,8,0:2:0:0:
165,81,203125,1,8,0:2:0:0:
164,105,203207,1,0,3:2:0:0:
149,125,203288,1,0,3:2:0:0:
113,138,203370,5,6,3:2:0:0:
253,220,203533,1,0,3:2:0:0:
112,301,203696,1,0,3:2:0:0:
160,220,203859,5,2,3:2:0:0:
160,220,204185,2,0,L|60:216,1,75.0000028610231,0|0,3:2|3:2,0:0:0:0:
3,214,204511,1,2,3:2:0:0:
207,301,204674,6,0,L|218:347,1,37.5000014305115,8|0,0:2|0:0,0:0:0:0:
332,177,204919,6,0,L|343:223,1,37.5000014305115,0|2,3:2|0:2,0:0:0:0:
457,53,205163,5,0,3:2:0:0:
207,301,205489,5,0,3:2:0:0:
188,296,205570,1,0,3:2:0:0:
170,292,205652,1,0,3:2:0:0:
332,177,205815,1,0,3:2:0:0:
152,95,205979,6,0,L|160:140,1,37.5000014305115,10|0,0:2|0:0,0:0:0:0:
266,222,206223,6,0,L|274:267,1,37.5000014305115,0|0,3:2|0:0,0:0:0:0:
319,60,206468,6,0,L|327:105,1,37.5000014305115,2|0,3:2|0:0,0:0:0:0:
433,187,206631,6,0,L|451:289,1,75.0000028610231,0|0,3:2|0:0,0:0:0:0:
494,323,206875,2,0,L|391:341,1,75.0000028610231,0|0,3:2|0:0,0:0:0:0:
358,384,207120,1,2,3:2:0:0:
504,213,207283,5,8,0:2:0:0:
286,355,207446,1,0,3:2:0:0:
491,139,207609,5,10,0:2:0:0:
273,281,207772,1,0,3:2:0:0:
340,43,207935,5,4,3:2:0:0:
361,126,208098,1,0,3:2:0:0:
382,209,208261,1,0,3:2:0:0:
340,43,208587,5,10,0:2:0:0:
203,136,208750,2,0,B|180:120|150:121|150:121|180:115|202:77,1,112.500004291535,0|0,3:2|3:2,0:0:0:0:
278,102,209076,5,2,3:2:0:0:
96,183,209402,1,0,3:2:0:0:
77,179,209483,1,0,3:2:0:0:
59,175,209565,1,0,3:2:0:0:
258,301,209729,1,2,3:2:0:0:
75,383,209892,6,0,P|96:347|195:355,1,150.000005722046,8|2,0:2|0:2,0:0:0:0:
307,166,210381,1,8,0:2:0:0:
307,166,210462,1,8,0:2:0:0:
307,166,210544,5,6,3:2:0:0:
381,374,210707,1,0,3:2:0:0:
187,225,210870,1,2,3:2:0:0:
416,128,211033,2,0,L|398:247,1,100,2|8,3:2|0:2,0:0:0:0:
310,48,211359,1,2,3:2:0:0:
498,190,211522,1,10,0:2:0:0:
301,305,211685,6,0,L|125:331,1,150,6|0,3:2|0:0,0:0:0:0:
82,298,212011,6,0,B|65:262|28:250|28:250|67:223|68:169,1,150,2|0,3:2|0:0,0:0:0:0:
126,126,212337,5,2,3:2:0:0:
8,330,212500,1,8,0:2:0:0:
12,354,212581,1,8,0:2:0:0:
16,379,212663,1,8,0:2:0:0:
184,228,212826,1,10,0:2:0:0:
0,109,212989,1,8,0:2:0:0:
153,327,213152,6,0,L|200:332,4,40,6|2|2|2|2,3:2|0:2|0:2|0:2|0:2,0:0:0:0:
243,142,214783,5,8,0:2:0:0:
267,162,214864,1,8,0:2:0:0:
282,191,214946,1,8,0:2:0:0:
283,222,215027,1,8,0:2:0:0:
272,252,215109,1,10,0:2:0:0:
137,89,215272,1,8,0:2:0:0:
379,161,215435,1,8,0:2:0:0:
193,331,215598,1,8,0:2:0:0:
304,58,215761,6,0,P|358:48|412:39,1,110.000003356934,6|0,3:2|3:2,0:0:0:0:
408,279,216087,1,8,0:2:0:0:
162,198,216250,2,0,P|270:178|378:160,1,220.000006713867,0|0,3:2|3:2,0:0:0:0:
193,331,216739,1,10,0:2:0:0:
269,149,216902,1,0,3:2:0:0:
451,384,217065,6,0,P|396:374|342:365,1,110.000003356934,2|0,3:2|3:2,0:0:0:0:
45,257,217392,2,0,P|116:268|157:174,1,165.000005035401,8|0,0:2|0:0,0:0:0:0:
109,139,217718,2,0,P|54:147|0:157,1,110.000003356934,2|0,3:2|3:2,0:0:0:0:
261,0,218044,2,0,P|193:39|201:117,1,165.000005035401,8|0,0:2|0:0,3:0:0:0:
269,149,218370,6,0,P|323:157|377:167,1,110.000003356934,2|0,3:2|3:2,0:0:0:0:
162,197,218696,1,8,0:2:0:0:
430,67,218859,2,0,P|410:175|393:283,1,220.000006713867,0|0,3:2|3:2,0:0:0:0:
156,370,219348,1,10,0:2:0:0:
269,149,219511,1,2,3:2:0:0:
434,384,219674,6,0,P|379:374|325:365,1,110.000003356934,2|0,3:2|3:2,0:0:0:0:
162,197,220000,2,0,P|107:206|53:215,1,110.000003356934,10|0,0:2|3:2,0:0:0:0:
251,59,220326,1,10,0:2:0:0:
278,63,220407,1,8,0:2:0:0:
305,67,220489,1,0,3:2:0:0:
146,286,220652,1,10,0:2:0:0:
119,290,220734,1,8,0:2:0:0:
92,294,220815,1,0,3:2:0:0:
269,149,220979,6,0,P|323:157|377:167,1,110.000003356934,6|0,3:2|3:2,0:0:0:0:
162,197,221305,1,8,0:2:0:0:
393,68,221468,2,0,P|473:134|449:236,1,220.000006713867,0|0,3:2|3:2,0:0:0:0:
256,384,221957,2,0,P|264:329|273:275,1,110.000003356934,10|2,0:2|3:2,0:0:0:0:
102,0,222283,6,0,P|93:54|84:108,1,110.000003356934,2|0,3:2|3:2,0:0:0:0:
356,223,222609,2,0,P|296:169|203:219,1,165.000005035401,8|0,0:2|0:0,0:0:0:0:
167,247,222935,2,0,P|112:237|58:229,1,110.000003356934,2|0,3:2|3:2,0:0:0:0:
245,19,223261,2,0,P|328:32|411:45,1,165.000005035401,8|0,0:2|0:0,0:0:0:0:
469,105,223587,5,2,3:2:0:0:
300,170,223750,1,0,3:2:0:0:
484,235,223913,5,10,0:2:0:0:
321,66,224076,1,0,3:2:0:0:
325,348,224239,5,2,0:2:0:0:
469,105,224402,1,0,3:2:0:0:
187,102,224565,1,10,0:2:0:0:
401,283,224729,6,0,L|371:104,1,165.000005035401,2|0,3:2|0:0,0:0:0:0:
321,66,225055,1,2,3:2:0:0:
325,38,225136,1,2,0:2:0:0:
330,11,225218,1,10,0:2:0:0:
233,226,225381,1,10,0:2:0:0:
233,226,225462,1,8,0:2:0:0:
233,226,225544,1,2,3:2:0:0:
469,105,225707,1,2,3:2:0:0:
213,0,225870,5,10,0:2:0:0:
172,6,225951,1,8,0:2:0:0:
131,13,226033,1,8,0:2:0:0:
91,20,226114,1,8,0:2:0:0:
50,27,226196,6,0,P|42:81|34:135,1,110.000003356934,6|0,3:2|3:2,0:0:0:0:
249,256,226522,1,8,0:2:0:0:
172,6,226685,2,0,P|155:121|139:237,1,220.000006713867,0|0,3:2|3:2,0:0:0:0:
321,369,227174,1,10,0:2:0:0:
244,130,227337,1,0,3:2:0:0:
66,347,227500,6,0,P|120:339|174:331,1,110.000003356934,2|0,3:2|3:2,0:0:0:0:
467,260,227826,2,0,P|383:276|336:189,1,165.000005035401,8|0,0:2|0:0,0:0:0:0:
338,142,228152,2,0,P|345:87|353:33,1,110.000003356934,2|0,3:2|3:2,0:0:0:0:
142,224,228479,2,0,P|129:135|117:47,1,165.000005035401,8|0,0:2|0:0,0:0:0:0:
83,0,228805,6,0,P|32:-11|-1:36,1,110.000003356934,2|0,3:2|3:2,0:0:0:0:
142,224,229131,1,8,0:2:0:0:
200,4,229294,1,0,3:2:0:0:
338,142,229457,2,0,P|282:134|227:127,1,110.000003356934,0|0,3:0|3:2,0:0:0:0:
22,217,229783,1,10,0:2:0:0:
241,356,229946,1,2,3:2:0:0:
0,361,230109,6,0,P|56:352|111:345,1,110.000003356934,2|0,3:2|3:2,0:0:0:0:
348,227,230435,1,10,0:2:0:0:
139,88,230598,1,8,0:2:0:0:
134,115,230679,1,8,0:2:0:0:
130,142,230761,1,2,3:2:0:0:
241,356,230924,1,8,0:2:0:0:
391,112,231087,1,10,0:2:0:0:
354,94,231168,1,8,0:2:0:0:
313,97,231250,1,8,0:2:0:0:
278,119,231331,1,8,0:2:0:0:
259,155,231413,6,0,P|250:209|243:263,1,110.000003356934,6|0,3:2|3:2,0:0:0:0:
473,371,231739,1,8,0:2:0:0:
391,112,231902,2,0,P|373:227|357:343,1,220.000006713867,0|0,3:2|3:2,0:0:0:0:
279,119,232392,1,10,0:2:0:0:
489,242,232555,1,6,3:2:0:0:
231,384,232718,6,0,P|176:375|122:368,1,110.000003356934,2|0,3:2|3:2,0:0:0:0:
6,115,233044,2,0,B|58:106|104:82|104:82|80:110|68:151,1,165.000005035401,8|0,0:2|0:0,0:0:0:0:
34,197,233370,2,0,P|25:251|18:305,1,110.000003356934,2|0,3:2|3:2,0:0:0:0:
205,136,233696,2,0,P|196:81|189:27,1,110.000003356934,8|2,0:2|0:2,0:0:0:0:
165,228,234022,5,6,3:2:0:0:
306,128,234185,1,0,3:2:0:0:
226,359,234348,5,10,0:2:0:0:
205,136,234511,1,0,3:2:0:0:
422,346,234674,5,2,0:2:0:0:
165,228,234837,1,0,3:2:0:0:
395,64,235000,1,10,0:2:0:0:
307,365,235163,6,0,L|280:173,1,165.000005035401,6|0,3:2|0:0,0:0:0:0:
306,128,235489,1,10,0:2:0:0:
302,100,235570,1,10,0:2:0:0:
298,73,235652,1,10,0:2:0:0:
451,254,235815,1,10,0:2:0:0:
226,359,235979,1,10,0:2:0:0:
198,355,236060,1,8,0:2:0:0:
171,351,236142,1,10,0:2:0:0:
18,62,236305,5,10,0:2:0:0:
52,41,236386,1,8,0:2:0:0:
93,43,236468,1,8,0:2:0:0:
125,67,236549,1,8,0:2:0:0:
138,106,236631,6,0,P|129:160|122:214,1,110.000003356934,6|0,3:2|3:2,0:0:0:0:
236,33,236957,1,8,0:2:0:0:
13,233,237120,2,0,P|121:247|230:264,1,220.000006713867,0|0,3:2|3:2,0:0:0:0:
376,88,237609,1,10,0:2:0:0:
122,215,237772,1,0,3:2:0:0:
343,320,237935,6,0,P|334:265|322:211,1,110.000003356934,2|0,3:2|3:2,0:0:0:0:
483,2,238261,2,0,P|496:83|512:164,1,165.000005035401,8|0,0:2|0:0,0:0:0:0:
512,239,238587,2,0,P|458:227|403:218,1,110.000003356934,2|0,3:2|3:2,0:0:0:0:
137,343,238913,2,0,P|177:278|282:300,1,165.000005035401,8|0,0:2|0:0,0:0:0:0:
322,211,239239,6,0,P|334:265|343:320,1,110.000003356934,2|0,3:2|3:2,0:0:0:0:
175,154,239565,1,8,0:2:0:0:
451,79,239729,2,0,P|351:108|288:26,1,220.000006713867,0|0,3:2|3:2,0:0:0:0:
111,261,240218,1,10,0:2:0:0:
341,144,240381,1,2,3:2:0:0:
85,0,240544,6,0,P|97:53|106:107,1,110.000003356934,2|0,3:2|3:2,0:0:0:0:
250,345,240870,2,0,P|258:290|271:237,1,110.000003356934,10|0,0:2|3:2,0:0:0:0:
445,100,241196,1,10,0:2:0:0:
449,127,241277,1,8,0:2:0:0:
454,154,241359,1,0,3:2:0:0:
288,26,241522,1,10,0:2:0:0:
284,53,241603,1,8,0:2:0:0:
279,80,241685,1,0,3:2:0:0:
489,264,241848,6,0,P|435:251|381:242,1,110.000003356934,6|0,3:2|3:2,0:0:0:0:
137,192,242174,1,8,0:2:0:0:
288,384,242337,2,0,P|269:275|245:168,1,220.000006713867,0|0,3:2|3:2,0:0:0:0:
160,384,242826,1,10,0:2:0:0:
381,242,242989,1,0,3:2:0:0:
175,88,243152,6,0,P|121:100|67:109,1,110.000003356934,2|0,3:2|3:2,0:0:0:0:
308,9,243479,2,0,P|371:56|361:134,1,165.000005035401,8|0,0:2|0:0,0:0:0:0:
300,211,243805,2,0,P|291:156|278:103,1,110.000003356934,2|0,3:2|3:2,0:0:0:0:
506,295,244131,2,0,P|458:231|380:241,1,165.000005035401,8|0,0:2|0:0,0:0:0:0:
331,312,244457,5,2,3:2:0:0:
477,199,244620,1,0,3:2:0:0:
211,226,244783,5,10,0:2:0:0:
428,314,244946,1,0,3:2:0:0:
179,325,245109,5,2,0:2:0:0:
409,145,245272,1,0,3:2:0:0:
139,36,245435,1,10,0:2:0:0:
331,312,245598,6,0,L|308:148,1,165.000005035401,2|0,3:2|0:0,0:0:0:0:
265,86,245924,1,2,3:2:0:0:
268,58,246006,1,2,0:2:0:0:
272,31,246087,1,10,0:2:0:0:
168,243,246251,1,10,0:2:0:0:
172,270,246332,2,0,L|180:334,1,55.0000016784668,8|2,0:2|0:2,0:0:0:0:
56,189,246495,1,8,0:2:0:0:
52,216,246576,2,0,L|44:280,1,55.0000016784668,2|0,3:2|0:0,0:0:0:0:
154,140,246739,5,10,0:2:0:0:
174,104,246820,1,8,0:2:0:0:
171,64,246902,1,8,0:2:0:0:
146,32,246983,1,8,0:2:0:0:
108,20,247065,6,0,P|53:27|0:36,1,110.000003356934,6|0,3:2|3:2,0:0:0:0:
168,243,247392,1,8,0:2:0:0:
354,72,247555,2,0,B|349:24|300:13|300:13|232:90|330:166,1,220.000006713867,0|0,3:2|3:2,0:0:0:0:
442,343,248044,1,10,0:2:0:0:
498,75,248207,1,0,3:2:0:0:
284,264,248370,6,0,P|337:252|391:241,1,110.000003356934,2|0,3:2|3:2,0:0:0:0:
95,42,248696,2,0,P|170:19|227:73,1,165.000005035401,8|0,0:2|0:0,0:0:0:0:
295,133,249022,2,0,P|240:143|187:155,1,110.000003356934,2|0,3:2|3:2,0:0:0:0:
0,268,249348,1,8,0:0:0:0:
252,384,249511,1,0,3:0:0:0:
252,384,249593,1,0,3:0:0:0:
252,384,249674,6,0,P|239:330|230:276,1,110.000003356934,2|0,3:2|3:2,0:0:0:0:
318,39,250000,1,8,0:2:0:0:
83,187,250163,2,0,P|189:154|296:131,1,220.000006713867,0|0,3:2|3:2,0:0:0:0:
41,82,250652,1,10,0:2:0:0:
230,276,250815,1,2,3:2:0:0:
199,16,250979,6,0,P|186:70|177:124,1,110.000003356934,2|0,3:2|3:2,0:0:0:0:
356,268,251305,1,10,0:2:0:0:
307,79,251468,1,8,0:2:0:0:
301,105,251549,1,8,0:2:0:0:
296,132,251631,1,2,3:2:0:0:
512,84,251794,1,8,0:2:0:0:
410,356,251957,5,10,0:2:0:0:
374,376,252038,1,8,0:2:0:0:
333,377,252120,1,8,0:2:0:0:
296,359,252201,1,8,0:2:0:0:
273,325,252283,6,0,P|263:270|251:217,1,110.000003356934,6|0,3:2|3:2,0:0:0:0:
161,0,252609,1,8,0:2:0:0:
404,157,252772,2,0,P|296:131|188:113,1,220.000006713867,0|0,3:2|3:2,0:0:0:0:
4,332,253261,1,10,0:2:0:0:
251,217,253424,1,6,3:2:0:0:
52,69,253587,6,0,P|65:123|74:177,1,110.000003356934,2|0,3:2|3:2,0:0:0:0:
392,78,253913,2,0,P|316:100|255:50,1,165.000005035401,8|0,0:2|0:0,0:0:0:0:
167,5,254239,2,0,P|180:59|189:113,1,110.000003356934,2|0,3:2|3:2,0:0:0:0:
296,384,254565,2,0,P|346:323|323:247,1,165.000005035401,8|0,0:2|0:0,0:0:0:0:
251,217,254892,5,6,3:2:0:0:
378,328,255055,1,0,3:2:0:0:
302,93,255218,5,10,0:2:0:0:
260,305,255381,1,0,3:2:0:0:
512,126,255544,5,2,0:2:0:0:
251,217,255707,1,0,3:2:0:0:
476,380,255870,1,10,0:2:0:0:
420,52,256033,6,0,L|392:216,1,165.000005035401,6|0,3:2|0:0,0:0:0:0:
344,332,256359,5,10,0:2:0:0:
317,366,256440,1,10,0:2:0:0:
277,384,256522,1,10,0:2:0:0:
234,382,256603,1,8,0:2:0:0:
196,361,256685,1,10,0:2:0:0:
172,324,256766,1,8,0:2:0:0:
148,287,256848,1,10,0:2:0:0:
110,266,256930,1,8,0:2:0:0:
67,264,257011,1,10,0:2:0:0:
27,282,257093,1,8,0:2:0:0:
2,316,257174,5,10,0:2:0:0:
51,306,257255,1,8,0:2:0:0:
100,295,257337,1,8,0:2:0:0:
148,287,257418,1,8,0:2:0:0:
198,275,257500,6,0,L|318:249,1,110.000003356934,6|0,3:2|3:2,0:0:0:0:
248,24,257826,1,8,0:2:0:0:
79,178,257989,2,0,P|186:154|294:131,1,220.000006713867,0|0,3:2|3:2,0:0:0:0:
512,279,258479,2,0,P|459:220|381:234,1,165.000005035401,10|0,0:2|0:0,0:0:0:0:
306,252,258805,6,0,P|317:305|329:359,1,110.000003356934,2|0,3:2|3:2,0:0:0:0:
477,141,259131,2,0,P|491:63|432:10,1,165.000005035401,8|0,0:2|0:0,0:0:0:0:
356,0,259457,2,0,P|302:11|248:23,1,110.000003356934,2|0,0:2|3:2,0:0:0:0:
23,196,259783,2,0,B|11:174|-3:155|-3:155|48:170|110:179,1,165.000005035401,8|0,0:2|0:0,0:0:0:0:
201,213,260109,6,0,P|189:159|177:105,1,110.000003356934,2|0,3:2|3:2,0:0:0:0:
133,311,260435,1,8,0:2:0:0:
283,143,260598,2,0,P|350:121|434:245,1,220.000006713867,0|0,3:2|3:2,0:0:0:0:
275,340,261087,1,10,0:2:0:0:
177,105,261250,1,2,3:2:0:0:
487,98,261413,6,0,P|473:207|461:316,1,220.000006713867,2|8,0:2|0:2,0:0:0:0:
379,50,261902,2,0,P|372:104|366:159,1,110.000003356934,0|2,3:2|0:2,0:0:0:0:
325,225,262147,1,8,0:2:0:0:
332,240,262229,2,0,P|335:267|338:294,1,55.0000016784668,0|0,3:2|0:0,0:0:0:0:
359,372,262392,1,8,0:2:0:0:
385,375,262474,1,8,0:2:0:0:
412,380,262555,1,0,3:2:0:0:
256,116,262718,6,0,P|146:128|37:142,1,220.000006713867,6|8,3:2|0:2,0:0:0:0:
156,340,263207,2,0,P|161:285|168:230,1,110.000003356934,2|0,3:2|0:0,0:0:0:0:
282,26,263533,1,2,3:2:0:0:
332,240,263696,1,10,0:2:0:0:
141,93,263859,2,0,L|128:23,1,55.0000016784668,2|0,3:2|0:0,0:0:0:0:
345,128,264022,6,0,P|290:137|236:147,1,110.000003356934,2|0,3:2|3:2,0:0:0:0:
23,305,264348,2,0,P|90:283|159:365,1,165.000005035401,10|0,0:2|0:0,0:0:0:0:
222,384,264674,1,2,3:2:0:0:
59,189,264837,1,0,3:2:0:0:
332,240,265000,2,0,P|277:249|223:259,1,110.000003356934,10|0,0:2|0:0,0:0:0:0:
21,70,265326,6,0,P|74:80|129:89,1,110.000003356934,2|0,3:2|3:2,0:0:0:0:
373,148,265652,1,8,0:2:0:0:
201,12,265815,1,2,3:2:0:0:
224,260,265979,2,0,P|233:205|243:151,1,110.000003356934,2|0,0:2|3:2,0:0:0:0:
314,364,266305,1,10,0:2:0:0:
128,238,266468,1,2,3:2:0:0:
373,148,266631,6,0,B|398:134|417:114|417:114|441:132|477:150|477:150|453:203|492:262,1,220.000006713867,2|8,3:2|0:2,0:0:0:0:
330,49,267120,1,10,0:2:0:0:
330,49,267201,1,10,0:2:0:0:
330,49,267283,1,2,3:2:0:0:
224,260,267446,1,2,3:2:0:0:
31,90,267609,1,10,0:2:0:0:
47,52,267690,1,8,0:2:0:0:
83,35,267772,1,8,0:2:0:0:
123,44,267853,1,8,0:2:0:0:
147,76,267935,6,0,P|137:130|130:184,1,110.000003356934,6|0,3:2|3:2,0:0:0:0:
319,292,268261,1,8,0:2:0:0:
258,42,268424,2,0,P|237:152|223:262,1,220.000006713867,0|0,3:2|3:2,0:0:0:0:
462,114,268913,2,0,P|476:47|399:39,1,165.000005035401,10|0,0:2|0:0,0:0:0:0:
344,94,269239,6,0,P|334:148|327:202,1,110.000003356934,2|0,3:2|3:2,0:0:0:0:
138,359,269565,2,0,P|127:275|111:191,1,165.000005035401,8|0,0:2|0:0,0:0:0:0:
80,127,269892,1,2,3:2:0:0:
273,273,270055,1,0,3:2:0:0:
17,362,270218,2,0,P|9:307|0:253,1,110.000003356934,8|0,0:2|0:0,0:0:0:0:
173,21,270544,6,0,B|252:40|252:40|275:93|275:93|388:121,1,220.000006713867,2|8,3:2|0:2,0:0:0:0:
128,271,271033,2,0,B|105:145|105:145|137:97|196:129,1,220.000006713867,2|0,3:2|3:2,0:0:0:0:
381,292,271522,2,0,P|326:281|272:272,1,110.000003356934,10|0,0:2|3:2,0:0:0:0:
292,183,271767,1,0,3:2:0:0:
292,183,271848,6,0,P|346:193|400:202,1,110.000003356934,2|0,3:2|3:2,0:0:0:0:
199,307,272174,1,8,0:2:0:0:
366,115,272337,1,0,3:2:0:0:
366,115,272419,1,0,3:2:0:0:
366,115,272500,1,2,3:2:0:0:
460,347,272663,1,8,0:2:0:0:
204,211,272826,1,8,0:2:0:0:
503,115,272989,1,8,0:2:0:0:
503,115,273071,1,8,0:2:0:0:
503,115,273152,6,0,P|489:188|476:262,1,150.000005722046,6|0,3:2|3:2,0:0:0:0:
307,351,273642,1,2,0:2:0:0:
390,198,273805,2,0,P|382:234|376:271,1,75.0000028610231,8|0,0:2|0:0,0:0:0:0:
212,384,274131,1,2,3:2:0:0:
294,226,274294,1,2,3:2:0:0:
395,384,274457,5,2,0:2:0:0:
224,294,274620,2,0,P|187:300|150:307,1,75.0000028610231,8|0,0:2|3:2,0:0:0:0:
307,351,274946,1,2,0:2:0:0:
194,139,275109,2,0,P|186:175|180:212,1,75.0000028610231,8|0,0:2|0:0,0:0:0:0:
312,84,275435,1,2,3:2:0:0:
144,28,275598,1,8,0:2:0:0:
144,28,275680,1,8,0:2:0:0:
144,28,275761,6,0,B|100:32|74:8|74:8|71:55|24:77,1,150.000005722046,6|2,3:2|3:2,0:0:0:0:
180,212,276250,1,2,0:2:0:0:
5,180,276413,2,0,P|41:171|78:164,1,75.0000028610231,8|0,0:2|0:0,0:0:0:0:
281,258,276739,1,0,3:2:0:0:
219,52,276902,2,0,P|210:88|203:125,1,75.0000028610231,0|0,3:2|0:0,0:0:0:0:
139,383,277229,5,8,0:2:0:0:
75,322,277392,1,0,3:2:0:0:
96,237,277555,1,0,3:2:0:0:
224,359,277718,5,8,0:2:0:0:
11,261,277881,1,8,0:2:0:0:
203,125,278044,6,0,L|206:100,2,18.7500007152558,2|0|2,0:0|0:0|0:0,0:0:0:0:
169,195,278207,1,10,0:2:0:0:
174,211,278288,1,8,0:2:0:0:
179,226,278370,5,4,3:2:0:0:
292,69,278533,1,0,3:2:0:0:
184,241,278696,2,0,L|276:224,1,85.0000016212464,0|0,3:2|0:0,0:0:0:0:
50,134,279022,2,0,L|178:110,1,127.50000243187,8|0,0:2|0:0,0:0:0:0:
205,106,279348,1,0,3:2:0:0:
96,303,279511,6,0,L|79:210,1,85.0000016212464,0|0,3:2|0:0,0:0:0:0:
218,384,279837,2,0,L|234:291,1,85.0000016212464,0|0,3:2|0:0,0:0:0:0:
379,179,280163,1,0,3:2:0:0:
379,179,280245,1,0,3:2:0:0:
379,179,280326,2,0,L|201:211,1,170.000003242493,8|0,0:2|3:2,0:0:0:0:
310,110,280815,1,0,3:0:0:0:
310,110,280897,1,0,3:0:0:0:
310,110,280979,5,0,3:2:0:0:
232,300,281142,1,0,3:2:0:0:
302,84,281305,2,0,L|286:-3,1,85.0000016212464,0|0,3:2|0:0,0:0:0:0:
104,173,281631,2,0,P|166:149|219:184,1,127.50000243187,8|0,0:2|0:0,0:0:0:0:
232,213,281957,1,0,3:2:0:0:
67,358,282120,6,0,L|83:274,1,85.0000016212464,0|0,3:2|0:0,0:0:0:0:
16,116,282446,2,0,L|0:199,1,85.0000016212464,0|2,3:2|0:0,0:0:0:0:
160,77,282772,1,2,3:2:0:0:
160,77,282854,1,0,3:2:0:0:
160,77,282935,1,10,0:2:0:0:
0,15,283098,1,2,3:2:0:0:
104,173,283261,2,0,L|236:147,1,127.50000243187,8|0,0:2|0:0,0:0:0:0:
300,135,283587,5,4,3:2:0:0:
181,251,283750,1,0,3:2:0:0:
310,125,283913,2,0,L|322:216,1,85.0000016212464,0|0,3:2|0:0,0:0:0:0:
177,347,284239,2,0,L|305:330,1,127.50000243187,8|0,0:2|0:0,0:0:0:0:
336,328,284565,1,0,3:2:0:0:
170,167,284729,6,0,L|182:258,1,85.0000016212464,0|0,3:2|0:0,0:0:0:0:
321,40,285055,2,0,L|309:131,1,85.0000016212464,0|0,3:2|0:0,0:0:0:0:
84,122,285381,1,0,3:2:0:0:
84,122,285462,1,0,3:2:0:0:
84,122,285544,2,0,P|135:74|233:93,1,170.000003242493,8|0,0:2|3:2,0:0:0:0:
396,70,286033,1,0,3:0:0:0:
396,70,286114,1,0,3:0:0:0:
396,70,286196,5,0,3:2:0:0:
261,215,286359,1,0,3:2:0:0:
406,47,286522,2,0,L|321:39,1,85.0000016212464,0|0,3:2|0:0,0:0:0:0:
68,75,286848,2,0,L|194:86,1,127.50000243187,8|0,0:2|0:0,0:0:0:0:
228,88,287174,1,0,3:2:0:0:
149,234,287337,6,0,L|152:196,1,27.5000008392334,4|0,3:2|0:0,0:0:0:0:
327,288,287663,6,0,L|330:250,1,27.5000008392334,0|0,3:2|0:0,0:0:0:0:
338,182,287826,1,2,0:0:0:0:
505,342,287989,5,2,3:2:0:0:
505,342,288071,1,0,3:2:0:0:
505,342,288152,1,10,0:2:0:0:
429,144,288315,5,10,0:2:0:0:
422,229,288478,1,10,0:2:0:0:
415,314,288641,1,10,0:2:0:0:
437,60,288805,5,4,3:2:0:0:
498,192,288968,1,0,3:2:0:0:
433,45,289131,2,0,L|319:28,1,85.0000016212464,0|0,3:2|0:0,0:0:0:0:
211,200,289457,2,0,P|247:159|334:182,1,127.50000243187,8|0,0:2|0:0,0:0:0:0:
338,182,289783,1,0,3:2:0:0:
222,318,289946,6,0,L|122:303,1,85.0000016212464,0|0,3:2|0:0,0:0:0:0:
15,173,290272,2,0,L|99:185,1,85.0000016212464,0|0,3:2|0:0,0:0:0:0:
236,31,290598,1,0,3:2:0:0:
236,31,290680,1,0,3:2:0:0:
236,31,290761,2,0,L|209:206,1,170.000003242493,8|0,0:2|3:2,0:0:0:0:
318,101,291250,1,0,3:0:0:0:
318,101,291332,1,0,3:0:0:0:
318,101,291413,5,0,3:2:0:0:
99,185,291576,1,0,3:2:0:0:
330,121,291739,2,0,L|420:136,1,85.0000016212464,0|0,3:2|0:0,0:0:0:0:
232,325,292065,2,0,L|209:192,1,127.50000243187,8|0,0:2|0:0,0:0:0:0:
204,168,292392,1,0,3:2:0:0:
401,258,292555,6,0,L|317:244,1,85.0000016212464,0|0,3:2|0:0,0:0:0:0:
146,91,292881,2,0,L|229:77,1,85.0000016212464,0|2,3:2|0:0,0:0:0:0:
99,185,293207,1,2,3:2:0:0:
99,185,293288,1,0,3:2:0:0:
99,185,293370,5,10,0:2:0:0:
175,0,293533,1,2,3:2:0:0:
298,151,293696,2,0,L|161:173,1,127.50000243187,8|0,0:2|0:0,0:0:0:0:
99,185,294022,5,4,3:2:0:0:
258,248,294185,1,0,3:2:0:0:
86,178,294348,2,0,L|73:270,1,89.9999972534181,0|0,3:2|0:0,0:0:0:0:
273,373,294674,2,0,L|414:352,1,134.999995880127,8|0,0:2|0:0,0:0:0:0:
436,349,295000,1,0,3:2:0:0:
271,159,295163,6,0,L|255:270,1,89.9999972534181,0|0,3:2|0:0,0:0:0:0:
370,71,295489,2,0,L|385:182,1,89.9999972534181,0|0,3:2|0:0,0:0:0:0:
149,280,295815,1,0,3:2:0:0:
149,280,295897,1,0,3:2:0:0:
149,280,295979,2,0,L|176:84,1,179.999994506836,8|0,0:2|3:2,0:0:0:0:
78,181,296468,1,0,3:0:0:0:
78,181,296549,1,0,3:0:0:0:
78,181,296631,5,0,3:2:0:0:
276,73,296794,1,0,3:2:0:0:
54,158,296957,2,0,B|19:125|19:125|41:71,1,94.9999974632264,0|0,3:2|0:0,0:0:0:0:
231,171,297283,2,0,L|210:311,1,142.49999619484,8|0,0:2|0:0,0:0:0:0:
201,344,297609,1,0,3:2:0:0:
64,265,297772,6,0,L|114:257,1,31.25,4|0,3:2|0:0,0:0:0:0:
245,77,298098,6,0,L|295:69,1,31.25,0|0,3:2|0:0,0:0:0:0:
367,324,298424,6,0,L|417:316,1,31.25,0|0,3:2|0:0,0:0:0:0:
483,311,298587,1,8,0:2:0:0:
306,172,298750,5,8,0:2:0:0:
268,384,298913,1,8,0:2:0:0:
460,170,299076,2,0,B|452:123|452:123|465:102|465:102|454:40,1,125,8|0,0:2|0:0,0:0:0:0:
