osu file format v14

[General]
AudioFilename: audio.mp3
AudioLeadIn: 0
PreviewTime: 58917
Countdown: 0
SampleSet: Soft
StackLeniency: 0.7
Mode: 0
LetterboxInBreaks: 0
WidescreenStoryboard: 0

[Editor]
Bookmarks: 7069,17504,38374,59243,74895,80113,111417,132287,147939,171417,192939,210547,215765,231417,236634,257504,273156,278374
DistanceSpacing: 1
BeatDivisor: 4
GridSize: 4
TimelineZoom: 1.7

[Metadata]
Title:KOWAREYASUKI
TitleUnicode:コワレヤスキ
Artist:Guilty Kiss
ArtistUnicode:Guilty Kiss
Creator:Noctiam
Version:Fragile
Source:ラブライブ!サンシャイン!!
Tags:love live! sunshine!! school idol project aqours sakurauchi riko 桜内 梨子 rikako aida 逢田 梨香子 tsushima yoshiko 津島 善子 kobayashi aika 小林 愛香 ohara mari 小原 鞠莉 suzuki aina 鈴木 愛奈 aki hata 畑亜貴 takashi saeki 佐伯高志
BeatmapID:1621698
BeatmapSetID:743895

[Difficulty]
HPDrainRate:7
CircleSize:4
OverallDifficulty:8.5
ApproachRate:9.3
SliderMultiplier:1.8
SliderTickRate:1

[Events]
//Background and Video events
0,0,"background.jpg",0,0
//Break Periods
//Storyboard Layer 0 (Background)
//Storyboard Layer 1 (Fail)
//Storyboard Layer 2 (Pass)
//Storyboard Layer 3 (Foreground)
//Storyboard Sound Samples

[TimingPoints]
548,326.086956521739,4,2,0,80,1,0
6988,-100,4,2,3,5,0,0
7069,-100,4,2,1,80,0,0
17504,-90.9090909090909,4,2,1,80,0,0
37232,-90.9090909090909,4,2,1,70,0,0
38374,-200,4,2,1,70,0,0
57939,-80,4,2,1,80,0,0
59243,-80,4,2,2,90,0,1
68537,-58.8235294117647,4,2,1,90,0,1
69678,-80,4,2,2,90,0,1
74895,-200,4,2,1,75,0,0
80113,-100,4,2,1,80,0,0
110276,-100,4,2,1,70,0,0
111417,-200,4,2,1,70,0,0
130982,-80,4,2,0,80,0,0
131961,-200,4,2,0,80,0,0
132287,-80,4,2,2,90,0,1
141580,-58.8235294117647,4,2,1,90,0,1
142721,-80,4,2,2,90,0,1
147939,-200,4,2,1,80,0,0
148917,-100,4,2,1,75,0,0
150547,-200,4,2,0,80,0,0
159678,-200,4,2,1,75,0,0
160330,-80,4,2,1,80,0,0
160656,-200,4,2,1,75,0,0
165547,-80,4,2,1,75,0,0
166200,-200,4,2,1,75,0,0
170602,-100,4,2,2,40,0,0
170765,-100,4,2,2,50,0,0
170928,-100,4,2,2,60,0,0
171091,-100,4,2,2,70,0,0
171254,-100,4,2,2,80,0,0
171417,-80,4,2,2,90,0,0
192939,-200,4,2,1,80,0,0
210547,-100,4,2,1,80,0,0
213156,-200,4,2,0,80,0,0
213482,-125,4,2,0,80,0,0
214134,-125,4,2,0,80,0,0
215765,-80,4,2,2,90,0,1
225058,-58.8235294117647,4,2,1,90,0,1
226200,-80,4,2,2,90,0,1
231417,-80,4,2,2,80,0,0
236308,-200,4,2,2,80,0,0
236634,-80,4,2,2,90,0,1
245928,-58.8235294117647,4,2,1,90,0,1
247069,-80,4,2,2,90,0,1
257504,-80,4,2,2,80,0,0
273156,-125,4,2,1,80,0,0
278374,-100,4,2,1,80,0,0
299243,-100,4,2,3,5,0,0

[Colours]
Combo1 : 193,0,0
Combo2 : 192,192,192
Combo3 : 255,128,255
Combo4 : 163,70,255
Combo5 : 141,141,141
Combo6 : 255,128,192
Combo7 : 128,0,255
Combo8 : 255,0,0

[HitObjects]
256,192,384,12,0,6988,0:0:0:0:
194,191,7069,102,0,B|220:228|220:228|224:280,1,90,4|0,0:0|0:0,0:0:0:0:
124,344,7395,1,0,0:0:0:0:
44,232,7558,1,0,0:0:0:0:
186,113,7721,2,0,B|132:126|120:176|120:176|120:236|171:263,1,180,8|0,0:0|0:0,0:0:0:0:
402,289,8211,2,0,B|433:274|433:214|433:214|421:164|367:151,1,180
192,192,8700,1,0,0:0:0:0:
360,224,8863,1,0,0:0:0:0:
300,80,9026,1,8,0:0:0:0:
254,317,9189,2,0,B|208:324|208:324|160:308,1,90
160,104,9515,5,0,0:0:0:0:
160,104,9596,1,0,0:0:0:0:
160,104,9678,2,0,B|121:125|121:125|93:161,1,90
196,280,10004,1,0,0:0:0:0:
312,172,10167,1,0,0:0:0:0:
264,320,10330,2,0,P|192:356|116:300,1,180,8|0,0:0|0:0,0:0:0:0:
296,96,10819,2,0,P|374:130|382:216,1,180
192,288,11308,101,0,0:0:0:0:
152,128,11471,1,0,0:0:0:0:
308,176,11634,1,8,0:0:0:0:
220,84,11797,1,0,0:0:0:0:
259,243,11960,1,8,0:0:0:0:
104,196,12123,1,0,0:0:0:0:
316,100,12287,6,0,P|356:120|384:164,1,90,4|0,0:0|0:0,0:0:0:0:
96,272,12613,2,0,P|56:252|28:208,1,90
308,176,12939,2,0,B|325:229|325:229|242:328,1,180,8|0,0:0|0:0,0:0:0:0:
129,87,13428,2,0,B|73:100|73:100|28:221,1,180
314,249,13917,1,0,0:0:0:0:
130,165,14080,1,0,0:0:0:0:
342,165,14243,1,8,0:0:0:0:
114,257,14406,2,0,L|22:293,1,90
304,300,14732,101,0,0:0:0:0:
304,300,14814,1,0,0:0:0:0:
304,300,14895,2,0,B|332:340|332:340|384:368,1,90
476,232,15221,1,0,0:0:0:0:
340,136,15384,1,0,0:0:0:0:
188,184,15547,2,0,L|252:251,1,90,8|0,0:0|0:0,0:0:0:0:
440,168,15874,1,0,0:0:0:0:
304,72,16037,1,4,0:0:0:0:
122,242,16363,5,4,0:0:0:0:
380,244,16689,101,0,0:0:0:0:
362,243,16852,1,8,0:0:0:0:
276,160,17015,21,8,0:0:0:0:
504,176,17178,1,8,0:0:0:0:
372,360,17341,1,8,0:0:0:0:
372,188,17504,2,0,P|420:196|456:228,1,99.0000030212403,4|0,0:0|0:0,0:0:0:0:
456,328,17830,1,0,0:0:0:0:
312,248,17993,2,0,L|264:220,1,49.5000015106202,8|0,0:0|0:0,0:0:0:0:
380,284,18156,1,0,0:0:0:0:
312,248,18482,38,0,P|344:210|348:153,1,99.0000030212403
172,36,18808,2,0,P|140:72|133:121,1,99.0000030212403
272,184,19134,1,0,0:0:0:0:
296,40,19297,1,0,0:0:0:0:
416,180,19461,2,0,P|448:143|455:95,1,99.0000030212403,8|0,0:0|0:0,0:0:0:0:
236,120,19787,2,0,P|204:157|197:205,1,99.0000030212403
285,296,20113,70,0,L|389:296,1,99.0000030212403
449,212,20439,1,0,0:0:0:0:
377,116,20602,2,0,L|273:116,1,99.0000030212403,8|0,0:0|0:0,0:0:0:0:
337,212,20928,1,0,0:0:0:0:
448,68,21091,1,0,0:0:0:0:
241,52,21254,2,0,P|209:100|209:148,1,99.0000030212403
414,231,21580,2,0,P|446:183|446:135,1,99.0000030212403
249,40,21906,1,0,0:0:0:0:
457,132,22069,1,8,0:0:0:0:
280,184,22232,37,0,0:0:0:0:
92,136,22395,1,8,0:0:0:0:
148,292,22558,1,0,0:0:0:0:
148,292,22640,1,0,0:0:0:0:
148,292,22721,2,0,P|197:286|234:255,1,99.0000030212403
408,168,23047,1,0,0:0:0:0:
364,292,23211,2,0,L|296:300,1,49.5000015106202,8|0,0:0|0:0,0:0:0:0:
436,280,23374,1,0,0:0:0:0:
364,292,23700,70,0,P|344:340|300:372,1,99.0000030212403
88,296,24026,2,0,P|95:247|125:208,1,99.0000030212403
328,148,24352,1,0,0:0:0:0:
244,256,24515,1,0,0:0:0:0:
172,116,24678,1,8,0:0:0:0:
368,284,24841,1,0,0:0:0:0:
124,208,25004,2,0,P|131:256|162:295,1,99.0000030212403
296,244,25330,38,0,L|357:166,1,99.0000030212403
260,104,25656,1,0,0:0:0:0:
417,88,25819,2,0,L|356:166,1,99.0000030212403,8|0,0:0|0:0,0:0:0:0:
196,68,26145,1,0,0:0:0:0:
52,144,26308,1,0,0:0:0:0:
172,256,26471,2,0,P|224:256|260:224,1,99.0000030212403
396,44,26797,2,0,P|347:43|309:74,1,99.0000030212403
196,188,27124,1,0,0:0:0:0:
336,264,27287,1,8,0:0:0:0:
312,112,27450,21,0,0:0:0:0:
132,156,27613,1,8,0:0:0:0:
208,324,27776,1,0,0:0:0:0:
208,324,27857,1,0,0:0:0:0:
208,324,27939,2,0,P|254:334|299:316,1,99.0000030212403,4|0,0:0|0:0,0:0:0:0:
432,232,28265,1,0,0:0:0:0:
296,196,28428,2,0,L|300:246,1,49.5000015106202,8|0,0:0|0:0,0:0:0:0:
292,124,28591,1,0,0:0:0:0:
92,116,28917,70,0,P|117:158|162:178,1,99.0000030212403
368,116,29243,2,0,P|343:74|300:52,1,99.0000030212403
164,108,29569,1,0,0:0:0:0:
292,124,29732,1,0,0:0:0:0:
164,240,29895,1,8,0:0:0:0:
320,280,30058,1,0,0:0:0:0:
480,220,30221,2,0,P|455:178|412:156,1,99.0000030212403
396,123,30466,1,0,0:0:0:0:
433,94,30547,38,0,L|349:23,1,99.0000030212403
262,77,30874,1,0,0:0:0:0:
255,213,31037,2,0,L|179:149,1,99.0000030212403,8|0,0:0|0:0,0:0:0:0:
11,186,31363,1,0,0:0:0:0:
126,59,31526,1,0,0:0:0:0:
321,104,31689,2,0,P|297:60|250:38,1,99.0000030212403
80,208,32015,2,0,P|102:164|145:143,1,99.0000030212403
252,254,32341,1,0,0:0:0:0:
397,185,32504,1,8,0:0:0:0:
212,48,32667,69,0,0:0:0:0:
328,156,32830,1,8,0:0:0:0:
152,212,32993,1,0,0:0:0:0:
372,96,33156,2,0,P|400:144|392:200,1,99.0000030212403,4|0,0:0|0:0,0:0:0:0:
228,136,33482,1,0,0:0:0:0:
141,272,33645,2,0,L|92:279,1,49.5000015106202,8|0,0:0|0:0,0:0:0:0:
216,264,33808,1,0,0:0:0:0:
92,280,34134,38,0,P|117:322|162:342,1,99.0000030212403
320,244,34461,2,0,P|295:202|250:182,1,99.0000030212403
48,184,34787,1,0,0:0:0:0:
216,264,34950,1,0,0:0:0:0:
144,124,35113,2,0,P|190:142|237:130,1,99.0000030212403,8|0,0:0|0:0,0:0:0:0:
428,164,35439,2,0,P|382:146|335:158,1,99.0000030212403
336,192,35683,69,0,0:0:0:0:
335,226,35765,2,0,P|382:237|427:220,1,99.0000030212403,0|8,0:0|0:0,0:0:0:0:
468,100,36091,1,0,0:0:0:0:
300,56,36254,1,8,0:0:0:0:
128,92,36417,1,0,0:0:0:0:
164,208,36580,2,0,P|116:219|71:201,1,99.0000030212403,8|0,0:0|0:0,0:0:0:0:
348,176,36906,2,0,P|395:164|440:182,1,99.0000030212403
120,144,37232,37,8,0:0:0:0:
304,176,37395,1,8,0:0:0:0:
152,231,37558,1,8,0:0:0:0:
271,88,37721,1,8,0:0:0:0:
244,247,37884,1,8,0:0:0:0:
179,72,38047,1,8,0:0:0:0:
304,176,38211,1,8,0:0:0:0:
384,308,38374,54,0,L|292:332,1,90
128,308,38863,2,0,L|220:332,1,90
352,202,39352,2,0,L|308:212,1,45
159,202,39678,2,0,L|204:212,1,45
328,104,40004,2,0,L|284:113,1,45
184,104,40330,1,0,0:0:0:0:
100,336,40656,37,0,0:0:0:0:
172,272,40819,1,0,0:0:0:0:
256,336,40982,2,0,L|336:296,1,90
256,220,41471,2,0,L|176:180,1,90
256,128,41961,2,0,L|296:107,1,45
256,32,42287,2,0,L|215:52,1,45
256,220,42613,2,0,L|256:175,2,45
358,81,43265,69,0,0:0:0:0:
449,166,43428,1,0,0:0:0:0:
361,266,43591,2,0,B|329:252|317:295|276:267,2,90
112,78,44569,69,0,0:0:0:0:
21,163,44732,1,0,0:0:0:0:
109,263,44895,2,0,B|141:249|153:292|194:264,1,90
198,78,45547,2,0,B|166:64|154:107|113:79,1,90
314,78,46200,70,0,B|355:50|367:93|399:79,1,90
272,180,46689,2,0,B|240:194|228:151|187:179,1,90
60,176,47178,2,0,B|52:196|60:224,1,45
60,244,47422,1,8,0:0:0:0:
60,267,47504,1,8,0:0:0:0:
256,272,47830,1,8,0:0:0:0:
256,52,48156,37,0,0:0:0:0:
256,168,48319,1,8,0:0:0:0:
424,145,48482,1,8,0:0:0:0:
424,33,48645,1,0,0:0:0:0:
344,108,48808,6,0,L|344:200,1,90
252,240,49297,1,0,0:0:0:0:
156,196,49461,2,0,L|156:106,1,90,8|0,0:0|0:0,0:0:0:0:
252,52,49950,1,0,0:0:0:0:
344,108,50113,6,0,P|300:116|264:143,1,90
368,240,50602,1,0,0:0:0:0:
464,148,50765,1,8,0:0:0:0:
32,139,51091,1,0,0:0:0:0:
88,33,51254,1,0,0:0:0:0:
168,108,51417,6,0,L|168:200,1,90
260,240,51906,1,0,0:0:0:0:
356,196,52070,2,0,L|356:106,1,90,8|0,0:0|0:0,0:0:0:0:
260,52,52559,1,0,0:0:0:0:
168,108,52722,6,0,P|212:116|248:143,1,90
229,306,53211,2,0,L|198:323,1,22.5
183,333,53374,2,0,P|146:312|135:266,1,90
304,352,53863,1,0,0:0:0:0:
428,252,54026,6,0,L|336:252,1,90,4|0,0:0|0:0,0:0:0:0:
256,176,54515,1,0,0:0:0:0:
174,252,54678,2,0,L|84:252,1,90,8|0,0:0|0:0,0:0:0:0:
52,352,55167,1,0,0:0:0:0:
255,243,55330,6,0,L|236:305,1,45
356,344,55656,2,0,L|338:302,1,45
437,288,55982,2,0,L|475:310,1,45
344,213,56308,1,0,0:0:0:0:
440,210,56471,1,8,0:0:0:0:
440,192,56552,1,8,0:0:0:0:
440,174,56634,6,0,P|416:134|376:110,1,90
252,54,57124,1,0,0:0:0:0:
277,171,57287,1,8,0:0:0:0:
135,153,57450,2,0,P|126:175|129:197,1,45
205,286,57776,1,0,0:0:0:0:
328,288,57939,70,0,L|388:276,1,56.25
440,192,58102,2,0,L|380:180,1,56.25
328,108,58265,1,0,0:0:0:0:
342,83,58346,1,0,0:0:0:0:
359,61,58428,1,0,0:0:0:0:
381,42,58509,1,0,0:0:0:0:
405,28,58591,1,4,0:0:0:0:
87,112,59243,70,0,B|64:161|64:161|73:205|73:205|104:243|104:243|151:242|184:217,1,225,4|8,0:0|0:0,0:0:0:0:
416,124,59732,1,0,0:0:0:0:
272,248,59895,1,0,0:0:0:0:
308,92,60058,1,0,0:0:0:0:
402,233,60221,2,0,P|390:287|345:317,1,112.5,8|0,0:0|0:0,0:0:0:0:
143,371,60547,6,0,P|247:350|271:247,1,225,0|8,0:0|0:0,0:0:0:0:
176,108,61037,1,0,0:0:0:0:
44,320,61200,2,0,B|153:295|153:295|172:180,1,225,0|8,0:0|0:0,0:0:0:0:
188,24,61689,1,0,0:0:0:0:
72,188,61852,5,0,0:0:0:0:
280,84,62015,1,0,0:0:0:0:
80,76,62178,1,8,0:0:0:0:
260,196,62341,1,0,0:0:0:0:
442,84,62504,2,0,L|384:180,1,112.5
171,178,62830,1,8,0:0:0:0:
276,276,62993,1,0,0:0:0:0:
384,180,63156,6,0,L|500:208,1,112.5
272,292,63482,2,0,L|156:320,1,112.5,8|0,0:0|0:0,0:0:0:0:
100,192,63808,1,0,0:0:0:0:
139,182,63889,1,0,0:0:0:0:
177,173,63971,1,0,0:0:0:0:
370,80,64134,1,8,0:0:0:0:
331,90,64215,1,0,0:0:0:0:
293,99,64297,1,0,0:0:0:0:
468,164,64461,6,0,P|380:244|284:200,1,225,4|8,0:0|0:0,0:0:0:0:
92,48,64950,1,0,0:0:0:0:
116,240,65113,1,0,0:0:0:0:
252,108,65276,1,0,0:0:0:0:
40,204,65439,2,0,P|39:259|67:306,1,112.5,8|0,0:0|0:0,0:0:0:0:
304,328,65765,6,0,P|314:274|295:222,1,112.5
224,108,66091,1,8,0:0:0:0:
160,304,66254,1,0,0:0:0:0:
375,239,66417,2,0,P|414:200|427:146,1,112.5
212,32,66743,2,0,P|165:61|141:111,1,112.5,8|0,0:0|0:0,0:0:0:0:
256,192,67068,5,8,0:0:0:0:
217,111,67232,1,0,0:0:0:0:
306,264,67394,1,8,0:0:0:0:
140,116,67557,1,0,0:0:0:0:
372,228,67720,1,8,0:0:0:0:
102,184,67884,1,0,0:0:0:0:
412,160,68047,1,8,0:0:0:0:
116,256,68211,1,0,0:0:0:0:
400,88,68374,1,8,0:0:0:0:
112,80,68537,101,0,0:0:0:0:
108,84,68618,1,0,0:0:0:0:
104,88,68700,2,0,L|117:166,1,76.5000014591217,8|0,0:0|0:0,0:0:0:0:
232,204,68863,1,8,0:0:0:0:
236,208,68944,1,8,0:0:0:0:
240,212,69026,2,0,L|227:290,1,76.5000014591217,8|0,0:0|0:0,0:0:0:0:
353,343,69189,2,0,P|395:335|423:305,1,76.5000014591217,4|0,0:0|0:0,0:0:0:0:
429,281,69352,1,8,0:0:0:0:
436,233,69433,1,8,0:0:0:0:
415,190,69515,1,8,0:0:0:0:
373,167,69596,1,8,0:0:0:0:
336,192,69678,6,0,P|284:96|372:48,1,225,4|8,0:0|0:0,0:0:0:0:
500,132,70167,1,0,0:0:0:0:
272,268,70330,1,0,0:0:0:0:
352,120,70493,1,0,0:0:0:0:
428,264,70656,2,0,L|320:324,1,112.5,8|0,0:0|0:0,0:0:0:0:
64,316,70982,6,0,L|256:192,1,225,0|8,0:0|0:0,0:0:0:0:
100,148,71472,1,0,0:0:0:0:
279,68,71634,2,0,P|383:100|387:208,1,225,0|8,0:0|0:0,0:0:0:0:
252,344,72124,1,0,0:0:0:0:
168,124,72287,101,0,0:0:0:0:
116,348,72450,1,0,0:0:0:0:
288,176,72613,1,8,0:0:0:0:
56,208,72776,1,0,0:0:0:0:
252,344,72939,2,0,P|292:296|280:244,1,112.5
256,88,73265,1,8,0:0:0:0:
390,257,73428,1,0,0:0:0:0:
390,257,73509,1,0,0:0:0:0:
390,257,73591,6,0,P|334:269|282:249,1,112.5
140,169,73917,2,0,P|193:154|243:178,1,112.5,8|0,0:0|0:0,0:0:0:0:
188,284,74243,1,8,0:0:0:0:
68,168,74406,1,0,0:0:0:0:
256,88,74569,1,8,0:0:0:0:
413,246,74732,1,0,0:0:0:0:
153,338,74895,102,0,P|65:326|82:254,1,180,4|8,0:0|0:0,0:0:0:0:
304,108,75874,2,0,L|352:144,1,45
356,232,76200,1,4,0:0:0:0:
264,228,76363,2,0,L|216:188,1,45,8|0,0:0|0:0,0:0:0:0:
104,80,76852,2,0,L|172:140,1,90,8|0,0:0|0:0,0:0:0:0:
176,292,77341,1,8,0:0:0:0:
176,292,77422,1,8,0:0:0:0:
176,292,77504,2,0,L|108:232,1,90,4|0,0:0|0:0,0:0:0:0:
404,236,78156,6,0,L|324:304,1,90,8|0,0:0|0:0,0:0:0:0:
136,268,78645,2,0,L|172:296,1,45
256,240,78971,1,8,0:0:0:0:
136,188,79134,2,0,L|172:160,1,45
47,153,79460,1,8,0:0:0:0:
10,262,79624,1,0,0:0:0:0:
132,324,79787,1,0,0:0:0:0:
175,312,79868,1,0,0:0:0:0:
218,300,79950,1,8,0:0:0:0:
262,288,80031,1,8,0:0:0:0:
304,276,80113,102,0,B|348:264|348:264|388:228,1,90,4|0,0:0|0:0,0:0:0:0:
472,140,80439,1,0,0:0:0:0:
436,276,80602,1,0,0:0:0:0:
268,200,80765,2,0,B|232:160|232:160|196:192|184:100|120:120,1,180,8|0,0:0|0:0,0:0:0:0:
380,164,81254,2,0,B|340:200|340:200|372:236|280:248|300:312,1,180
460,260,81743,1,0,0:0:0:0:
268,200,81906,1,0,0:0:0:0:
460,128,82069,1,8,0:0:0:0:
268,68,82232,2,0,B|230:98|230:98|209:134,1,90
160,324,82558,5,0,0:0:0:0:
160,324,82639,1,0,0:0:0:0:
160,324,82721,2,0,B|125:299|125:299|109:255,1,90
140,88,83047,1,0,0:0:0:0:
264,220,83211,1,0,0:0:0:0:
219,85,83374,2,0,P|176:159|91:151,1,180,8|0,0:0|0:0,0:0:0:0:
208,276,83863,2,0,P|266:297|341:219,1,180
264,36,84352,101,0,0:0:0:0:
264,220,84515,1,0,0:0:0:0:
428,100,84678,1,8,0:0:0:0:
229,74,84841,1,0,0:0:0:0:
321,233,85004,1,8,0:0:0:0:
404,47,85167,1,0,0:0:0:0:
218,124,85330,2,0,P|214:167|242:202,1,90
451,178,85656,2,0,P|453:130|417:94,1,90
216,52,85982,6,0,B|116:52|76:68|76:68|100:112,1,180,8|0,0:0|0:0,0:0:0:0:
212,312,86471,2,0,B|312:312|352:296|352:296|328:252,1,180
168,156,86961,1,0,0:0:0:0:
360,192,87124,1,0,0:0:0:0:
128,224,87287,1,8,0:0:0:0:
389,121,87450,2,0,P|424:156|436:200,1,90
432,312,87776,1,0,0:0:0:0:
432,312,87857,1,0,0:0:0:0:
432,312,87939,102,0,B|388:340|348:320|348:320|308:300|258:312,1,180
256,192,88428,1,0,0:0:0:0:
56,72,88591,2,0,B|100:100|140:80|140:80|180:60|229:72,1,180,8|0,0:0|0:0,0:0:0:0:
352,72,89080,1,4,0:0:0:0:
352,320,89406,1,4,0:0:0:0:
136,96,89732,5,0,0:0:0:0:
132,272,89895,1,8,0:0:0:0:
32,168,90058,5,8,0:0:0:0:
256,148,90221,1,8,0:0:0:0:
168,344,90384,1,8,0:0:0:0:
72,231,90547,2,0,P|107:204|151:199,1,90,4|0,0:0|0:0,0:0:0:0:
275,247,90874,1,0,0:0:0:0:
80,320,91037,1,0,0:0:0:0:
116,116,91200,2,0,L|153:202,1,90,8|0,0:0|0:0,0:0:0:0:
262,332,91526,70,0,P|280:291|275:247,1,90
56,247,91852,2,0,P|49:203|68:163,1,90
224,72,92178,1,0,0:0:0:0:
296,244,92341,1,0,0:0:0:0:
144,168,92504,1,8,0:0:0:0:
340,128,92667,1,0,0:0:0:0:
119,95,92830,2,0,P|82:121|67:162,1,90
212,156,93156,38,0,L|295:121,1,90
264,244,93482,1,0,0:0:0:0:
364,224,93645,2,0,L|447:189,1,90,0|8,0:0|0:0,0:0:0:0:
332,108,93971,1,0,0:0:0:0:
208,160,94134,1,0,0:0:0:0:
224,280,94297,2,0,P|272:276|308:252,1,90
144,88,94624,2,0,P|96:92|60:116,1,90
36,260,94950,1,0,0:0:0:0:
160,208,95113,1,8,0:0:0:0:
247,102,95276,69,0,0:0:0:0:
85,190,95439,1,8,0:0:0:0:
200,324,95602,1,0,0:0:0:0:
200,324,95683,1,0,0:0:0:0:
200,324,95765,2,0,P|156:324|116:304,1,90,4|0,0:0|0:0,0:0:0:0:
160,144,96091,1,0,0:0:0:0:
268,268,96254,1,0,0:0:0:0:
370,129,96417,2,0,L|278:137,1,90,8|0,0:0|0:0,0:0:0:0:
452,212,96743,38,0,P|427:253|387:270,1,90
176,216,97069,2,0,P|198:254|238:274,1,90
376,108,97395,1,0,0:0:0:0:
316,260,97558,1,0,0:0:0:0:
192,128,97721,1,8,0:0:0:0:
376,196,97884,1,0,0:0:0:0:
296,84,98047,2,0,L|368:16,1,90
297,162,98374,22,0,L|232:224,1,90
376,192,98700,1,0,0:0:0:0:
354,325,98863,2,0,L|420:264,1,90,0|8,0:0|0:0,0:0:0:0:
231,224,99189,1,0,0:0:0:0:
383,172,99352,1,0,0:0:0:0:
283,320,99515,2,0,P|241:344|196:329,1,90
49,183,99841,2,0,P|91:159|136:174,1,90
234,267,100167,1,0,0:0:0:0:
86,299,100330,1,8,0:0:0:0:
392,304,100493,5,0,0:0:0:0:
260,227,100656,1,0,0:0:0:0:
444,200,100819,1,0,0:0:0:0:
444,200,100901,1,0,0:0:0:0:
444,200,100982,2,4,L|348:180,1,90,4|0,0:0|0:0,0:0:0:0:
237,156,101308,1,0,0:0:0:0:
301,284,101471,1,0,0:0:0:0:
121,252,101634,2,0,L|217:264,1,90,8|0,0:0|0:0,0:0:0:0:
116,124,101961,22,0,P|80:84|68:36,1,90
264,132,102287,2,0,P|300:172|312:220,1,90
211,328,102613,1,0,0:0:0:0:
155,184,102776,1,0,0:0:0:0:
310,285,102939,1,8,0:0:0:0:
121,252,103102,1,0,0:0:0:0:
310,205,103265,2,0,P|351:220|383:251,1,90
212,340,103591,38,0,L|116:340,1,90
241,214,103917,1,0,0:0:0:0:
77,214,104080,2,0,L|169:214,1,90,0|8,0:0|0:0,0:0:0:0:
317,214,104406,1,0,0:0:0:0:
441,302,104569,1,0,0:0:0:0:
297,334,104732,2,0,P|253:350|201:334,1,90
276,144,105058,2,0,P|319:135|361:150,1,90
244,280,105384,1,0,0:0:0:0:
129,170,105547,1,4,0:0:0:0:
316,218,105711,21,0,0:0:0:0:
302,47,105874,1,8,0:0:0:0:
464,141,106037,1,0,0:0:0:0:
184,92,106200,2,0,P|160:148|168:180,1,90,4|0,0:0|0:0,0:0:0:0:
314,257,106526,1,0,0:0:0:0:
232,148,106689,1,0,0:0:0:0:
368,104,106852,2,0,L|413:190,1,90,8|0,0:0|0:0,0:0:0:0:
472,344,107178,6,0,L|376:328,1,90
184,244,107504,2,0,L|280:228,1,90
436,200,107830,1,0,0:0:0:0:
312,300,107993,1,0,0:0:0:0:
368,116,108156,1,8,0:0:0:0:
244,192,108319,1,0,0:0:0:0:
436,200,108482,2,0,L|422:289,1,90
392,308,108727,21,0,0:0:0:0:
364,324,108808,2,0,P|321:311|289:280,1,90,0|8,0:0|0:0,0:0:0:0:
208,180,109134,1,0,0:0:0:0:
325,66,109297,1,8,0:0:0:0:
483,94,109461,1,0,0:0:0:0:
440,212,109624,2,0,P|408:244|364:256,1,90,8|0,0:0|0:0,0:0:0:0:
144,96,109950,2,0,P|176:64|220:52,1,90
368,180,110276,37,8,0:0:0:0:
220,244,110439,1,8,0:0:0:0:
324,88,110602,1,8,0:0:0:0:
324,284,110765,1,8,0:0:0:0:
212,127,110928,1,8,0:0:0:0:
406,188,111091,1,8,0:0:0:0:
201,241,111254,1,8,0:0:0:0:
429,101,111417,6,0,L|404:192,1,90
349,337,111906,2,0,L|324:246,1,90
293,105,112395,2,0,L|277:161,1,45
221,301,112721,2,0,L|205:237,1,45
185,101,113047,2,0,L|169:145,1,45
113,301,113373,1,0,0:0:0:0:
173,31,113699,1,0,0:0:0:0:
249,133,113862,1,0,0:0:0:0:
108,188,114026,6,0,L|85:102,1,90
186,250,114515,2,0,L|163:337,1,90
231,148,115004,2,0,L|219:105,1,45
301,257,115330,2,0,L|291:301,1,45
342,143,115656,2,0,L|327:101,1,45
402,257,115982,1,0,0:0:0:0:
168,116,116308,69,0,0:0:0:0:
256,224,116471,1,0,0:0:0:0:
336,112,116634,2,0,B|368:98|380:141|421:113,2,90
257,301,117612,37,0,0:0:0:0:
351,204,117775,1,0,0:0:0:0:
251,120,117938,2,0,P|238:74|264:34,1,90
456,187,118590,2,0,P|468:232|442:272,1,90
136,318,119243,70,0,B|95:346|83:303|51:317,1,90
214,205,119732,2,0,B|246:191|258:234|299:206,1,90
460,132,120221,2,0,B|468:112|460:84,1,45
460,64,120465,1,8,0:0:0:0:
460,41,120547,1,8,0:0:0:0:
211,41,120873,1,8,0:0:0:0:
212,352,121200,37,0,0:0:0:0:
148,264,121362,1,8,0:0:0:0:
24,264,121525,1,0,0:0:0:0:
84,352,121688,1,0,0:0:0:0:
221,267,121851,2,0,L|311:267,1,90
368,184,122340,1,0,0:0:0:0:
208,183,122504,2,0,L|107:183,1,90,8|0,0:0|0:0,0:0:0:0:
44,248,122993,1,0,0:0:0:0:
44,120,123156,2,0,L|44:24,1,90
208,32,123645,1,0,0:0:0:0:
208,183,123808,1,8,0:0:0:0:
400,120,124134,69,0,0:0:0:0:
284,232,124297,1,0,0:0:0:0:
164,120,124461,2,0,B|208:108|208:108|256:120,1,90,4|0,0:0|0:0,0:0:0:0:
356,200,124949,1,0,0:0:0:0:
164,296,125113,2,0,B|208:305|208:305|252:296,1,90,8|0,0:0|0:0,0:0:0:0:
64,252,125602,1,0,0:0:0:0:
164,208,125765,2,0,B|260:208,1,90
400,208,126254,2,0,L|400:253,1,45,0|8,0:0|0:0,0:0:0:0:
384,64,126743,37,0,0:0:0:0:
280,164,126906,1,0,0:0:0:0:
335,302,127069,2,0,P|377:290|399:252,1,90,4|0,0:0|0:0,0:0:0:0:
281,143,127558,1,0,0:0:0:0:
156,256,127721,2,0,P|166:298|204:321,1,90,8|0,0:0|0:0,0:0:0:0:
332,232,128211,1,0,0:0:0:0:
248,79,128374,1,4,0:0:0:0:
79,125,128700,69,0,0:0:0:0:
420,36,129026,1,8,0:0:0:0:
392,348,129352,1,0,0:0:0:0:
96,168,129678,2,0,L|52:136,2,45
264,72,130167,1,8,0:0:0:0:
196,220,130330,1,8,0:0:0:0:
120,72,130493,1,8,0:0:0:0:
268,220,130656,1,8,0:0:0:0:
192,72,130819,1,8,0:0:0:0:
96,168,130982,38,0,L|111:223,1,56.25,4|0,0:0|0:0,0:0:0:0:
168,292,131145,2,0,L|224:332,1,56.25
316,300,131308,1,0,0:0:0:0:
353,276,131389,1,0,0:0:0:0:
374,236,131471,1,0,0:0:0:0:
372,192,131552,1,0,0:0:0:0:
349,154,131634,1,0,0:0:0:0:
309,134,131715,1,0,0:0:0:0:
268,120,131797,2,0,L|216:88,1,56.25
120,112,131961,22,0,L|180:150,1,67.5
179,192,132287,6,0,B|107:213|107:213|63:251|63:251|54:293|115:331,1,225,0|8,0:0|0:0,0:0:0:0:
340,336,132776,1,0,0:0:0:0:
258,193,132939,1,0,0:0:0:0:
468,184,133102,1,0,0:0:0:0:
363,40,133265,2,0,L|239:37,1,112.5,8|0,0:0|0:0,0:0:0:0:
24,120,133591,2,0,L|255:111,1,225,0|8,0:0|0:0,0:0:0:0:
411,98,134081,1,0,0:0:0:0:
143,186,134243,2,0,P|223:262|327:242,1,225,0|8,0:0|0:0,0:0:0:0:
252,112,134733,1,0,0:0:0:0:
440,48,134895,101,0,0:0:0:0:
404,216,135058,1,0,0:0:0:0:
180,88,135221,1,8,0:0:0:0:
404,52,135384,1,0,0:0:0:0:
344,264,135547,2,0,P|292:252|256:193,1,112.5
208,40,135874,5,8,0:0:0:0:
116,184,136037,1,0,0:0:0:0:
238,309,136200,2,0,P|265:260|258:205,1,112.5
72,116,136526,2,0,P|45:165|52:220,1,112.5,8|0,0:0|0:0,0:0:0:0:
372,192,136852,1,0,0:0:0:0:
356,150,136933,1,0,0:0:0:0:
323,120,137015,1,0,0:0:0:0:
161,278,137178,1,8,0:0:0:0:
176,319,137259,1,0,0:0:0:0:
209,349,137341,1,0,0:0:0:0:
272,80,137504,102,0,P|144:92|128:216,1,225,4|8,0:0|0:0,0:0:0:0:
280,288,137993,1,0,0:0:0:0:
208,144,138156,2,0,P|189:195|197:250,1,112.5
356,292,138482,5,8,0:0:0:0:
280,144,138645,1,0,0:0:0:0:
452,124,138808,2,0,P|442:178|408:222,1,112.5
216,228,139135,1,8,0:0:0:0:
368,104,139298,1,0,0:0:0:0:
212,40,139461,2,0,P|156:40|106:67,1,112.5
300,344,139787,2,0,P|356:343|405:316,1,112.5,8|0,0:0|0:0,0:0:0:0:
176,112,140113,101,8,0:0:0:0:
334,270,140276,1,0,0:0:0:0:
254,67,140439,1,8,0:0:0:0:
254,314,140602,1,0,0:0:0:0:
353,91,140765,1,8,0:0:0:0:
155,289,140928,1,0,0:0:0:0:
407,189,141091,1,8,0:0:0:0:
101,189,141254,1,0,0:0:0:0:
256,192,141417,1,8,0:0:0:0:
384,332,141580,5,0,0:0:0:0:
392,316,141662,1,0,0:0:0:0:
400,296,141743,2,0,P|376:268|332:264,1,76.5000014591217,8|0,0:0|0:0,0:0:0:0:
84,240,141906,1,8,0:0:0:0:
76,256,141988,1,8,0:0:0:0:
68,276,142069,2,0,P|96:304|140:312,1,76.5000014591217
192,160,142232,1,0,0:0:0:0:
216,124,142314,1,0,0:0:0:0:
248,96,142395,1,8,0:0:0:0:
288,88,142477,1,8,0:0:0:0:
328,88,142558,1,8,0:0:0:0:
364,108,142640,1,8,0:0:0:0:
341,142,142721,102,0,P|289:162|233:138,1,112.5,4|0,0:0|0:0,0:0:0:0:
358,19,143047,1,8,0:0:0:0:
458,145,143211,1,0,0:0:0:0:
275,200,143374,2,0,P|223:220|167:196,1,112.5
288,88,143700,1,8,0:0:0:0:
388,214,143864,1,0,0:0:0:0:
190,233,144026,2,0,P|138:253|82:229,1,112.5
238,142,144352,1,8,0:0:0:0:
338,268,144516,1,0,0:0:0:0:
132,336,144678,2,0,P|29:325|24:220,1,225,0|8,0:0|0:0,0:0:0:0:
156,84,145167,1,0,0:0:0:0:
80,272,145330,5,0,0:0:0:0:
232,72,145493,1,0,0:0:0:0:
156,256,145656,1,8,0:0:0:0:
304,52,145819,1,0,0:0:0:0:
227,235,145982,2,0,P|212:288|260:328,1,112.5
456,334,146308,101,8,0:0:0:0:
440,140,146471,1,0,0:0:0:0:
440,140,146553,1,0,0:0:0:0:
440,140,146634,2,0,L|340:208,1,112.5
68,144,146961,2,0,L|162:208,1,112.5,8|0,0:0|0:0,0:0:0:0:
368,104,147287,1,8,0:0:0:0:
160,280,147450,1,0,0:0:0:0:
440,224,147613,1,8,0:0:0:0:
160,76,147776,1,0,0:0:0:0:
440,120,147939,6,0,P|413:39|328:38,1,180,4|8,0:0|0:0,0:0:0:0:
224,320,148917,2,0,P|180:330|137:318,1,90
96,224,149243,1,4,0:0:0:0:
175,164,149406,1,0,0:0:0:0:
261,186,149569,2,0,P|244:226|204:243,1,90
144,80,149895,2,0,P|188:68|232:80,1,90,8|0,0:0|0:0,0:0:0:0:
318,129,150221,1,0,0:0:0:0:
193,170,150384,1,8,0:0:0:0:
193,170,150466,1,8,0:0:0:0:
193,170,150547,102,0,L|98:162,1,90,4|0,0:0|0:0,0:0:0:0:
74,288,151200,2,0,L|182:297,1,90
407,297,151852,2,0,L|315:289,1,90
297,155,152504,2,0,L|386:163,1,90,8|0,0:0|0:0,0:0:0:0:
300,284,152993,1,0,0:0:0:0:
284,296,153075,1,0,0:0:0:0:
272,304,153156,6,0,L|168:304,1,90
228,104,153808,2,0,L|318:104,1,90
409,183,154461,2,0,L|352:252,1,90
100,232,155113,2,0,L|156:162,1,90,8|0,0:0|0:0,0:0:0:0:
232,60,155602,1,0,0:0:0:0:
256,52,155683,1,0,0:0:0:0:
276,48,155765,102,0,L|360:104,1,90,4|0,0:0|0:0,0:0:0:0:
396,284,156417,2,0,L|344:248,1,45
256,192,156743,1,0,0:0:0:0:
128,52,157069,1,0,0:0:0:0:
72,232,157395,2,0,L|120:196,1,45
256,72,157721,1,0,0:0:0:0:
18,212,158211,5,0,0:0:0:0:
18,212,158292,1,0,0:0:0:0:
18,212,158374,2,0,L|109:204,1,90
206,284,159026,2,0,L|302:258,1,90
338,144,159678,2,0,L|432:100,1,90,0|8,0:0|0:0,0:0:0:0:
448,240,160167,101,8,0:0:0:0:
448,240,160330,2,0,P|424:336|316:312,1,225,0|8,0:0|0:0,0:0:0:0:
186,246,160819,1,8,0:0:0:0:
238,174,160982,6,0,L|138:168,1,90,4|0,0:0|0:0,0:0:0:0:
97,98,161471,1,0,0:0:0:0:
157,33,161634,2,0,L|260:38,1,90,8|0,0:0|0:0,0:0:0:0:
305,109,162124,1,0,0:0:0:0:
238,174,162287,2,0,L|138:168,1,90
87,291,162776,1,0,0:0:0:0:
191,297,162939,2,0,L|298:302,1,90,8|0,0:0|0:0,0:0:0:0:
385,222,163428,101,0,0:0:0:0:
384,199,163509,1,0,0:0:0:0:
383,177,163591,2,0,L|377:73,1,90
247,36,164080,1,0,0:0:0:0:
252,124,164243,2,0,L|257:223,1,90,8|0,0:0|0:0,0:0:0:0:
263,343,164732,1,0,0:0:0:0:
136,350,164895,2,0,L|131:258,1,90
79,162,165384,5,0,0:0:0:0:
79,162,165547,2,0,P|33:74|127:43,1,225,8|8,0:0|0:0,0:0:0:0:
296,196,166037,1,0,0:0:0:0:
252,136,166200,102,0,P|293:118|338:136,1,90,4|0,0:0|0:0,0:0:0:0:
296,252,166689,1,0,0:0:0:0:
340,312,166852,2,0,P|298:329|253:311,1,90,8|0,0:0|0:0,0:0:0:0:
352,224,167341,1,0,0:0:0:0:
416,184,167504,2,0,P|430:225|412:266,1,90
240,224,167993,1,0,0:0:0:0:
180,268,168156,2,0,P|162:227|176:185,1,90,8|0,0:0|0:0,0:0:0:0:
416,272,168645,5,0,0:0:0:0:
416,272,168727,1,0,0:0:0:0:
416,272,168808,2,0,L|468:272,1,45
368,336,169134,2,0,L|308:336,1,45,8|0,0:0|0:0,0:0:0:0:
232,264,169461,2,0,L|284:264,1,45
172,340,169787,2,0,L|127:340,1,45
44,264,170113,2,0,L|92:264,1,45,4|0,0:0|0:0,0:0:0:0:
175,128,170439,101,0,0:0:0:0:
175,128,170602,1,0,0:0:0:0:
256,128,170765,21,8,0:0:0:0:
387,191,170928,1,8,0:0:0:0:
256,260,171091,1,8,0:0:0:0:
125,191,171254,1,8,0:0:0:0:
64,52,171417,38,0,P|120:40|172:52,1,112.5,4|0,0:0|0:0,0:0:0:0:
68,264,171743,2,0,P|100:312|148:344,1,112.5,8|0,0:0|0:0,0:0:0:0:
366,42,172069,2,0,P|412:76|444:120,1,112.5
419,334,172395,2,0,P|364:346|310:332,1,112.5,8|0,0:0|0:0,0:0:0:0:
146,157,172721,70,0,P|110:113|50:81,1,112.5
282,113,173047,2,0,P|317:69|365:41,1,112.5,8|0,0:0|0:0,0:0:0:0:
364,272,173374,2,0,P|399:228|447:200,1,112.5
192,324,173700,2,0,P|156:280|96:248,1,112.5,8|0,0:0|0:0,0:0:0:0:
136,24,174026,37,0,0:0:0:0:
184,213,174189,1,0,0:0:0:0:
63,144,174352,1,8,0:0:0:0:
256,92,174515,1,0,0:0:0:0:
316,276,174678,69,0,0:0:0:0:
388,60,174841,1,0,0:0:0:0:
464,196,175004,1,8,0:0:0:0:
257,125,175167,1,0,0:0:0:0:
144,182,175330,38,0,L|144:294,1,112.5
368,295,175656,2,0,L|368:183,1,112.5,8|0,0:0|0:0,0:0:0:0:
256,96,175982,1,0,0:0:0:0:
256,284,176145,1,0,0:0:0:0:
144,181,176308,1,8,0:0:0:0:
368,183,176471,1,0,0:0:0:0:
112,95,176634,38,0,L|5:61,1,112.5,4|0,0:0|0:0,0:0:0:0:
261,149,176961,2,0,L|368:183,1,112.5,8|0,0:0|0:0,0:0:0:0:
184,256,177287,1,0,0:0:0:0:
28,289,177450,1,0,0:0:0:0:
88,190,177613,1,8,0:0:0:0:
129,359,177776,1,0,0:0:0:0:
184,256,177939,6,0,L|291:222,1,112.5
424,84,178265,2,0,L|317:118,1,112.5,8|0,0:0|0:0,0:0:0:0:
220,160,178592,1,0,0:0:0:0:
369,257,178754,1,0,0:0:0:0:
204,296,178917,1,8,0:0:0:0:
388,116,179080,1,0,0:0:0:0:
188,116,179243,102,0,L|60:116,1,112.5
72,324,179569,2,0,L|188:324,1,112.5,8|0,0:0|0:0,0:0:0:0:
376,248,179895,1,0,0:0:0:0:
254,117,180058,1,0,0:0:0:0:
348,272,180221,1,8,0:0:0:0:
133,195,180384,1,0,0:0:0:0:
296,328,180547,6,0,P|347:347|400:331,1,112.5
396,109,180874,2,0,P|343:92|291:112,1,112.5,8|0,0:0|0:0,0:0:0:0:
291,111,181118,1,0,0:0:0:0:
291,111,181200,1,0,0:0:0:0:
156,304,181363,2,0,P|128:298|104:283,1,56.25
80,248,181526,1,8,0:0:0:0:
60,208,181607,1,0,0:0:0:0:
48,168,181689,1,0,0:0:0:0:
44,128,181770,1,0,0:0:0:0:
47,87,181852,38,0,P|84:46|138:35,1,112.5,4|0,0:0|0:0,0:0:0:0:
259,248,182178,2,0,P|227:293|175:311,1,112.5,8|0,0:0|0:0,0:0:0:0:
256,59,182504,2,0,P|310:60|350:98,1,112.5
444,272,182830,2,0,P|408:320|356:336,1,112.5,8|0,0:0|0:0,0:0:0:0:
444,96,183156,22,0,P|400:61|345:54,1,112.5
228,216,183482,2,0,P|180:244|156:308,1,112.5,8|0,0:0|0:0,0:0:0:0:
280,168,183808,2,0,P|328:140|352:76,1,112.5
128,56,184134,2,0,P|72:84|44:136,1,112.5,8|0,0:0|0:0,0:0:0:0:
270,262,184461,5,2,0:0:0:0:
178,170,184624,1,0,0:0:0:0:
303,138,184787,1,8,0:0:0:0:
303,138,184950,1,0,0:0:0:0:
229,311,185113,53,2,0:0:0:0:
155,105,185276,1,0,0:0:0:0:
370,145,185439,1,8,0:0:0:0:
370,145,185602,1,0,0:0:0:0:
143,318,185765,5,2,0:0:0:0:
196,21,185928,1,0,0:0:0:0:
432,216,186091,1,8,0:0:0:0:
432,216,186254,1,0,0:0:0:0:
96,264,186417,1,2,0:0:0:0:
264,44,186580,1,0,0:0:0:0:
396,288,186743,1,8,0:0:0:0:
375,313,186824,1,0,0:0:0:0:
348,334,186906,1,0,0:0:0:0:
317,347,186987,1,0,0:0:0:0:
284,350,187069,54,0,L|172:323,1,112.5,4|0,0:0|0:0,0:0:0:0:
229,200,187395,2,0,L|344:172,1,112.5,8|0,0:0|0:0,0:0:0:0:
176,68,187721,2,0,P|121:72|70:96,1,112.5
128,272,188047,1,8,0:0:0:0:
314,332,188211,2,0,P|365:315|403:259,1,112.5
263,119,188537,1,0,0:0:0:0:
325,255,188700,1,8,0:0:0:0:
451,124,188863,1,0,0:0:0:0:
451,124,188944,1,0,0:0:0:0:
451,124,189026,2,0,P|411:85|358:68,1,112.5
120,108,189352,5,8,0:0:0:0:
94,128,189433,1,0,0:0:0:0:
73,154,189515,1,0,0:0:0:0:
60,186,189596,1,0,0:0:0:0:
60,220,189678,2,0,P|92:268|148:296,1,112.5,4|0,0:0|0:0,0:0:0:0:
300,232,190004,2,0,L|205:147,1,112.5,8|0,0:0|0:0,0:0:0:0:
368,84,190330,2,0,P|416:111|447:157,1,112.5,4|0,0:0|0:0,0:0:0:0:
322,267,190656,1,8,0:0:0:0:
262,58,190819,1,4,0:0:0:0:
262,58,190901,1,0,0:0:0:0:
262,58,190982,2,0,P|317:57|367:83,1,112.5
128,104,191308,101,8,0:0:0:0:
99,152,191389,1,8,0:0:0:0:
82,206,191471,1,8,0:0:0:0:
82,261,191552,1,8,0:0:0:0:
110,309,191634,1,0,0:0:0:0:
161,331,191715,1,0,0:0:0:0:
217,330,191797,1,0,0:0:0:0:
270,310,191878,1,0,0:0:0:0:
315,278,191960,1,8,0:0:0:0:
345,236,192041,1,8,0:0:0:0:
336,192,192123,1,8,0:0:0:0:
296,168,192204,1,8,0:0:0:0:
256,192,192286,1,12,0:0:0:0:
77,93,192939,22,0,L|109:149,2,45,8|0|0,0:0|0:0|0:0,0:0:0:0:
164,193,193428,2,0,L|212:161,1,45
293,110,193754,1,0,0:0:0:0:
312,98,193835,1,0,0:0:0:0:
331,86,193917,1,0,0:0:0:0:
421,166,194080,2,0,L|371:197,1,45,0|8,0:0|0:0,0:0:0:0:
364,312,194406,1,0,0:0:0:0:
383,300,194487,1,0,0:0:0:0:
403,289,194569,1,0,0:0:0:0:
288,248,194732,2,0,L|236:276,1,45
104,240,195058,37,0,0:0:0:0:
93,219,195139,1,0,0:0:0:0:
83,199,195221,1,0,0:0:0:0:
160,128,195384,1,0,0:0:0:0:
252,184,195547,1,8,0:0:0:0:
252,184,195711,2,0,L|296:232,1,45
356,280,196037,1,0,0:0:0:0:
428,200,196200,1,0,0:0:0:0:
364,120,196363,2,0,L|320:168,1,45
256,280,196689,70,0,L|212:252,1,45
185,226,196933,1,0,0:0:0:0:
146,194,197014,1,0,0:0:0:0:
121,151,197096,1,0,0:0:0:0:
114,101,197178,1,0,0:0:0:0:
133,55,197258,1,0,0:0:0:0:
180,43,197341,1,0,0:0:0:0:
222,69,197421,1,0,0:0:0:0:
250,110,197504,1,4,0:0:0:0:
416,120,198156,22,0,L|376:172,2,45,8|0|0,0:0|0:0|0:0,0:0:0:0:
282,211,198645,2,0,L|320:236,1,45
220,324,198971,1,0,0:0:0:0:
200,313,199052,1,0,0:0:0:0:
180,302,199134,1,0,0:0:0:0:
60,164,199297,2,0,L|112:192,1,45,0|8,0:0|0:0,0:0:0:0:
232,168,199624,1,0,0:0:0:0:
212,157,199705,1,0,0:0:0:0:
192,146,199787,1,0,0:0:0:0:
268,276,199950,2,0,L|320:304,1,45
408,240,200275,37,0,0:0:0:0:
419,219,200356,1,0,0:0:0:0:
429,199,200438,1,0,0:0:0:0:
312,128,200601,1,0,0:0:0:0:
208,184,200765,1,8,0:0:0:0:
292,268,200928,2,0,L|240:300,1,45
172,184,201254,1,0,0:0:0:0:
68,128,201418,1,0,0:0:0:0:
88,268,201581,2,0,L|140:300,1,45
256,272,201907,70,0,L|304:248,1,45
327,226,202151,1,0,0:0:0:0:
366,194,202232,1,0,0:0:0:0:
391,151,202314,1,0,0:0:0:0:
398,101,202394,1,0,0:0:0:0:
379,55,202476,1,0,0:0:0:0:
332,43,202557,1,0,0:0:0:0:
290,69,202639,1,0,0:0:0:0:
262,110,202720,1,8,0:0:0:0:
227,132,202803,53,8,0:0:0:0:
259,152,202884,1,0,0:0:0:0:
227,180,202966,1,0,0:0:0:0:
259,200,203047,1,0,0:0:0:0:
227,228,203129,1,0,0:0:0:0:
259,248,203211,1,0,0:0:0:0:
227,276,203292,1,0,0:0:0:0:
264,300,203374,38,0,P|228:332|180:344,1,90,4|0,0:0|0:0,0:0:0:0:
168,316,203781,1,0,0:0:0:0:
132,312,203863,2,0,P|116:336|92:348,1,45
52,264,204189,2,0,P|68:236|88:220,1,45
168,188,204515,1,0,0:0:0:0:
184,280,204678,2,0,P|200:304|224:316,1,45,8|0,0:0|0:0,0:0:0:0:
244,320,204922,1,0,0:0:0:0:
284,320,205004,2,0,P|332:320|384:304,1,90
464,200,205493,37,0,0:0:0:0:
449,186,205574,1,0,0:0:0:0:
432,176,205656,2,0,L|376:144,1,45
304,68,205982,2,0,L|248:100,1,45,8|0,0:0|0:0,0:0:0:0:
252,104,206227,1,0,0:0:0:0:
236,114,206308,1,0,0:0:0:0:
320,184,206471,69,0,0:0:0:0:
292,276,206634,2,0,P|272:300|252:308,1,45
222,304,206879,2,0,L|150:284,1,67.5
100,208,207287,2,0,L|170:189,1,67.5,8|0,0:0|0:0,0:0:0:0:
204,180,207613,2,0,P|223:168|235:150,1,45,8|0,0:0|0:0,0:0:0:0:
192,44,207939,2,0,P|148:60|112:96,1,90,4|0,0:0|0:0,0:0:0:0:
56,216,208591,38,0,L|144:236,1,90,8|0,0:0|0:0,0:0:0:0:
212,352,209080,2,0,L|264:340,1,45
352,216,209406,1,0,0:0:0:0:
336,220,209488,1,0,0:0:0:0:
320,224,209569,2,0,L|268:236,1,45
180,252,209895,1,8,0:0:0:0:
160,160,210058,1,0,0:0:0:0:
176,164,210140,1,0,0:0:0:0:
192,168,210221,2,0,L|244:180,1,45
384,244,210547,38,0,P|344:264|299:268,1,90
348,152,210874,1,0,0:0:0:0:
468,256,211037,2,0,P|445:293|408:318,1,90,0|8,0:0|0:0,0:0:0:0:
368,80,211363,1,0,0:0:0:0:
398,98,211444,1,0,0:0:0:0:
421,126,211526,1,0,0:0:0:0:
248,80,211689,2,0,P|211:105|186:142,1,90
248,276,212015,1,0,0:0:0:0:
360,164,212178,1,0,0:0:0:0:
440,312,212341,2,0,P|477:287|502:250,1,90,0|8,0:0|0:0,0:0:0:0:
486,222,212586,101,0,0:0:0:0:
452,210,212667,1,0,0:0:0:0:
416,204,212749,1,0,0:0:0:0:
380,205,212830,1,0,0:0:0:0:
345,212,212912,1,0,0:0:0:0:
312,225,212993,1,0,0:0:0:0:
281,244,213075,1,0,0:0:0:0:
256,258,213156,6,0,L|292:288,1,45
218,190,213482,2,0,B|210:112|125:179|120:49|188:22|220:63,1,216
294,190,214134,2,0,B|301:112|386:179|391:49|323:22|291:63,1,216
424,124,214787,101,0,0:0:0:0:
437,166,214868,1,0,0:0:0:0:
439,211,214950,1,0,0:0:0:0:
427,254,215031,1,0,0:0:0:0:
405,293,215113,1,0,0:0:0:0:
232,324,215276,1,0,0:0:0:0:
92,232,215439,1,0,0:0:0:0:
200,112,215602,1,0,0:0:0:0:
348,40,215765,6,0,P|399:51|425:105,1,112.5
280,232,216091,1,8,0:0:0:0:
252,80,216254,1,0,0:0:0:0:
380,188,216417,2,0,P|395:237|362:287,1,112.5
188,204,216743,1,8,0:0:0:0:
332,136,216906,1,0,0:0:0:0:
264,288,217069,2,0,P|228:326|169:322,1,112.5
108,136,217395,1,8,0:0:0:0:
273,184,217558,1,0,0:0:0:0:
36,272,217722,102,0,P|68:312|132:328,1,112.5
262,198,218048,1,8,0:0:0:0:
74,162,218211,1,0,0:0:0:0:
202,350,218374,2,0,P|260:356|325:317,1,112.5
392,104,218700,1,8,0:0:0:0:
140,164,218863,1,0,0:0:0:0:
380,296,219026,2,0,P|425:259|444:185,1,112.5
308,72,219352,5,8,0:0:0:0:
77,143,219515,1,0,0:0:0:0:
284,256,219678,2,0,L|302:138,1,112.5
62,32,220004,2,0,L|80:160,1,112.5,8|0,0:0|0:0,0:0:0:0:
436,204,220330,1,0,0:0:0:0:
409,167,220411,1,0,0:0:0:0:
382,131,220493,1,0,0:0:0:0:
120,202,220656,1,8,0:0:0:0:
155,229,220737,1,0,0:0:0:0:
191,256,220819,1,0,0:0:0:0:
436,60,220982,102,0,P|388:27|335:24,1,112.5,4|0,0:0|0:0,0:0:0:0:
208,136,221308,1,8,0:0:0:0:
360,100,221471,1,0,0:0:0:0:
232,60,221634,2,0,P|174:71|135:106,1,112.5
88,264,221960,5,8,0:0:0:0:
208,168,222123,1,0,0:0:0:0:
336,252,222286,2,0,P|297:292|243:304,1,112.5
140,64,222612,1,8,0:0:0:0:
332,104,222775,1,0,0:0:0:0:
172,231,222939,2,0,P|124:203|96:156,1,112.5
336,24,223265,2,0,P|385:51|412:100,1,112.5,8|0,0:0|0:0,0:0:0:0:
256,192,223591,101,8,0:0:0:0:
333,103,223754,1,0,0:0:0:0:
175,277,223917,1,8,0:0:0:0:
391,161,224080,1,0,0:0:0:0:
117,219,224243,1,8,0:0:0:0:
409,238,224406,1,0,0:0:0:0:
99,142,224569,1,8,0:0:0:0:
373,309,224732,1,0,0:0:0:0:
134,71,224895,1,8,0:0:0:0:
300,340,225058,5,0,0:0:0:0:
268,340,225140,1,0,0:0:0:0:
236,340,225221,2,0,P|192:332|164:304,1,76.5000014591217,8|0,0:0|0:0,0:0:0:0:
236,88,225384,1,8,0:0:0:0:
268,88,225466,1,8,0:0:0:0:
300,88,225547,2,0,P|344:96|372:124,1,76.5000014591217
436,204,225711,1,0,0:0:0:0:
457,246,225792,1,0,0:0:0:0:
444,293,225874,1,8,0:0:0:0:
402,318,225955,1,8,0:0:0:0:
355,307,226037,1,8,0:0:0:0:
327,267,226118,1,8,0:0:0:0:
306,213,226200,102,0,P|357:218|393:266,1,112.5
236,346,226526,1,8,0:0:0:0:
141,209,226689,1,0,0:0:0:0:
355,162,226852,2,0,P|377:208|353:263,1,112.5
205,167,227178,1,8,0:0:0:0:
276,17,227341,1,0,0:0:0:0:
425,180,227504,2,0,P|396:221|336:228,1,112.5
383,70,227830,1,8,0:0:0:0:
500,232,227993,1,0,0:0:0:0:
272,281,228156,2,0,P|190:223|247:140,1,225,0|8,0:0|0:0,0:0:0:0:
407,120,228645,1,0,0:0:0:0:
388,222,228808,5,0,0:0:0:0:
155,116,228971,1,0,0:0:0:0:
362,146,229134,1,8,0:0:0:0:
108,179,229297,1,0,0:0:0:0:
300,97,229461,1,0,0:0:0:0:
103,259,229624,1,0,0:0:0:0:
230,67,229787,101,8,0:0:0:0:
38,188,229950,1,0,0:0:0:0:
316,152,230113,2,0,P|260:140|204:148,1,112.5
104,280,230439,2,0,L|36:184,1,112.5,8|0,0:0|0:0,0:0:0:0:
148,72,230765,1,0,0:0:0:0:
304,88,230928,1,8,0:0:0:0:
408,208,231091,1,8,0:0:0:0:
423,236,231172,1,8,0:0:0:0:
419,268,231254,1,8,0:0:0:0:
396,292,231335,1,8,0:0:0:0:
368,300,231417,2,0,P|312:308|256:292,1,112.5,4|0,0:0|0:0,0:0:0:0:
100,224,231743,1,8,0:0:0:0:
200,340,231906,1,0,0:0:0:0:
314,211,232069,2,0,P|261:195|207:208,1,112.5
308,344,232395,5,8,0:0:0:0:
408,204,232558,1,4,0:0:0:0:
260,136,232721,2,0,P|206:120|152:133,1,112.5
248,264,233047,1,8,0:0:0:0:
348,124,233210,1,0,0:0:0:0:
200,56,233373,2,0,P|146:40|92:53,1,112.5
140,212,233700,1,8,0:0:0:0:
300,180,233863,1,0,0:0:0:0:
451,87,234026,102,0,P|407:54|352:46,1,112.5,4|0,0:0|0:0,0:0:0:0:
144,232,234352,2,0,P|196:268|256:272,1,112.5,8|0,0:0|0:0,0:0:0:0:
376,164,234678,2,0,P|324:128|264:124,1,112.5
51,176,235004,1,8,0:0:0:0:
166,347,235167,1,4,0:0:0:0:
304,205,235330,2,0,L|225:184,1,56.25
203,182,235493,1,0,0:0:0:0:
159,174,235574,1,0,0:0:0:0:
125,200,235656,1,0,0:0:0:0:
121,244,235737,1,0,0:0:0:0:
149,277,235819,1,0,0:0:0:0:
188,256,235900,1,0,0:0:0:0:
233,254,235982,1,0,0:0:0:0:
274,270,236063,1,0,0:0:0:0:
305,302,236145,1,0,0:0:0:0:
320,345,236226,1,0,0:0:0:0:
279,342,236308,22,0,P|249:320|235:289,1,67.5
242,250,236634,38,0,P|294:237|344:261,1,112.5
230,373,236961,1,8,0:0:0:0:
144,245,237124,1,0,0:0:0:0:
268,130,237287,2,0,P|216:117|166:141,1,112.5
280,253,237613,1,8,0:0:0:0:
366,125,237776,1,0,0:0:0:0:
280,253,237939,2,0,P|332:266|382:242,1,112.5
204,202,238265,1,8,0:0:0:0:
293,68,238428,1,0,0:0:0:0:
136,68,238591,70,0,P|77:76|32:112,1,112.5
225,268,238917,1,8,0:0:0:0:
329,84,239080,1,0,0:0:0:0:
110,158,239243,2,0,P|73:205|67:262,1,112.5
378,246,239569,1,8,0:0:0:0:
260,36,239732,1,0,0:0:0:0:
150,238,239895,2,0,P|158:297|193:342,1,112.5
450,187,240221,85,8,0:0:0:0:
182,122,240384,1,0,0:0:0:0:
300,276,240547,2,0,P|355:275|407:241,1,112.5
336,36,240874,2,0,P|280:36|228:70,1,112.5,8|0,0:0|0:0,0:0:0:0:
192,332,241200,1,0,0:0:0:0:
231,310,241281,1,0,0:0:0:0:
258,275,241363,1,0,0:0:0:0:
103,106,241527,1,8,0:0:0:0:
63,126,241608,1,0,0:0:0:0:
35,161,241690,1,0,0:0:0:0:
292,296,241852,6,0,P|347:286|380:240,1,112.5,4|0,0:0|0:0,0:0:0:0:
272,104,242178,1,8,0:0:0:0:
144,216,242341,1,0,0:0:0:0:
292,224,242504,2,0,P|256:180|200:168,1,112.5
68,324,242830,101,8,0:0:0:0:
216,244,242993,1,0,0:0:0:0:
44,136,243156,2,0,P|83:96|138:89,1,112.5
318,137,243482,1,8,0:0:0:0:
196,264,243645,1,0,0:0:0:0:
384,347,243808,2,0,P|419:305|428:250,1,112.5
119,245,244134,2,0,P|127:300|163:343,1,112.5,8|0,0:0|0:0,0:0:0:0:
356,156,244461,5,8,0:0:0:0:
192,268,244624,1,0,0:0:0:0:
407,231,244787,1,8,0:0:0:0:
126,177,244950,1,0,0:0:0:0:
353,308,245113,1,8,0:0:0:0:
162,73,245276,1,0,0:0:0:0:
256,352,245439,1,8,0:0:0:0:
254,30,245602,1,0,0:0:0:0:
256,192,245765,1,8,0:0:0:0:
64,208,245928,101,0,0:0:0:0:
80,244,246009,1,0,0:0:0:0:
100,280,246091,2,0,P|128:304|172:316,1,76.5000014591217,8|0,0:0|0:0,0:0:0:0:
448,208,246254,1,8,0:0:0:0:
432,244,246335,1,8,0:0:0:0:
412,280,246417,2,0,P|384:304|340:316,1,76.5000014591217
268,248,246580,1,0,0:0:0:0:
240,227,246662,1,0,0:0:0:0:
222,195,246743,1,8,0:0:0:0:
225,159,246825,1,8,0:0:0:0:
251,130,246906,1,8,0:0:0:0:
286,123,246988,1,8,0:0:0:0:
320,120,247069,6,0,P|309:64|269:30,1,112.5
156,160,247395,1,8,0:0:0:0:
310,246,247558,1,0,0:0:0:0:
207,98,247721,2,0,P|152:80|103:99,1,112.5
160,260,248047,1,8,0:0:0:0:
342,223,248210,1,0,0:0:0:0:
155,183,248374,2,0,P|104:209|82:257,1,112.5
260,276,248700,1,8,0:0:0:0:
364,156,248863,1,0,0:0:0:0:
312,340,249026,102,0,P|256:352|188:332,1,112.5
56,172,249352,1,8,0:0:0:0:
256,56,249515,1,0,0:0:0:0:
468,140,249678,2,0,P|480:195|460:264,1,112.5
256,352,250004,1,8,0:0:0:0:
32,184,250167,1,0,0:0:0:0:
200,40,250330,2,0,P|256:28|324:48,1,112.5
256,312,250656,5,8,0:0:0:0:
256,148,250819,1,0,0:0:0:0:
164,308,250982,2,0,P|131:262|132:204,1,112.5
392,208,251308,2,0,P|381:266|351:309,1,112.5,8|0,0:0|0:0,0:0:0:0:
200,240,251634,1,8,0:0:0:0:
348,148,251797,1,8,0:0:0:0:
180,132,251961,1,8,0:0:0:0:
144,149,252042,1,8,0:0:0:0:
105,141,252124,1,8,0:0:0:0:
80,110,252205,1,8,0:0:0:0:
92,72,252287,2,0,P|148:44|208:60,1,112.5,4|0,0:0|0:0,0:0:0:0:
288,232,252613,1,8,0:0:0:0:
132,212,252776,1,0,0:0:0:0:
263,91,252939,2,0,P|315:125|331:185,1,112.5
120,288,253265,101,8,0:0:0:0:
252,168,253428,1,0,0:0:0:0:
96,120,253591,2,0,P|68:176|84:235,1,112.5
220,352,253917,1,8,0:0:0:0:
312,216,254080,1,0,0:0:0:0:
143,184,254243,2,0,P|162:243|216:274,1,112.5
356,320,254569,1,8,0:0:0:0:
382,155,254732,1,0,0:0:0:0:
217,172,254895,6,0,P|256:210|311:216,1,112.5,4|0,0:0|0:0,0:0:0:0:
275,79,255221,2,0,P|236:41|181:35,1,112.5,8|0,0:0|0:0,0:0:0:0:
416,256,255547,2,0,P|454:216|460:161,1,112.5
202,112,255874,1,8,0:0:0:0:
266,326,256037,1,4,0:0:0:0:
382,185,256200,2,0,P|386:128|363:87,1,56.25
376,92,256363,101,0,0:0:0:0:
339,65,256444,1,0,0:0:0:0:
295,59,256526,1,0,0:0:0:0:
253,73,256607,1,0,0:0:0:0:
222,106,256689,1,0,0:0:0:0:
210,148,256770,1,0,0:0:0:0:
217,195,256852,1,0,0:0:0:0:
166,172,256933,1,0,0:0:0:0:
111,182,257015,1,0,0:0:0:0:
72,222,257096,1,0,0:0:0:0:
60,277,257178,1,0,0:0:0:0:
83,326,257259,1,0,0:0:0:0:
129,357,257341,1,0,0:0:0:0:
185,355,257422,1,0,0:0:0:0:
234,336,257504,53,4,0:0:0:0:
256,192,257586,12,0,262640,0:0:0:0:
88,100,262721,54,0,L|88:216,1,112.5
180,216,263048,1,8,0:0:0:0:
260,152,263211,1,0,0:0:0:0:
344,216,263374,1,0,0:0:0:0:
436,216,263537,2,0,L|436:96,2,112.5,0|8|0,0:0|0:0|0:0,0:0:0:0:
196,336,264026,6,0,L|308:336,1,112.5
424,280,264353,1,8,0:0:0:0:
332,184,264516,1,0,0:0:0:0:
208,248,264679,1,0,0:0:0:0:
103,158,264841,1,0,0:0:0:0:
218,73,265004,2,0,P|278:53|328:67,1,112.5,8|0,0:0|0:0,0:0:0:0:
451,194,265330,102,0,L|350:252,1,112.5
218,144,265656,1,8,0:0:0:0:
48,328,265819,1,0,0:0:0:0:
258,306,265982,1,0,0:0:0:0:
25,160,266145,1,0,0:0:0:0:
274,90,266308,2,0,P|295:145|272:206,1,112.5,8|0,0:0|0:0,0:0:0:0:
128,351,266634,2,0,P|113:297|134:246,1,112.5
208,132,266961,5,8,0:0:0:0:
365,61,267124,1,0,0:0:0:0:
365,61,267205,1,0,0:0:0:0:
365,61,267287,2,0,P|420:54|470:77,1,112.5,0|4,0:0|0:0,0:0:0:0:
336,240,267613,1,0,0:0:0:0:
310,218,267694,1,0,0:0:0:0:
280,204,267776,1,0,0:0:0:0:
246,199,267857,1,0,0:0:0:0:
213,215,267939,22,0,P|161:247|101:227,1,112.5
76,116,268265,2,0,P|124:84|188:96,1,112.5,8|0,0:0|0:0,0:0:0:0:
252,220,268591,2,0,P|236:273|179:318,1,112.5
39,116,268917,2,0,P|68:68|131:37,1,112.5,8|0,0:0|0:0,0:0:0:0:
315,266,269243,38,0,L|439:294,1,112.5
459,162,269569,2,0,L|335:134,1,112.5,8|0,0:0|0:0,0:0:0:0:
267,246,269895,2,0,L|338:336,1,112.5
503,181,270221,2,0,L|431:90,1,112.5,8|0,0:0|0:0,0:0:0:0:
192,120,270547,69,0,0:0:0:0:
290,242,270711,1,0,0:0:0:0:
347,93,270873,1,8,0:0:0:0:
171,259,271037,1,0,0:0:0:0:
407,217,271200,1,0,0:0:0:0:
253,37,271363,1,0,0:0:0:0:
96,173,271526,38,0,L|204:217,1,112.5,8|0,0:0|0:0,0:0:0:0:
416,268,271852,2,0,L|308:312,1,112.5
175,85,272178,69,8,0:0:0:0:
411,177,272341,1,0,0:0:0:0:
197,321,272504,1,8,0:0:0:0:
326,31,272667,1,8,0:0:0:0:
374,347,272830,1,8,0:0:0:0:
82,203,272993,1,8,0:0:0:0:
296,276,273156,70,0,L|439:269,2,144,0|0|8,0:0|0:0|0:0,0:0:0:0:
19,354,274134,6,0,L|73:304,1,72
53,207,274461,1,0,0:0:0:0:
38,189,274542,1,4,0:0:0:0:
36,166,274624,2,0,P|69:148|107:146,1,72,8|0,0:0|0:0,0:0:0:0:
213,176,274950,2,0,L|145:241,1,72,0|8,0:0|0:0,0:0:0:0:
192,307,275276,1,0,0:0:0:0:
256,248,275439,2,0,P|285:228|304:197,1,72,8|0,0:0|0:0,0:0:0:0:
288,168,275683,1,0,0:0:0:0:
256,156,275765,2,0,L|184:131,2,72,4|0|0,0:0|0:0|0:0,0:0:0:0:
232,292,276254,2,0,B|176:212|88:240|24:80|168:-16|236:68|236:68|248:84|256:84|264:84|276:68|276:68|348:-16|476:80|428:240|328:216|280:292,1,864,0|8,0:0|0:0,0:0:0:0:
80,272,278374,102,0,B|104:316|104:316|144:336,1,90
256,224,278700,1,0,0:0:0:0:
180,144,278863,1,0,0:0:0:0:
416,152,279026,2,0,B|448:204|448:204|388:220|372:292,1,180,8|0,0:0|0:0,0:0:0:0:
160,320,279515,2,0,B|227:298|270:342|270:342|299:289,1,180
252,92,280004,1,0,0:0:0:0:
352,184,280167,1,0,0:0:0:0:
164,176,280330,1,8,0:0:0:0:
404,92,280493,2,0,B|448:120|448:120|472:168,1,90
312,344,280819,5,0,0:0:0:0:
312,344,280901,1,0,0:0:0:0:
312,344,280982,2,0,B|280:316|280:316|256:260,1,90
232,116,281308,1,0,0:0:0:0:
380,164,281471,1,0,0:0:0:0:
124,223,281634,2,0,P|113:307|190:341,1,180,8|0,0:0|0:0,0:0:0:0:
432,212,282124,2,0,P|444:132|360:96,1,180
176,272,282613,101,0,0:0:0:0:
377,163,282776,1,0,0:0:0:0:
245,297,282939,1,8,0:0:0:0:
327,95,283102,1,0,0:0:0:0:
209,289,283265,1,8,0:0:0:0:
355,127,283428,1,0,0:0:0:0:
285,295,283591,2,0,P|326:290|363:256,1,90
292,75,283917,2,0,P|251:80|214:114,1,90
456,172,284243,6,0,B|452:112|452:112|400:104|384:172|320:144,1,180,8|0,0:0|0:0,0:0:0:0:
132,176,284732,2,0,B|153:133|85:117|93:65|93:65|153:61,1,180
320,60,285221,1,0,0:0:0:0:
212,228,285384,1,0,0:0:0:0:
152,64,285547,1,8,0:0:0:0:
284,228,285711,2,0,B|318:194|318:194|362:182,1,90
464,328,286037,101,0,0:0:0:0:
464,328,286118,1,0,0:0:0:0:
464,328,286200,2,0,B|420:300|380:320|380:320|340:340|288:328,1,180
256,192,286689,1,0,0:0:0:0:
48,64,286852,2,0,B|92:36|132:56|132:56|172:76|232:64,1,180,8|0,0:0|0:0,0:0:0:0:
400,192,287341,1,4,0:0:0:0:
112,192,287667,1,4,0:0:0:0:
256,99,287993,5,0,0:0:0:0:
204,266,288156,1,8,0:0:0:0:
344,161,288319,1,8,0:0:0:0:
169,164,288482,1,8,0:0:0:0:
312,264,288645,1,8,0:0:0:0:
108,272,288808,102,0,B|86:235|86:235|78:175,1,90
248,96,289134,1,0,0:0:0:0:
104,80,289297,1,0,0:0:0:0:
160,208,289461,2,0,B|184:252|184:252|240:224|208:324|324:304,1,180,8|0,0:0|0:0,0:0:0:0:
400,128,289950,2,0,B|376:84|376:84|320:112|352:12|236:32,1,180
120,96,290439,1,0,0:0:0:0:
304,164,290602,1,0,0:0:0:0:
76,164,290765,1,8,0:0:0:0:
320,240,290928,2,0,B|364:214|364:214|388:170,1,90
292,316,291254,5,0,0:0:0:0:
292,316,291335,1,0,0:0:0:0:
292,316,291417,2,0,B|248:292|248:292|212:252,1,90
120,164,291743,1,0,0:0:0:0:
300,132,291906,1,0,0:0:0:0:
56,208,292069,2,0,P|52:128|136:88,1,180,8|0,0:0|0:0,0:0:0:0:
368,172,292558,2,0,P|372:92|288:52,1,180
136,104,293047,101,0,0:0:0:0:
296,132,293211,1,0,0:0:0:0:
176,300,293374,1,8,0:0:0:0:
189,53,293537,1,0,0:0:0:0:
332,168,293701,1,8,0:0:0:0:
128,268,293864,1,0,0:0:0:0:
261,36,294026,2,0,P|284:76|276:120,1,90
72,321,294352,2,0,P|49:281|57:237,1,90
392,192,294678,6,0,B|419:231|419:231|413:273|413:273|445:302|445:302|459:358,1,180,8|0,0:0|0:0,0:0:0:0:
148,204,295167,2,0,B|121:165|121:165|127:123|127:123|95:94|95:94|81:38,1,180
276,64,295656,1,0,0:0:0:0:
345,248,295819,1,0,0:0:0:0:
400,40,295982,1,8,0:0:0:0:
473,228,296145,2,0,B|429:223|376:179,1,90
224,52,296471,1,0,0:0:0:0:
224,52,296553,1,0,0:0:0:0:
224,52,296634,102,0,B|178:43|178:43|138:61,1,90
208,208,296961,1,0,0:0:0:0:
356,156,297124,1,0,0:0:0:0:
132,180,297287,2,0,B|124:224|140:268,1,90,8|0,0:0|0:0,0:0:0:0:
356,204,297614,1,0,0:0:0:0:
256,24,297777,1,0,0:0:0:0:
256,360,298102,5,4,0:0:0:0:
148,80,298428,1,0,0:0:0:0:
419,239,298591,1,8,0:0:0:0:
91,239,298754,1,8,0:0:0:0:
366,80,298917,1,8,0:0:0:0:
256,336,299080,1,8,0:0:0:0:
