osu file format v14

[General]
AudioFilename: audio.mp3
AudioLeadIn: 0
PreviewTime: 58917
Countdown: 0
SampleSet: None
StackLeniency: 0.7
Mode: 0
LetterboxInBreaks: 0
WidescreenStoryboard: 0

[Editor]
Bookmarks: 7069,17504,38374,59243,74895,80113,111417,132287,147939,160330,171417
DistanceSpacing: 1
BeatDivisor: 4
GridSize: 8
TimelineZoom: 1.7

[Metadata]
Title:KOWAREYASUKI
TitleUnicode:コワレヤスキ
Artist:Guilty Kiss
ArtistUnicode:Guilty Kiss
Creator:Noctiam
Version:Expert
Source:ラブライブ!サンシャイン!!
Tags:love live! sunshine!! school idol project aqours sakurauchi riko 桜内 梨子 rikako aida 逢田 梨香子 tsushima yoshiko 津島 善子 kobayashi aika 小林 愛香 ohara mari 小原 鞠莉 suzuki aina 鈴木 愛奈 aki hata 畑亜貴 takashi saeki 佐伯高志
BeatmapID:1819619
BeatmapSetID:743895

[Difficulty]
HPDrainRate:6
CircleSize:4
OverallDifficulty:8
ApproachRate:9
SliderMultiplier:1.6
SliderTickRate:1

[Events]
//Background and Video events
0,0,"background.jpg",0,0
//Break Periods
2,80439,88480
2,154134,159730
2,278573,287556
//Storyboard Layer 0 (Background)
//Storyboard Layer 1 (Fail)
//Storyboard Layer 2 (Pass)
//Storyboard Layer 3 (Foreground)
//Storyboard Sound Samples

[TimingPoints]
548,326.086956521739,4,2,0,80,1,0
7069,-125,4,2,1,80,0,0
17504,-133.333333333333,4,2,1,80,0,0
37232,-125,4,2,1,70,0,0
38374,-200,4,2,1,70,0,0
57939,-100,4,2,0,80,0,0
59243,-100,4,2,2,90,0,1
69678,-100,4,2,2,90,0,1
74895,-200,4,2,1,75,0,0
80113,-125,4,2,1,75,0,0
111417,-200,4,2,1,75,0,0
130982,-111.111111111111,4,2,1,75,0,0
132287,-100,4,2,2,90,0,1
142721,-100,4,2,2,90,0,1
147939,-200,4,2,1,90,0,0
160330,-83.3333333333333,4,2,1,90,0,0
160982,-200,4,2,1,90,0,0
165547,-83.3333333333333,4,2,1,90,0,0
166200,-200,4,2,1,90,0,0
170765,-111.111111111111,4,2,1,90,0,0
192939,-133.333333333333,4,2,1,90,0,0
210547,-100,4,2,1,90,0,0
215765,-100,4,2,2,90,0,1
231417,-100,4,2,1,90,0,0
236634,-100,4,2,2,90,0,1
252287,-100,4,2,1,90,0,0
257504,-100,4,2,1,90,0,0
273156,-200,4,2,1,90,0,0
278374,-125,4,2,1,90,0,0

[Colours]
Combo1 : 193,0,0
Combo2 : 192,192,192
Combo3 : 255,128,255
Combo4 : 163,70,255
Combo5 : 141,141,141
Combo6 : 255,128,192
Combo7 : 128,0,255
Combo8 : 255,0,0

[HitObjects]
64,96,7069,6,0,L|194:87,1,128
228,184,7558,1,0,0:0:0:0:
317,125,7721,2,0,P|364:170|358:234,1,128,8|0,0:0|0:0,0:0:0:0:
262,303,8211,1,0,0:0:0:0:
119,274,8374,6,0,L|146:190,1,64
250,168,8700,2,0,L|225:91,1,64
157,60,9026,2,0,L|300:49,1,128,8|0,0:0|0:0,0:0:0:0:
446,161,9515,1,0,0:0:0:0:
446,161,9596,1,0,0:0:0:0:
446,161,9678,6,0,P|425:214|348:223,1,128
282,153,10167,1,0,0:0:0:0:
228,314,10330,2,0,P|171:312|136:243,1,128,8|0,0:0|0:0,0:0:0:0:
195,153,10819,1,0,0:0:0:0:
302,248,10982,6,0,P|335:245|370:213,1,64
331,108,11308,1,0,0:0:0:0:
241,192,11471,1,0,0:0:0:0:
419,270,11634,2,0,P|432:238|425:205,1,64,8|0,0:0|0:0,0:0:0:0:
268,147,11961,2,0,P|256:114|262:67,1,64,8|0,0:0|0:0,0:0:0:0:
320,39,12287,6,0,L|192:54,1,128
93,127,12776,1,0,0:0:0:0:
193,184,12939,2,0,P|191:244|132:258,1,128,8|0,0:0|0:0,0:0:0:0:
49,96,13429,1,0,0:0:0:0:
24,221,13592,6,0,L|64:287,1,64
239,154,13918,2,0,L|192:72,1,64
261,43,14244,2,0,L|108:63,1,128,8|0,0:0|0:0,0:0:0:0:
203,225,14733,1,0,0:0:0:0:
203,225,14814,1,0,0:0:0:0:
203,225,14895,6,0,L|355:204,1,128
207,98,15385,1,0,0:0:0:0:
325,284,15547,2,0,P|387:259|408:198,1,128,8|0,0:0|0:0,0:0:0:0:
258,67,16037,1,4,0:0:0:0:
258,317,16363,5,4,0:0:0:0:
258,67,16689,1,0,0:0:0:0:
166,147,16852,2,8,L|159:210,1,64
352,210,17178,2,8,L|345:146,1,64
225,53,17504,6,0,L|235:130,1,60.0000022888184,4|0,0:0|0:0,0:0:0:0:
250,243,17830,1,0,0:0:0:0:
118,174,17993,1,8,0:0:0:0:
423,150,18482,2,0,L|415:226,1,60.0000022888184
310,341,18808,6,0,L|301:281,1,60.0000022888184
327,118,19297,1,0,0:0:0:0:
416,209,19461,2,0,P|407:245|381:267,1,60.0000022888184,8|0,0:0|0:0,0:0:0:0:
249,110,19787,2,0,P|262:70|295:49,1,60.0000022888184
152,78,20113,6,0,P|139:38|106:17,1,60.0000022888184
33,138,20439,1,0,0:0:0:0:
140,210,20602,1,8,0:0:0:0:
316,33,21091,2,0,P|335:55|341:84,1,60.0000022888184
244,263,21417,6,0,P|224:240|218:211,1,60.0000022888184
266,87,21906,1,0,0:0:0:0:
371,201,22069,2,0,P|338:199|299:179,1,60.0000022888184,8|0,0:0|0:0,0:0:0:0:
432,66,22395,2,0,P|430:99|410:138,1,60.0000022888184
320,274,22721,6,0,L|342:338,1,60.0000022888184
436,233,23047,1,0,0:0:0:0:
350,123,23211,1,8,0:0:0:0:
112,329,23700,2,0,L|131:272,1,60.0000022888184
269,107,24026,6,0,L|248:175,1,60.0000022888184
194,316,24515,1,0,0:0:0:0:
122,152,24678,2,0,P|97:175|93:209,1,60.0000022888184,8|0,0:0|0:0,0:0:0:0:
288,226,25004,2,0,P|314:203|322:174,1,60.0000022888184
432,113,25330,6,0,L|415:53,1,60.0000022888184
284,98,25656,1,0,0:0:0:0:
152,57,25819,1,8,0:0:0:0:
362,231,26308,2,0,L|378:173,1,60.0000022888184
207,93,26634,2,0,L|223:150,1,60.0000022888184
270,324,27124,6,0,P|226:327|204:313,1,60.0000022888184,0|8,0:0|0:0,0:0:0:0:
140,239,27450,1,0,0:0:0:0:
248,219,27613,1,0,0:0:0:0:
350,246,27776,1,0,0:0:0:0:
455,205,27939,6,0,P|460:249|453:280,1,60.0000022888184
358,162,28265,1,0,0:0:0:0:
302,302,28428,2,0,P|343:318|374:319,1,60.0000022888184,8|0,0:0|0:0,0:0:0:0:
284,52,28917,2,0,L|269:123,1,60.0000022888184
145,190,29243,6,0,L|136:130,1,60.0000022888184
24,207,29569,1,0,0:0:0:0:
147,297,29732,1,0,0:0:0:0:
265,222,29895,2,0,P|286:178|284:155,1,60.0000022888184,8|0,0:0|0:0,0:0:0:0:
369,57,30221,2,0,P|373:86|390:111,1,60.0000022888184
427,233,30547,6,0,L|355:281,1,60.0000022888184
285,167,30874,1,0,0:0:0:0:
137,212,31037,2,0,L|194:228,1,60.0000022888184,8|0,0:0|0:0,0:0:0:0:
96,86,31526,2,0,L|39:105,1,60.0000022888184
194,228,31852,6,0,L|251:209,1,60.0000022888184
341,133,32178,1,0,0:0:0:0:
430,226,32341,1,0,0:0:0:0:
349,331,32504,2,0,P|321:320|299:300,1,60.0000022888184,8|0,0:0|0:0,0:0:0:0:
209,178,32830,2,0,P|236:166|258:146,1,60.0000022888184,8|0,0:0|0:0,0:0:0:0:
127,50,33156,6,0,P|109:78|110:127,1,60.0000022888184,4|0,0:0|0:0,0:0:0:0:
193,253,33482,1,0,0:0:0:0:
333,148,33645,2,0,P|328:118|311:93,1,60.0000022888184,8|0,0:0|0:0,0:0:0:0:
117,278,34134,2,0,L|162:335,1,60.0000022888184
261,148,34461,6,0,L|223:195,1,60.0000022888184
343,277,34787,1,0,0:0:0:0:
433,165,34950,1,0,0:0:0:0:
347,47,35113,2,0,P|333:85|341:113,1,60.0000022888184,8|0,0:0|0:0,0:0:0:0:
413,258,35439,2,0,P|400:231|375:214,1,60.0000022888184
343,207,35683,1,0,0:0:0:0:
302,216,35765,6,0,P|268:237|254:267,1,60.0000022888184,0|8,0:0|0:0,0:0:0:0:
186,309,36091,1,0,0:0:0:0:
237,170,36254,2,0,P|221:140|186:127,1,60.0000022888184,8|0,0:0|0:0,0:0:0:0:
46,176,36580,2,0,L|110:193,1,60.0000022888184,8|0,0:0|0:0,0:0:0:0:
238,74,36906,2,0,L|180:58,1,60.0000022888184
308,196,37232,5,8,0:0:0:0:
192,280,37395,1,8,0:0:0:0:
307,227,37558,1,10,0:0:0:0:
136,245,37721,1,8,0:0:0:0:
287,257,37884,1,10,0:0:0:0:
104,176,38047,1,8,0:0:0:0:
249,275,38211,1,10,0:0:0:0:
115,89,38374,6,0,L|282:110,1,160
380,216,39352,1,0,0:0:0:0:
227,306,39678,2,0,L|193:145,1,160
23,308,40656,5,0,0:0:0:0:
99,262,40819,1,0,0:0:0:0:
52,190,40982,2,0,L|85:33,1,160
249,77,41961,1,0,0:0:0:0:
292,216,42287,2,0,L|135:249,1,160
489,288,43265,5,0,0:0:0:0:
407,258,43428,1,0,0:0:0:0:
441,176,43591,2,0,L|472:102,2,80
300,301,44569,5,0,0:0:0:0:
197,347,44732,1,0,0:0:0:0:
88,268,44895,2,0,L|169:246,1,80
320,94,45547,2,0,L|237:119,1,80
300,301,46200,6,0,P|332:312|390:293,1,80
464,261,46689,1,0,0:0:0:0:
344,235,46852,2,0,P|381:219|399:180,1,80
360,93,47341,1,0,0:0:0:0:
360,93,47422,1,0,0:0:0:0:
360,93,47504,1,0,0:0:0:0:
120,95,47830,5,0,0:0:0:0:
202,280,48156,2,0,L|253:309,1,40
211,146,48482,2,0,L|176:126,1,40
47,36,48808,6,0,L|19:119,1,80
70,227,49297,1,0,0:0:0:0:
183,220,49461,2,0,L|215:131,1,80
323,272,50113,6,0,L|339:350,1,80
391,230,50602,1,0,0:0:0:0:
486,266,50765,2,0,L|459:190,1,80
363,70,51254,1,0,0:0:0:0:
468,39,51417,6,0,L|445:132,1,80
373,161,51906,1,0,0:0:0:0:
270,138,52069,2,0,L|289:215,1,80
88,78,52721,6,0,P|47:76|5:95,1,80
118,198,53211,2,0,L|168:193,1,40
80,342,53700,5,0,0:0:0:0:
140,271,53863,1,0,0:0:0:0:
211,344,54026,2,0,L|268:279,1,80
360,188,54515,1,0,0:0:0:0:
238,121,54678,2,0,P|246:149|266:164,1,40
421,230,55004,2,0,P|440:196|429:159,1,80
381,331,55656,5,0,0:0:0:0:
324,97,55982,1,0,0:0:0:0:
163,274,56308,1,0,0:0:0:0:
105,141,56471,1,0,0:0:0:0:
105,141,56553,1,0,0:0:0:0:
105,141,56634,6,0,L|190:143,1,80
311,161,57124,1,0,0:0:0:0:
416,203,57287,2,0,L|451:232,1,40
355,297,57613,2,0,L|370:339,1,40
236,312,57939,2,0,L|228:356,2,40
164,234,58183,2,0,L|170:194,2,40
265,116,58428,2,0,L|271:155,2,40
142,77,59243,6,0,P|70:94|57:172,1,160,0|8,0:0|0:0,0:0:0:0:
198,286,59732,1,0,0:0:0:0:
299,188,59895,2,0,L|263:112,1,80
114,282,60221,2,0,L|150:353,1,80,8|0,0:0|0:0,0:0:0:0:
368,327,60547,6,0,P|443:324|475:255,1,160,0|8,0:0|0:0,0:0:0:0:
342,140,61037,1,0,0:0:0:0:
172,137,61200,2,0,P|112:178|157:247,1,160,0|8,0:0|0:0,0:0:0:0:
293,292,61689,1,0,0:0:0:0:
419,118,61852,6,0,L|409:207,1,80
162,57,62178,2,0,L|171:136,1,80,8|0,0:0|0:0,0:0:0:0:
275,283,62504,1,0,0:0:0:0:
348,106,62667,1,0,0:0:0:0:
229,187,62830,2,0,P|194:168|170:136,1,80,8|0,0:0|0:0,0:0:0:0:
220,34,63156,6,0,P|257:47|278:81,1,80
63,248,63482,2,0,P|31:216|33:179,1,80,8|0,0:0|0:0,0:0:0:0:
209,244,63808,2,0,L|261:261,2,40,8|0|0,0:0|0:0|0:0,0:0:0:0:
193,63,64134,2,0,L|231:21,2,40,8|0|0,0:0|0:0|0:0,0:0:0:0:
33,183,64461,6,0,P|55:247|161:262,1,160,4|8,0:0|0:0,0:0:0:0:
88,58,64950,1,0,0:0:0:0:
114,196,65113,2,0,P|162:180|179:130,1,80
296,74,65439,1,8,0:0:0:0:
353,195,65602,1,0,0:0:0:0:
273,317,65765,6,0,P|203:278|190:256,1,80
432,163,66091,2,0,P|435:205|418:248,1,80,8|0,0:0|0:0,0:0:0:0:
216,149,66417,1,0,0:0:0:0:
345,66,66580,1,0,0:0:0:0:
287,243,66743,2,0,P|249:252|183:233,1,80,8|0,0:0|0:0,0:0:0:0:
134,82,67069,5,10,0:0:0:0:
245,180,67232,1,2,0:0:0:0:
84,140,67395,1,10,0:0:0:0:
245,180,67558,1,2,0:0:0:0:
65,213,67721,1,10,0:0:0:0:
245,180,67884,1,2,0:0:0:0:
74,286,68047,2,0,P|110:316|174:322,1,80,8|0,0:0|0:0,0:0:0:0:
245,180,68374,1,8,0:0:0:0:
102,71,68537,5,0,0:0:0:0:
102,71,68618,1,0,0:0:0:0:
102,71,68700,1,8,0:0:0:0:
212,150,68863,1,0,0:0:0:0:
88,223,69026,1,8,0:0:0:0:
231,293,69189,1,0,0:0:0:0:
92,351,69352,2,0,P|131:343|164:306,1,80
137,152,69678,6,0,P|167:90|269:94,1,160,4|8,0:0|0:0,0:0:0:0:
359,132,70167,1,0,0:0:0:0:
435,252,70330,2,0,P|457:217|452:173,1,80
186,265,70656,2,0,P|203:310|238:325,1,80,8|0,0:0|0:0,0:0:0:0:
295,119,70982,6,0,L|221:178,1,80
300,318,71308,1,8,0:0:0:0:
365,194,71471,1,0,0:0:0:0:
219,92,71634,2,0,P|144:115|135:213,1,160,0|8,0:0|0:0,0:0:0:0:
244,234,72124,1,0,0:0:0:0:
53,136,72287,6,0,P|48:210|128:268,1,160,0|8,0:0|0:0,0:0:0:0:
236,327,72776,1,0,0:0:0:0:
267,127,72939,2,0,L|202:173,1,80
438,162,73265,2,0,L|500:112,1,80,8|0,0:0|0:0,0:0:0:0:
483,296,73591,6,0,L|419:347,1,80
194,268,73917,2,0,P|222:295|259:310,1,80,8|0,0:0|0:0,0:0:0:0:
403,261,74243,1,10,0:0:0:0:
363,87,74406,1,2,0:0:0:0:
272,238,74569,1,10,0:0:0:0:
443,166,74732,1,2,0:0:0:0:
266,138,74895,6,0,P|188:141|145:212,1,160,0|8,0:0|0:0,0:0:0:0:
301,323,75874,2,0,L|341:291,1,40
418,192,76200,5,0,0:0:0:0:
473,264,76363,2,0,L|428:299,1,40,8|0,0:0|0:0,0:0:0:0:
180,282,76852,2,0,L|246:225,1,80,8|0,0:0|0:0,0:0:0:0:
223,94,77341,1,8,0:0:0:0:
223,94,77422,1,8,0:0:0:0:
223,94,77504,6,0,P|171:108|153:137,1,80
387,274,78156,2,0,P|411:253|402:196,1,80,8|0,0:0|0:0,0:0:0:0:
307,181,78645,1,0,0:0:0:0:
215,248,78808,5,4,0:0:0:0:
146,171,78971,1,8,0:0:0:0:
182,92,79134,2,0,L|239:96,1,40
72,210,79461,2,0,L|30:209,1,40,8|0,0:0|0:0,0:0:0:0:
162,288,79787,1,0,0:0:0:0:
184,288,79868,1,0,0:0:0:0:
206,288,79950,1,8,0:0:0:0:
229,288,80031,1,8,0:0:0:0:
251,288,80113,1,4,0:0:0:0:
97,122,89080,5,0,0:0:0:0:
264,309,89406,1,0,0:0:0:0:
325,53,89732,1,0,0:0:0:0:
457,196,89895,2,0,L|433:271,1,64,8|8,0:0|0:0,0:0:0:0:
247,180,90221,2,0,L|268:110,1,64,8|8,0:0|0:0,0:0:0:0:
445,59,90547,6,0,P|378:68|359:124,1,128,4|0,0:0|0:0,0:0:0:0:
320,217,91037,1,0,0:0:0:0:
379,301,91200,2,0,B|408:362,1,64,8|0,0:0|0:0,0:0:0:0:
456,191,91526,2,0,L|429:124,1,64
259,167,91852,6,0,L|241:238,1,64
148,111,92178,2,0,L|126:34,1,64
53,185,92504,1,8,0:0:0:0:
93,298,92667,1,0,0:0:0:0:
148,206,92830,1,0,0:0:0:0:
201,305,92993,1,0,0:0:0:0:
256,199,93156,6,0,L|314:81,1,128
371,197,93645,1,0,0:0:0:0:
211,110,93808,1,8,0:0:0:0:
127,232,93971,2,0,P|159:265|196:268,1,64
333,309,94297,2,0,P|301:342|264:345,1,64
467,330,94624,5,0,0:0:0:0:
336,232,94787,2,0,P|381:217|423:142,1,128,0|8,0:0|0:0,0:0:0:0:
290,40,95276,1,0,0:0:0:0:
198,196,95439,1,8,0:0:0:0:
336,157,95602,1,0,0:0:0:0:
161,68,95765,6,0,P|102:94|99:151,1,128,4|0,0:0|0:0,0:0:0:0:
174,249,96254,1,0,0:0:0:0:
135,356,96417,2,0,L|72:340,1,64,8|0,0:0|0:0,0:0:0:0:
0,192,96743,2,0,L|60:212,1,64
158,68,97069,6,0,L|97:47,1,64
274,132,97395,2,0,L|334:111,1,64
416,179,97721,1,8,0:0:0:0:
442,50,97884,1,0,0:0:0:0:
489,215,98047,1,0,0:0:0:0:
442,50,98211,1,0,0:0:0:0:
414,266,98374,6,0,L|292:192,1,128
196,284,98863,1,0,0:0:0:0:
356,339,99026,1,8,0:0:0:0:
441,157,99189,2,0,P|411:148|372:161,1,64
172,181,99515,2,0,P|203:179|235:153,1,64
274,54,99841,5,0,0:0:0:0:
133,108,100004,2,0,P|93:157|111:221,1,128,0|8,0:0|0:0,0:0:0:0:
223,309,100493,1,0,0:0:0:0:
167,174,100656,1,0,0:0:0:0:
44,275,100819,1,8,0:0:0:0:
44,275,100901,1,8,0:0:0:0:
44,275,100982,6,0,L|157:345,1,128,4|0,0:0|0:0,0:0:0:0:
222,234,101471,1,0,0:0:0:0:
314,312,101634,2,0,L|369:343,1,64,8|0,0:0|0:0,0:0:0:0:
483,199,101961,2,0,P|452:199|419:214,1,64
268,111,102287,6,0,P|297:98|328:98,1,64
217,247,102613,2,0,P|185:246|156:234,1,64
48,120,102939,1,8,0:0:0:0:
200,95,103102,1,0,0:0:0:0:
60,216,103265,1,0,0:0:0:0:
103,35,103428,1,0,0:0:0:0:
246,157,103591,6,0,P|189:168|131:130,1,128
220,268,104080,1,0,0:0:0:0:
340,199,104243,1,8,0:0:0:0:
337,312,104406,2,0,L|283:363,1,64
462,294,104732,2,0,L|513:248,1,64
468,106,105058,5,0,0:0:0:0:
340,199,105221,2,0,P|388:153|374:89,1,128,0|4,0:0|0:0,0:0:0:0:
191,167,105711,1,0,0:0:0:0:
312,300,105874,1,8,0:0:0:0:
319,125,106037,1,0,0:0:0:0:
216,284,106200,6,0,L|91:224,1,128
205,103,106689,1,0,0:0:0:0:
66,83,106852,2,0,P|49:119|55:146,1,64,8|0,0:0|0:0,0:0:0:0:
252,217,107178,2,0,P|263:184|257:155,1,64
86,300,107504,6,0,P|111:324|141:328,1,64
334,234,107830,2,0,P|319:268|291:290,1,64
130,163,108156,1,8,0:0:0:0:
202,285,108319,1,0,0:0:0:0:
177,88,108482,1,0,0:0:0:0:
259,214,108645,1,8,0:0:0:0:
259,214,108727,1,8,0:0:0:0:
259,214,108808,5,0,0:0:0:0:
313,117,108971,2,0,L|381:84,1,64,8|0,0:0|0:0,0:0:0:0:
168,171,109297,2,0,L|98:149,1,64,8|0,0:0|0:0,0:0:0:0:
362,290,109624,2,0,L|333:224,1,64,8|0,0:0|0:0,0:0:0:0:
84,292,109950,2,0,L|109:350,1,64,0|0,0:0|0:0,0:0:0:0:
199,250,110276,5,8,0:0:0:0:
322,353,110439,1,8,0:0:0:0:
227,174,110602,1,8,0:0:0:0:
255,309,110765,1,8,0:0:0:0:
294,132,110928,1,8,0:0:0:0:
188,267,111091,1,8,0:0:0:0:
369,130,111254,1,8,0:0:0:0:
151,198,111417,6,0,B|63:177|106:140|41:85,1,160
215,43,112395,1,0,0:0:0:0:
268,201,112721,2,0,B|218:228|235:323|150:319,1,160
471,211,113700,1,0,0:0:0:0:
395,169,113863,1,0,0:0:0:0:
453,106,114026,6,0,P|410:41|322:37,1,160
364,214,115004,1,0,0:0:0:0:
111,76,115330,2,0,P|189:80|237:154,1,160
58,290,116308,1,0,0:0:0:0:
5,223,116471,1,0,0:0:0:0:
50,148,116634,6,0,P|84:177|81:222,2,80
252,136,117613,1,0,0:0:0:0:
313,74,117776,1,0,0:0:0:0:
226,38,117939,2,0,L|141:82,1,80
342,227,118591,2,0,L|411:181,1,80
188,147,119243,6,0,P|155:185|116:179,1,80
207,303,119732,2,0,P|238:328|286:325,1,80
432,251,120221,2,0,P|449:232|448:210,1,40
447,192,120466,1,8,0:0:0:0:
438,161,120547,1,8,0:0:0:0:
325,46,120874,1,8,0:0:0:0:
121,194,121200,5,8,0:0:0:0:
216,110,121363,1,8,0:0:0:0:
314,171,121526,5,8,0:0:0:0:
221,266,121689,1,0,0:0:0:0:
350,332,121852,2,0,P|383:310|400:266,1,80
378,190,122341,1,0,0:0:0:0:
441,121,122504,2,0,L|481:99,1,40,8|0,0:0|0:0,0:0:0:0:
384,54,122830,2,0,L|335:72,1,40
274,136,123156,6,0,P|246:123|186:128,1,80
181,207,123645,1,0,0:0:0:0:
41,285,123808,2,0,P|76:260|117:265,1,80,8|0,0:0|0:0,0:0:0:0:
393,318,124461,6,0,P|355:298|327:260,1,80,4|0,0:0|0:0,0:0:0:0:
336,153,124950,1,0,0:0:0:0:
456,156,125113,2,0,L|414:193,1,40,8|0,0:0|0:0,0:0:0:0:
355,56,125439,2,0,L|396:26,1,40
261,131,125765,2,0,P|236:130|198:83,1,80
79,53,126254,2,0,P|88:78|86:95,1,40,0|4,0:0|0:0,0:0:0:0:
34,353,126743,5,8,0:0:0:0:
144,309,126906,1,8,0:0:0:0:
104,190,127069,2,0,P|63:204|46:246,1,80,4|0,0:0|0:0,0:0:0:0:
143,338,127558,1,0,0:0:0:0:
267,337,127721,2,0,L|308:260,1,80,8|0,0:0|0:0,0:0:0:0:
437,73,128374,6,0,P|412:53|350:53,1,80
236,300,129026,2,0,P|267:296|311:252,1,80
117,99,129678,6,0,L|30:133,1,80
140,233,130167,1,8,0:0:0:0:
205,150,130330,1,8,0:0:0:0:
40,197,130493,1,8,0:0:0:0:
215,253,130656,1,8,0:0:0:0:
267,101,130819,1,8,0:0:0:0:
135,91,130982,6,0,P|80:107|86:182,1,143.999995605469
123,189,131390,1,8,0:0:0:0:
156,173,131471,1,8,0:0:0:0:
194,173,131553,1,8,0:0:0:0:
228,187,131634,1,8,0:0:0:0:
349,233,131797,1,8,0:0:0:0:
199,283,131961,2,0,P|163:277|125:256,1,71.9999978027344,8|8,0:0|0:0,0:0:0:0:
207,87,132287,6,0,B|286:63|286:63|370:69,1,160,0|8,0:0|0:0,0:0:0:0:
433,206,132776,2,0,P|409:238|369:252,1,80
256,333,133102,1,0,0:0:0:0:
214,202,133265,2,0,P|249:167|284:159,1,80,8|0,0:0|0:0,0:0:0:0:
175,279,133591,6,0,B|144:256|144:256|122:218,1,80
287,32,133917,2,0,B|264:67|264:67|226:84,1,80,8|0,0:0|0:0,0:0:0:0:
78,101,134243,2,0,P|20:147|34:227,1,160,0|8,0:0|0:0,0:0:0:0:
154,328,134732,1,0,0:0:0:0:
231,106,134895,6,0,P|221:156|245:194,1,80
340,337,135221,2,0,P|377:293|389:249,1,80,8|0,0:0|0:0,0:0:0:0:
475,63,135547,2,0,P|438:107|426:151,1,80
489,211,135874,1,8,0:0:0:0:
330,186,136037,1,0,0:0:0:0:
236,47,136200,6,0,L|149:113,1,80
46,158,136526,2,0,L|130:210,1,80,8|0,0:0|0:0,0:0:0:0:
260,283,136852,1,8,0:0:0:0:
260,283,136933,1,0,0:0:0:0:
260,283,137015,1,0,0:0:0:0:
420,212,137178,1,8,0:0:0:0:
420,212,137259,1,0,0:0:0:0:
420,212,137341,1,0,0:0:0:0:
463,351,137504,6,0,P|382:333|330:262,1,160,4|8,0:0|0:0,0:0:0:0:
261,73,137993,2,0,L|341:107,1,80
414,212,138319,1,0,0:0:0:0:
259,182,138482,2,0,P|215:205|205:243,1,80,8|0,0:0|0:0,0:0:0:0:
152,335,138808,6,0,P|113:326|72:283,1,80
74,130,139134,2,0,P|108:95|139:86,1,80,8|0,0:0|0:0,0:0:0:0:
331,227,139461,2,0,P|255:246|197:194,1,160,0|8,0:0|0:0,0:0:0:0:
264,69,139950,1,0,0:0:0:0:
141,154,140113,5,10,0:0:0:0:
195,41,140276,1,2,0:0:0:0:
198,197,140439,1,10,0:0:0:0:
127,50,140602,1,2,0:0:0:0:
257,165,140765,1,10,0:0:0:0:
76,96,140928,1,2,0:0:0:0:
305,117,141091,2,0,P|274:77|247:74,1,80,10|0,0:0|0:0,0:0:0:0:
141,154,141417,5,10,0:0:0:0:
238,258,141580,1,2,0:0:0:0:
238,258,141662,1,0,0:0:0:0:
238,258,141743,1,10,0:0:0:0:
195,93,141906,1,2,0:0:0:0:
167,280,142069,1,10,0:0:0:0:
271,93,142232,1,2,0:0:0:0:
104,243,142395,1,10,0:0:0:0:
332,145,142558,1,2,0:0:0:0:
71,176,142721,6,0,P|152:150|178:80,1,160,4|8,0:0|0:0,0:0:0:0:
153,294,143211,2,0,P|189:325|229:332,1,80
352,236,143537,1,0,0:0:0:0:
262,90,143700,2,0,P|223:108|201:153,1,80,8|0,0:0|0:0,0:0:0:0:
361,311,144026,6,0,P|403:292|422:250,1,80
133,165,144352,2,0,P|154:198|189:217,1,80,8|0,0:0|0:0,0:0:0:0:
421,136,144678,2,0,B|445:104|445:104|309:62,1,160,0|8,0:0|0:0,0:0:0:0:
162,20,145167,1,0,0:0:0:0:
31,112,145330,6,0,L|9:188,1,80
273,254,145656,2,0,L|295:178,1,80,8|0,0:0|0:0,0:0:0:0:
97,311,145982,2,0,P|126:338|170:333,1,80
325,324,146308,1,8,0:0:0:0:
426,208,146471,1,0,0:0:0:0:
346,65,146634,6,0,L|268:83,1,80
131,191,146961,2,0,L|209:173,1,80,8|0,0:0|0:0,0:0:0:0:
174,38,147287,1,0,0:0:0:0:
9,202,147450,1,8,0:0:0:0:
66,92,147613,1,8,0:0:0:0:
198,252,147776,1,8,0:0:0:0:
371,145,147939,6,0,P|317:177|328:263,1,160,0|8,0:0|0:0,0:0:0:0:
143,354,148917,2,0,L|97:325,1,40
30,286,149243,5,0,0:0:0:0:
112,232,149406,1,8,0:0:0:0:
43,163,149569,1,8,0:0:0:0:
230,34,149895,5,8,0:0:0:0:
210,130,150058,1,8,0:0:0:0:
307,130,150221,1,0,0:0:0:0:
129,66,150384,1,8,0:0:0:0:
129,66,150466,1,8,0:0:0:0:
129,66,150547,1,4,0:0:0:0:
91,85,160330,6,0,P|161:77|251:111,1,143.999995605469,8|0,0:0|0:0,0:0:0:0:
231,141,160656,2,0,P|181:187|155:270,1,143.999995605469,8|0,0:0|0:0,0:0:0:0:
184,285,160982,5,4,0:0:0:0:
396,197,161308,1,0,0:0:0:0:
481,353,161634,1,8,0:0:0:0:
288,238,161961,1,0,0:0:0:0:
16,362,162287,5,0,0:0:0:0:
218,239,162613,1,0,0:0:0:0:
26,130,162939,1,8,0:0:0:0:
115,296,163265,1,0,0:0:0:0:
24,25,163591,5,0,0:0:0:0:
298,59,163917,1,0,0:0:0:0:
143,144,164243,1,8,0:0:0:0:
422,178,164569,1,0,0:0:0:0:
263,323,164895,5,0,0:0:0:0:
24,216,165221,1,0,0:0:0:0:
6,18,165547,2,0,L|160:50,1,143.999995605469,8|0,0:0|0:0,0:0:0:0:
220,76,165874,2,0,L|141:220,1,143.999995605469,8|0,0:0|0:0,0:0:0:0:
112,270,166200,5,4,0:0:0:0:
30,86,166526,1,0,0:0:0:0:
84,348,166852,1,8,0:0:0:0:
308,158,167178,1,0,0:0:0:0:
35,38,167504,5,0,0:0:0:0:
472,38,168156,1,8,0:0:0:0:
368,286,168645,1,8,0:0:0:0:
368,286,168727,1,8,0:0:0:0:
368,286,168808,6,0,L|288:237,1,80,4|0,0:0|0:0,0:0:0:0:
185,102,169461,2,0,P|228:92|264:114,1,80
132,262,170113,2,0,P|102:244|87:214,1,60
97,179,170439,1,8,0:0:0:0:
181,46,170602,1,8,0:0:0:0:
325,185,170765,6,0,L|256:231,1,71.9999978027344,8|8,0:0|0:0,0:0:0:0:
64,74,171091,2,0,L|152:129,1,71.9999978027344,8|8,0:0|0:0,0:0:0:0:
330,38,171417,1,4,0:0:0:0:
256,192,171499,12,0,176634,0:0:0:0:
61,63,176961,6,0,L|132:136,1,71.9999978027344,8|0,0:0|0:0,0:0:0:0:
321,153,177287,2,0,L|250:226,1,71.9999978027344
144,354,177613,2,0,P|193:333|212:296,1,71.9999978027344,8|0,0:0|0:0,0:0:0:0:
431,258,177939,6,0,P|411:297|319:343,1,143.999995605469,0|8,0:0|0:0,0:0:0:0:
218,209,178428,1,0,0:0:0:0:
282,88,178591,2,0,P|328:99|362:127,1,71.9999978027344
208,285,178917,2,0,P|169:268|145:238,1,71.9999978027344,8|0,0:0|0:0,0:0:0:0:
126,50,179243,6,0,B|82:65|82:65|80:114|80:114|33:155,1,143.999995605469,0|8,0:0|0:0,0:0:0:0:
18,350,179732,1,0,0:0:0:0:
111,223,179895,2,0,L|42:245,1,71.9999978027344
206,121,180221,2,0,P|270:132|318:164,1,107.999996704102,8|0,0:0|0:0,0:0:0:0:
308,185,180547,6,0,P|337:238|444:242,1,143.999995605469,0|8,0:0|0:0,0:0:0:0:
481,30,181037,2,0,B|418:3|396:73|351:116|267:49,1,215.999993408203,0|8,0:0|0:0,0:0:0:0:
210,45,181607,2,8,L|216:98,1,35.9999989013672
142,103,181770,2,8,L|148:152,1,35.9999989013672,8|12,0:0|0:0,0:0:0:0:
256,192,181933,12,0,187069,0:0:0:0:
171,67,187395,6,0,P|138:92|126:145,1,71.9999978027344,8|0,0:0|0:0,0:0:0:0:
233,257,187721,1,0,0:0:0:0:
198,138,187884,1,0,0:0:0:0:
101,254,188047,2,0,L|168:301,1,71.9999978027344,8|0,0:0|0:0,0:0:0:0:
285,158,188374,6,0,P|353:159|415:222,1,143.999995605469,0|8,0:0|0:0,0:0:0:0:
313,333,188863,1,0,0:0:0:0:
214,253,189026,1,0,0:0:0:0:
85,338,189189,1,0,0:0:0:0:
159,203,189352,1,8,0:0:0:0:
173,186,189433,1,8,0:0:0:0:
191,176,189515,1,8,0:0:0:0:
212,172,189596,1,8,0:0:0:0:
235,180,189678,6,0,P|282:127|252:45,1,143.999995605469,4|8,0:0|0:0,0:0:0:0:
107,68,190167,1,0,0:0:0:0:
31,193,190330,2,0,L|74:261,1,71.9999978027344
220,306,190656,1,8,0:0:0:0:
316,212,190819,2,0,P|257:194|275:47,1,215.999993408203
70,254,191634,2,0,B|130:302|130:302|222:228|243:216|337:210,1,287.999991210938
479,30,192939,6,0,L|455:163,1,120.000004577637,8|0,0:0|0:0,0:0:0:0:
383,91,193428,2,0,L|320:74,1,60.0000022888184
239,96,193754,6,0,L|187:77,2,30.0000011444092
291,172,194080,1,0,0:0:0:0:
193,169,194243,2,0,L|136:145,1,60.0000022888184,8|0,0:0|0:0,0:0:0:0:
218,254,194569,2,0,L|274:279,1,60.0000022888184
74,260,195058,6,0,L|123:249,2,30.0000011444092
61,170,195384,1,0,0:0:0:0:
141,133,195547,2,0,P|174:146|191:169,1,60.0000022888184,8|0,0:0|0:0,0:0:0:0:
224,248,195874,1,0,0:0:0:0:
314,224,196037,2,0,P|307:164|410:171,1,180.000006866455
414,307,196689,5,0,0:0:0:0:
233,324,196852,2,0,L|261:337,2,30.0000011444092
156,300,197096,2,0,L|128:287,2,30.0000011444092
196,235,197341,2,0,L|224:248,1,30.0000011444092
295,276,197504,1,4,0:0:0:0:
33,30,198156,6,0,L|57:163,1,120.000004577637,8|0,0:0|0:0,0:0:0:0:
85,284,198645,2,0,L|148:267,1,60.0000022888184
232,328,198971,6,0,L|204:339,2,30.0000011444092
320,347,199297,1,0,0:0:0:0:
355,253,199460,2,0,L|412:229,1,60.0000022888184,8|0,0:0|0:0,0:0:0:0:
270,190,199786,2,0,L|214:215,1,60.0000022888184
448,166,200275,6,0,L|399:155,2,30.0000011444092
461,76,200601,1,0,0:0:0:0:
381,39,200764,2,0,P|348:52|331:75,1,60.0000022888184,8|0,0:0|0:0,0:0:0:0:
298,154,201091,1,0,0:0:0:0:
192,139,201254,2,0,P|141:130|116:246,1,180.000006866455
58,357,201906,5,0,0:0:0:0:
209,331,202069,2,0,L|181:344,2,30.0000011444092
266,244,202314,2,0,L|238:257,2,30.0000011444092
312,155,202558,2,0,L|284:168,1,30.0000011444092
389,179,202721,6,0,L|399:221,1,30.0000011444092,8|0,0:0|0:0,0:0:0:0:
329,72,202884,2,0,L|370:84,1,30.0000011444092
207,70,203047,2,0,L|238:40,1,30.0000011444092,8|0,0:0|0:0,0:0:0:0:
145,175,203211,2,0,L|135:132,1,30.0000011444092
185,279,203374,6,0,L|68:246,1,120.000004577637
225,353,203863,2,0,P|262:322|231:200,1,180.000006866455
146,92,204515,1,0,0:0:0:0:
146,92,204678,2,0,L|217:103,1,60.0000022888184,8|0,0:0|0:0,0:0:0:0:
361,113,205004,2,0,B|350:190|391:246|309:346,1,240.000009155274
199,100,205982,6,0,L|75:164,1,120.000004577637,8|0,0:0|0:0,0:0:0:0:
190,291,206471,2,0,B|253:335|279:231|357:256,1,180.000006866455
199,100,207124,1,0,0:0:0:0:
157,222,207287,1,0,0:0:0:0:
279,168,207450,1,0,0:0:0:0:
345,55,207613,1,0,0:0:0:0:
445,125,207776,1,0,0:0:0:0:
389,233,207939,5,0,0:0:0:0:
112,134,208591,6,0,P|73:159|40:238,1,120.000004577637,8|0,0:0|0:0,0:0:0:0:
244,283,209080,2,0,P|307:211|282:118,1,180.000006866455
205,58,209732,1,0,0:0:0:0:
205,58,209895,2,0,L|185:136,1,60.0000022888184,8|0,0:0|0:0,0:0:0:0:
151,269,210221,2,0,L|185:342,1,60.0000022888184
381,251,210547,6,0,P|325:269|293:370,1,160
438,197,211037,2,0,P|400:179|347:176,1,80,0|8,0:0|0:0,0:0:0:0:
257,230,211363,1,0,0:0:0:0:
374,333,211526,1,0,0:0:0:0:
190,332,211689,2,0,L|96:312,1,80
27,174,212015,6,0,L|113:193,1,80
260,84,212341,2,0,P|218:88|175:117,1,80
194,146,212586,1,0,0:0:0:0:
221,152,212667,1,0,0:0:0:0:
246,164,212749,1,0,0:0:0:0:
273,186,212830,1,0,0:0:0:0:
267,226,212911,1,0,0:0:0:0:
277,267,212993,1,0,0:0:0:0:
301,301,213074,1,0,0:0:0:0:
336,324,213156,1,0,0:0:0:0:
43,290,213482,5,0,0:0:0:0:
192,26,214134,5,0,0:0:0:0:
410,223,214787,5,0,0:0:0:0:
410,223,214868,1,0,0:0:0:0:
410,223,214950,1,0,0:0:0:0:
410,223,215031,1,0,0:0:0:0:
410,223,215113,5,0,0:0:0:0:
337,66,215276,1,0,0:0:0:0:
270,261,215439,1,0,0:0:0:0:
205,109,215602,1,0,0:0:0:0:
142,306,215765,6,0,P|70:289|57:211,1,160,0|8,0:0|0:0,0:0:0:0:
198,97,216254,1,0,0:0:0:0:
299,195,216417,2,0,L|263:271,1,80
114,101,216743,2,0,L|150:30,1,80,8|0,0:0|0:0,0:0:0:0:
368,56,217069,6,0,P|443:59|475:128,1,160,0|8,0:0|0:0,0:0:0:0:
427,317,217559,1,0,0:0:0:0:
247,271,217722,2,0,P|183:194|206:145,1,160,0|8,0:0|0:0,0:0:0:0:
404,190,218211,1,0,0:0:0:0:
295,342,218374,6,0,L|216:351,1,80
208,76,218700,2,0,L|287:70,1,80,8|0,0:0|0:0,0:0:0:0:
241,270,219026,1,0,0:0:0:0:
150,125,219189,1,0,0:0:0:0:
309,232,219352,2,0,P|325:193|320:146,1,80,8|0,0:0|0:0,0:0:0:0:
81,262,219678,6,0,P|44:248|23:215,1,80
140,45,220004,2,0,L|149:124,1,80,8|0,0:0|0:0,0:0:0:0:
170,314,220330,2,0,L|178:370,2,40,8|0|0,0:0|0:0|0:0,0:0:0:0:
309,232,220656,2,0,L|360:267,2,40,8|0|0,0:0|0:0|0:0,0:0:0:0:
22,214,220983,6,0,P|39:139|118:122,1,160,4|8,0:0|0:0,0:0:0:0:
253,183,221472,1,0,0:0:0:0:
170,314,221635,2,0,P|122:298|105:248,1,80
296,309,221961,1,8,0:0:0:0:
361,188,222124,1,0,0:0:0:0:
273,66,222287,6,0,P|203:105|190:127,1,80
432,220,222613,2,0,P|435:178|418:135,1,80,8|0,0:0|0:0,0:0:0:0:
212,216,222939,1,0,0:0:0:0:
370,303,223102,1,0,0:0:0:0:
348,145,223265,2,0,P|310:136|244:155,1,80,8|0,0:0|0:0,0:0:0:0:
211,298,223591,5,10,0:0:0:0:
81,238,223754,1,2,0:0:0:0:
142,321,223917,1,10,0:0:0:0:
129,178,224080,1,2,0:0:0:0:
68,332,224243,1,10,0:0:0:0:
201,155,224406,1,2,0:0:0:0:
17,278,224569,2,0,P|5:228|12:183,1,80,10|0,0:0|0:0,0:0:0:0:
103,65,224895,5,10,0:0:0:0:
181,233,225058,1,2,0:0:0:0:
181,233,225140,1,0,0:0:0:0:
181,233,225221,1,10,0:0:0:0:
49,132,225384,1,2,0:0:0:0:
238,175,225547,1,10,0:0:0:0:
81,238,225711,1,2,0:0:0:0:
253,102,225874,2,0,P|291:120|311:162,1,80,10|0,0:0|0:0,0:0:0:0:
173,322,226200,6,0,P|245:338|333:297,1,160,4|8,0:0|0:0,0:0:0:0:
311,152,226689,1,0,0:0:0:0:
435,131,226852,2,0,P|457:166|452:210,1,80
186,118,227178,2,0,P|203:73|238:58,1,80,8|0,0:0|0:0,0:0:0:0:
295,264,227504,6,0,L|221:205,1,80
300,65,227830,1,8,0:0:0:0:
356,202,227993,1,0,0:0:0:0:
225,319,228156,2,0,P|150:296|141:198,1,160,0|8,0:0|0:0,0:0:0:0:
270,100,228646,1,0,0:0:0:0:
374,285,228809,6,0,P|431:233|428:156,1,160,0|8,0:0|0:0,0:0:0:0:
303,69,229298,1,0,0:0:0:0:
176,116,229461,2,0,L|111:70,1,80
71,267,229787,2,0,L|9:217,1,80,8|0,0:0|0:0,0:0:0:0:
244,261,230113,6,0,L|306:310,1,80
275,77,230439,2,0,P|250:108|238:146,1,80,8|0,0:0|0:0,0:0:0:0:
371,278,230765,1,10,0:0:0:0:
313,144,230928,1,2,0:0:0:0:
138,184,231091,1,8,0:0:0:0:
119,192,231172,1,8,0:0:0:0:
106,206,231254,1,8,0:0:0:0:
99,225,231335,1,8,0:0:0:0:
96,248,231417,6,0,P|178:269|223:211,1,160,0|8,0:0|0:0,0:0:0:0:
259,72,231906,1,0,0:0:0:0:
396,145,232069,2,0,P|423:106|419:68,1,80
481,226,232395,2,0,L|400:265,1,80,8|0,0:0|0:0,0:0:0:0:
289,238,232721,6,0,L|206:281,1,80
123,199,233047,1,8,0:0:0:0:
240,126,233211,1,0,0:0:0:0:
91,111,233374,2,0,P|49:149|62:252,1,160,0|8,0:0|0:0,0:0:0:0:
166,337,233863,1,0,0:0:0:0:
304,319,234026,6,0,L|284:230,1,80
388,58,234352,2,0,L|406:152,1,80
210,275,234678,2,0,L|223:172,1,80
480,109,235004,1,8,0:0:0:0:
413,259,235167,2,0,P|374:261|332:224,1,80
257,79,235493,6,0,L|273:125,2,40
177,87,235738,2,0,L|191:125,2,40
101,100,235982,1,0,0:0:0:0:
80,119,236063,1,0,0:0:0:0:
69,144,236145,1,0,0:0:0:0:
69,172,236226,1,0,0:0:0:0:
80,197,236308,2,0,P|131:213|182:205,1,80
390,177,236634,6,0,B|311:153|311:153|227:159,1,160,0|8,0:0|0:0,0:0:0:0:
79,206,237123,2,0,P|103:238|143:252,1,80
256,333,237449,1,0,0:0:0:0:
298,202,237612,2,0,P|263:167|228:159,1,80,8|0,0:0|0:0,0:0:0:0:
337,279,237938,6,0,B|368:256|368:256|390:218,1,80
225,32,238264,2,0,B|248:67|248:67|286:84,1,80,8|0,0:0|0:0,0:0:0:0:
434,101,238590,2,0,P|492:147|478:227,1,160,0|8,0:0|0:0,0:0:0:0:
358,328,239079,1,0,0:0:0:0:
281,106,239242,6,0,P|291:156|267:194,1,80
172,337,239569,2,0,P|135:293|123:249,1,80,8|0,0:0|0:0,0:0:0:0:
37,63,239894,2,0,P|74:107|86:151,1,80
23,211,240221,1,8,0:0:0:0:
182,186,240384,1,0,0:0:0:0:
276,47,240547,6,0,L|363:113,1,80
466,158,240873,2,0,L|382:210,1,80,8|0,0:0|0:0,0:0:0:0:
252,283,241199,1,8,0:0:0:0:
252,283,241280,1,0,0:0:0:0:
252,283,241362,1,0,0:0:0:0:
92,212,241525,1,8,0:0:0:0:
92,212,241606,1,0,0:0:0:0:
92,212,241688,1,0,0:0:0:0:
49,351,241852,6,0,P|130:333|182:262,1,160,0|8,0:0|0:0,0:0:0:0:
251,73,242340,2,0,L|171:107,1,80
98,212,242666,1,0,0:0:0:0:
253,182,242829,2,0,P|297:205|307:243,1,80,8|0,0:0|0:0,0:0:0:0:
360,335,243155,6,0,P|399:326|440:283,1,80
438,130,243481,2,0,P|404:95|373:86,1,80,8|0,0:0|0:0,0:0:0:0:
173,262,243808,2,0,P|249:281|307:229,1,160,0|8,0:0|0:0,0:0:0:0:
205,98,244297,1,0,0:0:0:0:
372,161,244460,5,10,0:0:0:0:
198,182,244624,1,2,0:0:0:0:
305,55,244787,1,10,0:0:0:0:
306,231,244950,1,2,0:0:0:0:
212,72,245113,1,10,0:0:0:0:
390,143,245276,1,2,0:0:0:0:
229,262,245439,2,0,P|193:245|161:210,1,80,10|0,0:0|0:0,0:0:0:0:
80,78,245764,5,10,0:0:0:0:
111,273,245928,1,2,0:0:0:0:
111,273,246009,1,2,0:0:0:0:
111,273,246091,1,10,0:0:0:0:
273,181,246254,1,2,0:0:0:0:
108,174,246417,1,10,0:0:0:0:
241,321,246580,1,2,0:0:0:0:
374,219,246743,1,10,0:0:0:0:
185,202,246906,1,2,0:0:0:0:
358,331,247068,6,0,P|439:305|465:235,1,160,4|8,0:0|0:0,0:0:0:0:
382,128,247558,1,0,0:0:0:0:
324,262,247721,1,0,0:0:0:0:
160,236,247884,1,0,0:0:0:0:
250,90,248047,2,0,P|289:108|311:153,1,80,8|0,0:0|0:0,0:0:0:0:
151,311,248373,6,0,P|109:292|90:250,1,80
379,165,248699,2,0,P|358:198|323:217,1,80,8|0,0:0|0:0,0:0:0:0:
142,153,249026,2,0,P|115:88|205:43,1,160,0|8,0:0|0:0,0:0:0:0:
350,20,249514,1,0,0:0:0:0:
485,129,249678,5,0,0:0:0:0:
319,210,249841,1,0,0:0:0:0:
499,228,250004,1,8,0:0:0:0:
374,106,250167,1,0,0:0:0:0:
414,301,250329,2,0,P|385:328|341:323,1,80
187,324,250655,1,8,0:0:0:0:
86,208,250818,1,0,0:0:0:0:
43,54,250981,6,0,L|121:72,1,80
372,213,251308,2,0,L|294:195,1,80,8|0,0:0|0:0,0:0:0:0:
256,52,251634,1,0,0:0:0:0:
422,157,251797,1,8,0:0:0:0:
274,289,251961,1,8,0:0:0:0:
254,288,252042,1,8,0:0:0:0:
234,284,252124,1,8,0:0:0:0:
216,275,252205,1,8,0:0:0:0:
204,268,252287,6,0,P|179:204|207:106,1,160,4|8,0:0|0:0,0:0:0:0:
311,55,252776,1,0,0:0:0:0:
410,178,252939,2,0,P|377:196|318:191,1,80
144,63,253265,2,0,P|182:48|229:49,1,80,8|0,0:0|0:0,0:0:0:0:
306,265,253591,6,0,P|263:222|306:118,1,160,0|8,0:0|0:0,0:0:0:0:
176,207,254080,1,0,0:0:0:0:
96,304,254243,2,0,L|161:350,1,80
88,80,254569,2,0,L|25:128,1,80,8|0,0:0|0:0,0:0:0:0:
211,218,254895,6,0,P|252:187|270:144,1,80,4|0,0:0|0:0,0:0:0:0:
428,42,255221,2,0,P|387:73|369:116,1,80,8|0,0:0|0:0,0:0:0:0:
379,263,255547,2,0,P|331:242|285:248,1,80
157,276,255874,1,8,0:0:0:0:
59,129,256037,2,0,P|106:149|152:143,1,80,4|0,0:0|0:0,0:0:0:0:
266,56,256363,6,0,L|286:101,2,40
326,172,256607,2,0,L|346:217,2,40
372,284,256852,1,0,0:0:0:0:
379,302,256933,1,0,0:0:0:0:
386,321,257015,1,0,0:0:0:0:
393,340,257096,1,0,0:0:0:0:
399,358,257178,5,0,0:0:0:0:
434,339,257259,1,0,0:0:0:0:
461,310,257341,1,0,0:0:0:0:
475,273,257422,1,0,0:0:0:0:
477,233,257504,1,0,0:0:0:0:
256,192,257586,12,0,262558,0:0:0:0:
263,68,262721,6,0,B|191:74|131:59|114:148,1,160,4|0,0:0|0:0,0:0:0:0:
36,259,263211,2,0,P|89:298|129:298,1,80
238,197,263537,1,0,0:0:0:0:
109,228,263700,1,8,0:0:0:0:
200,332,263863,1,0,0:0:0:0:
304,254,264026,6,0,L|323:173,1,80
212,59,264352,2,0,L|183:149,1,80,8|0,0:0|0:0,0:0:0:0:
231,283,264678,2,0,P|260:315|302:330,1,80
445,191,265004,2,0,P|416:223|374:238,1,80,8|0,0:0|0:0,0:0:0:0:
182,106,265330,6,0,L|330:44,1,160,0|8,0:0|0:0,0:0:0:0:
311,212,265819,1,0,0:0:0:0:
54,118,265982,2,0,L|194:220,1,160,0|8,0:0|0:0,0:0:0:0:
351,161,266471,1,0,0:0:0:0:
237,336,266634,6,0,L|399:293,1,160,0|8,0:0|0:0,0:0:0:0:
247,168,267124,1,0,0:0:0:0:
475,86,267287,2,0,P|426:111|393:105,1,80,0|4,0:0|0:0,0:0:0:0:
206,36,267613,1,8,0:0:0:0:
186,39,267694,1,8,0:0:0:0:
168,46,267776,1,8,0:0:0:0:
151,57,267857,1,8,0:0:0:0:
136,74,267939,6,0,P|119:126|186:216,1,160,8|8,0:0|0:0,0:0:0:0:
302,270,268428,1,0,0:0:0:0:
390,164,268591,2,0,P|418:132|421:91,1,80
273,121,268917,2,0,P|245:89|242:48,1,80,8|0,0:0|0:0,0:0:0:0:
484,161,269243,6,0,P|447:217|350:242,1,160,0|8,0:0|0:0,0:0:0:0:
237,227,269732,1,0,0:0:0:0:
443,313,269895,2,0,P|382:342|286:316,1,160,0|8,0:0|0:0,0:0:0:0:
165,261,270384,1,0,0:0:0:0:
239,112,270547,6,0,P|299:130|284:223,1,160,0|8,0:0|0:0,0:0:0:0:
164,177,271037,1,0,0:0:0:0:
123,286,271200,2,0,L|186:336,1,80
360,263,271526,2,0,L|295:215,1,80,8|0,0:0|0:0,0:0:0:0:
354,344,271852,6,0,P|436:286|422:212,1,160,0|8,0:0|0:0,0:0:0:0:
353,38,272341,2,0,P|327:76|330:117,1,80
358,263,272667,1,8,0:0:0:0:
216,152,272830,1,8,0:0:0:0:
409,104,272993,1,8,0:0:0:0:
166,53,273156,6,0,L|72:36,2,80,0|0|8,0:0|0:0|0:0,0:0:0:0:
274,219,274134,2,0,L|318:199,1,40
346,135,274461,6,0,P|377:162|387:206,1,80,4|0,0:0|0:0,0:0:0:0:
389,309,274950,2,0,P|345:300|315:262,1,80
179,282,275439,2,0,P|205:271|221:257,1,40,0|8,0:0|0:0,0:0:0:0:
185,232,275683,1,8,0:0:0:0:
158,222,275765,2,0,P|132:210|119:150,1,80,4|0,0:0|0:0,0:0:0:0:
348,33,276254,6,0,B|409:124|409:124|388:269|388:269|240:201|240:201|192:101,1,520,0|4,0:0|0:0,0:0:0:0:
245,262,288156,5,0,0:0:0:0:
430,202,288319,1,0,0:0:0:0:
383,364,288482,1,0,0:0:0:0:
317,185,288645,1,0,0:0:0:0:
448,288,288808,6,0,L|318:297,1,128
284,200,289297,1,0,0:0:0:0:
195,259,289460,2,0,P|148:214|154:150,1,128,8|0,0:0|0:0,0:0:0:0:
250,81,289950,1,0,0:0:0:0:
393,110,290113,6,0,L|366:194,1,64
262,216,290439,2,0,L|287:293,1,64
355,324,290765,2,0,L|212:335,1,128,8|0,0:0|0:0,0:0:0:0:
66,223,291254,1,0,0:0:0:0:
66,223,291335,1,0,0:0:0:0:
66,223,291417,6,0,P|87:170|164:161,1,128
230,231,291906,1,0,0:0:0:0:
284,70,292069,2,0,P|341:72|376:141,1,128,8|0,0:0|0:0,0:0:0:0:
317,231,292558,1,0,0:0:0:0:
210,136,292721,6,0,P|177:139|142:171,1,64
181,276,293047,1,0,0:0:0:0:
271,192,293210,1,0,0:0:0:0:
93,114,293373,2,0,P|80:146|87:179,1,64,8|0,0:0|0:0,0:0:0:0:
244,237,293700,2,0,P|256:270|250:317,1,64,8|0,0:0|0:0,0:0:0:0:
192,345,294026,6,0,L|320:330,1,128
419,257,294515,1,0,0:0:0:0:
319,200,294678,2,0,P|321:140|380:126,1,128,8|0,0:0|0:0,0:0:0:0:
463,288,295168,1,0,0:0:0:0:
488,163,295331,6,0,L|448:97,1,64
273,230,295657,2,0,L|320:312,1,64
377,324,295983,2,0,L|251:341,1,128,8|0,0:0|0:0,0:0:0:0:
309,159,296472,1,0,0:0:0:0:
309,159,296553,1,0,0:0:0:0:
309,159,296634,6,0,L|157:180,1,128
305,286,297124,1,0,0:0:0:0:
187,100,297286,2,0,P|125:125|104:186,1,128,8|0,0:0|0:0,0:0:0:0:
254,317,297776,1,0,0:0:0:0:
254,67,298102,5,0,0:0:0:0:
254,317,298428,1,0,0:0:0:0:
346,237,298591,1,8,0:0:0:0:
162,151,298754,1,8,0:0:0:0:
396,134,298917,1,8,0:0:0:0:
153,292,299080,1,8,0:0:0:0:
