osu file format v14

[General]
AudioFilename: audio.mp3
AudioLeadIn: 0
PreviewTime: 50836
Countdown: 0
SampleSet: Soft
StackLeniency: 0.2
Mode: 0
LetterboxInBreaks: 0
WidescreenStoryboard: 1

[Editor]
Bookmarks: 22457,36679,107790,122012,150457,178901,196679
DistanceSpacing: 0.7
BeatDivisor: 4
GridSize: 16
TimelineZoom: 1.1

[Metadata]
Title:Guilty Night, Guilty Kiss!
TitleUnicode:Guilty Night, Guilty Kiss!
Artist:Guilty Kiss
ArtistUnicode:Guilty Kiss
Creator:Vell
Version:Hard
Source:ラブライブ!サンシャイン!!
Tags:Phyloukz love live sunshine school idol project 桜内梨子 津島善子 小原鞠莉 逢田梨香子 Rikako Aida 小林愛香 Aika Kobayashi 鈴木愛奈 Aina Suzuki Aquors sakurauchi riko tsushima yoshiko ohara mari anime video game Japanese Pop
BeatmapID:2028462
BeatmapSetID:934576

[Difficulty]
HPDrainRate:5
CircleSize:3.8
OverallDifficulty:6
ApproachRate:7.5
SliderMultiplier:1.7
SliderTickRate:1

[Events]
//Background and Video events
0,0,"bg2.png",0,0
//Break Periods
2,79535,92733
2,137313,138955
2,140869,142511
2,144424,146066
//Storyboard Layer 0 (Background)
//Storyboard Layer 1 (Fail)
//Storyboard Layer 2 (Pass)
//Storyboard Layer 3 (Foreground)
//Storyboard Layer 4 (Overlay)
//Storyboard Sound Samples

[TimingPoints]
1114,444.444444444444,4,2,1,50,1,0
1114,-111.111111111111,4,2,1,50,0,0
3558,-80,4,2,1,50,0,0
4225,-111.111111111111,4,2,1,50,0,0
5113,-185.185185185185,4,2,1,50,0,0
5447,-111.111111111111,4,2,1,50,0,0
6891,-80,4,2,1,50,0,0
8225,-100,4,2,1,65,0,0
10225,-100,4,2,3,65,0,0
10336,-100,4,2,1,65,0,0
10669,-100,4,2,3,65,0,0
10780,-100,4,2,1,65,0,0
11113,-100,4,2,3,65,0,0
11225,-100,4,2,1,65,0,0
13780,-100,4,2,3,65,0,0
13891,-100,4,2,1,65,0,0
14225,-100,4,2,3,65,0,0
14336,-100,4,2,1,65,0,0
14669,-100,4,2,3,65,0,0
14891,-100,4,2,1,65,0,0
17336,-100,4,2,3,65,0,0
17447,-100,4,2,1,65,0,0
17780,-100,4,2,3,65,0,0
17891,-100,4,2,1,65,0,0
18225,-100,4,2,3,65,0,0
18336,-100,4,2,1,65,0,0
20891,-100,4,2,3,65,0,0
21002,-100,4,2,1,65,0,0
21780,-100,4,2,3,65,0,0
21891,-100,4,2,1,65,0,0
22447,-121.951219512195,4,2,1,65,0,0
26002,-121.951219512195,4,2,4,65,0,0
26447,-121.951219512195,4,2,1,65,0,0
27558,-121.951219512195,4,2,3,65,0,0
27669,-121.951219512195,4,2,1,65,0,0
28447,-121.951219512195,4,2,3,65,0,0
28558,-121.951219512195,4,2,1,65,0,0
29558,-121.951219512195,4,2,4,65,0,0
30002,-121.951219512195,4,2,1,65,0,0
33113,-121.951219512195,4,2,4,65,0,0
33558,-121.951219512195,4,2,1,65,0,0
36113,-121.951219512195,4,2,2,65,0,0
36447,-121.951219512195,4,2,1,65,0,0
36669,-111.111111111111,4,2,1,65,0,0
49113,-333.333333333333,4,2,1,50,0,0
50891,-90.0900900900901,4,2,1,80,0,1
51225,-90.0900900900901,4,2,99,80,0,1
51336,-90.0900900900901,4,2,1,80,0,1
51669,-90.0900900900901,4,2,99,80,0,1
51780,-90.0900900900901,4,2,1,80,0,1
52113,-90.0900900900901,4,2,99,80,0,1
52225,-90.0900900900901,4,2,1,80,0,1
54780,-90.0900900900901,4,2,99,80,0,1
54891,-90.0900900900901,4,2,1,80,0,1
55225,-90.0900900900901,4,2,99,80,0,1
55336,-90.0900900900901,4,2,1,80,0,1
55669,-90.0900900900901,4,2,99,80,0,1
55780,-90.0900900900901,4,2,1,80,0,1
58336,-90.0900900900901,4,2,99,80,0,1
58447,-90.0900900900901,4,2,1,80,0,1
58780,-90.0900900900901,4,2,99,80,0,1
58891,-90.0900900900901,4,2,1,80,0,1
59225,-90.0900900900901,4,2,99,80,0,1
59336,-90.0900900900901,4,2,1,80,0,1
65447,-90.0900900900901,4,2,99,80,0,1
65558,-90.0900900900901,4,2,1,80,0,1
65891,-90.0900900900901,4,2,99,80,0,1
66002,-90.0900900900901,4,2,1,80,0,1
66336,-90.0900900900901,4,2,99,80,0,1
66447,-90.0900900900901,4,2,1,80,0,1
69002,-90.0900900900901,4,2,99,80,0,1
69113,-90.0900900900901,4,2,1,80,0,1
69447,-90.0900900900901,4,2,99,80,0,1
69558,-90.0900900900901,4,2,1,80,0,1
69891,-90.0900900900901,4,2,99,80,0,1
70002,-90.0900900900901,4,2,1,80,0,1
72558,-90.0900900900901,4,2,99,80,0,1
72669,-90.0900900900901,4,2,1,80,0,1
73002,-90.0900900900901,4,2,99,80,0,1
73113,-90.0900900900901,4,2,1,80,0,1
73447,-90.0900900900901,4,2,99,80,0,1
73558,-90.0900900900901,4,2,1,80,0,1
78447,-90.0900900900901,4,2,1,80,0,1
78669,-90.0900900900901,4,2,2,80,0,1
78891,-90.0900900900901,4,2,1,80,0,1
79113,-90.0900900900901,4,2,2,80,0,1
79336,-90.0900900900901,4,2,1,80,0,0
93558,-121.951219512195,4,2,1,65,0,0
97113,-121.951219512195,4,2,4,65,0,0
97558,-121.951219512195,4,2,1,65,0,0
98669,-121.951219512195,4,2,3,65,0,0
98780,-121.951219512195,4,2,1,65,0,0
99558,-121.951219512195,4,2,3,65,0,0
99669,-121.951219512195,4,2,1,65,0,0
100669,-121.951219512195,4,2,4,65,0,0
101113,-121.951219512195,4,2,1,65,0,0
104225,-121.951219512195,4,2,4,65,0,0
104669,-121.951219512195,4,2,1,65,0,0
107225,-121.951219512195,4,2,2,65,0,0
107558,-121.951219512195,4,2,1,65,0,0
107780,-111.111111111111,4,2,1,65,0,0
120225,-333.333333333333,4,2,1,50,0,0
122002,-90.0900900900901,4,2,1,80,0,1
122336,-90.0900900900901,4,2,99,80,0,1
122447,-90.0900900900901,4,2,1,80,0,1
122780,-90.0900900900901,4,2,99,80,0,1
122891,-90.0900900900901,4,2,1,80,0,1
123225,-90.0900900900901,4,2,99,80,0,1
123336,-90.0900900900901,4,2,1,80,0,1
125891,-90.0900900900901,4,2,99,80,0,1
126002,-90.0900900900901,4,2,1,80,0,1
126336,-90.0900900900901,4,2,99,80,0,1
126447,-90.0900900900901,4,2,1,80,0,1
126780,-90.0900900900901,4,2,99,80,0,1
126891,-90.0900900900901,4,2,1,80,0,1
129447,-90.0900900900901,4,2,99,80,0,1
129558,-90.0900900900901,4,2,1,80,0,1
129891,-90.0900900900901,4,2,99,80,0,1
130002,-90.0900900900901,4,2,1,80,0,1
130336,-90.0900900900901,4,2,99,80,0,1
130447,-90.0900900900901,4,2,1,80,0,1
136225,-111.111111111111,4,2,1,65,0,0
149891,-111.111111111111,4,2,2,65,0,0
150447,-111.111111111111,4,2,1,65,0,0
177113,-111.111111111111,4,2,2,65,0,0
177336,-111.111111111111,4,2,1,65,0,0
177447,-111.111111111111,4,2,2,65,0,0
177558,-111.111111111111,4,2,1,65,0,0
177669,-111.111111111111,4,2,2,65,0,0
178891,-111.111111111111,4,2,1,65,0,0
180447,-111.111111111111,4,2,3,65,0,0
180669,-111.111111111111,4,2,4,65,0,0
180891,-111.111111111111,4,2,3,65,0,0
181113,-111.111111111111,4,2,1,65,0,0
181336,-111.111111111111,4,2,3,65,0,0
181558,-111.111111111111,4,2,4,65,0,0
181780,-111.111111111111,4,2,3,65,0,0
182002,-111.111111111111,4,2,1,65,0,0
182225,-111.111111111111,4,2,3,65,0,0
182447,-111.111111111111,4,2,1,65,0,0
185336,-111.111111111111,4,2,3,65,0,0
185558,-111.111111111111,4,2,1,65,0,0
185780,-111.111111111111,4,2,3,65,0,0
186002,-111.111111111111,4,2,1,65,0,0
187558,-111.111111111111,4,2,3,65,0,0
187669,-111.111111111111,4,2,1,65,0,0
188002,-111.111111111111,4,2,3,65,0,0
188225,-111.111111111111,4,2,1,65,0,0
188891,-111.111111111111,4,2,3,65,0,0
189113,-111.111111111111,4,2,1,65,0,0
189336,-111.111111111111,4,2,3,65,0,0
189558,-111.111111111111,4,2,4,65,0,0
189780,-111.111111111111,4,2,3,65,0,0
190002,-111.111111111111,4,2,1,65,0,0
190225,-111.111111111111,4,2,3,65,0,0
190447,-111.111111111111,4,2,4,65,0,0
190669,-111.111111111111,4,2,3,65,0,0
190891,-111.111111111111,4,2,1,65,0,0
192002,-111.111111111111,4,2,3,65,0,0
192225,-111.111111111111,4,2,1,65,0,0
192891,-111.111111111111,4,2,3,65,0,0
193113,-111.111111111111,4,2,1,65,0,0
194891,-333.333333333333,4,2,1,50,0,0
196669,-90.9090909090909,4,2,1,80,0,1
197002,-90.9090909090909,4,2,99,80,0,1
197113,-90.9090909090909,4,2,1,80,0,1
197447,-90.9090909090909,4,2,99,80,0,1
197558,-90.9090909090909,4,2,1,80,0,1
197891,-90.9090909090909,4,2,99,80,0,1
198002,-90.9090909090909,4,2,1,80,0,1
200558,-90.9090909090909,4,2,99,80,0,1
200669,-90.9090909090909,4,2,1,80,0,1
201002,-90.9090909090909,4,2,99,80,0,1
201113,-90.9090909090909,4,2,1,80,0,1
201447,-90.9090909090909,4,2,99,80,0,1
201558,-90.9090909090909,4,2,1,80,0,1
204113,-90.9090909090909,4,2,99,80,0,1
204225,-90.9090909090909,4,2,1,80,0,1
204558,-90.9090909090909,4,2,99,80,0,1
204669,-90.9090909090909,4,2,1,80,0,1
205002,-90.9090909090909,4,2,99,80,0,1
205113,-90.9090909090909,4,2,1,80,0,1
211225,-90.9090909090909,4,2,99,80,0,1
211336,-90.9090909090909,4,2,1,80,0,1
211669,-90.9090909090909,4,2,99,80,0,1
211780,-90.9090909090909,4,2,1,80,0,1
212113,-90.9090909090909,4,2,99,80,0,1
212225,-90.9090909090909,4,2,1,80,0,1
214780,-90.9090909090909,4,2,99,80,0,1
214891,-90.9090909090909,4,2,1,80,0,1
215225,-90.9090909090909,4,2,99,80,0,1
215336,-90.9090909090909,4,2,1,80,0,1
215669,-90.9090909090909,4,2,99,80,0,1
215780,-90.9090909090909,4,2,1,80,0,1
218336,-90.9090909090909,4,2,99,80,0,1
218447,-90.9090909090909,4,2,1,80,0,1
218780,-90.9090909090909,4,2,99,80,0,1
218891,-90.9090909090909,4,2,1,80,0,1
219225,-90.9090909090909,4,2,99,80,0,1
219336,-90.9090909090909,4,2,1,80,0,1
224447,-90.9090909090909,4,2,2,80,0,1
224669,-90.9090909090909,4,2,1,80,0,1
224891,-90.9090909090909,4,2,2,80,0,1
225113,-111.111111111111,4,2,1,80,0,0
227113,-111.111111111111,4,2,3,80,0,0
227336,-111.111111111111,4,2,1,80,0,0
227558,-111.111111111111,4,2,3,80,0,0
228225,-111.111111111111,4,2,1,80,0,0
230669,-111.111111111111,4,2,3,80,0,0
230891,-111.111111111111,4,2,1,80,0,0
231113,-111.111111111111,4,2,3,80,0,0
231780,-111.111111111111,4,2,1,80,0,0
234225,-111.111111111111,4,2,3,80,0,0
234447,-111.111111111111,4,2,1,80,0,0
234669,-111.111111111111,4,2,3,80,0,0
235336,-111.111111111111,4,2,1,80,0,0
237558,-121.951219512195,4,2,1,80,0,0
237891,-121.951219512195,4,2,2,80,0,0
238447,-121.951219512195,4,2,1,80,0,0
238558,-121.951219512195,4,2,2,80,0,0
239336,-333.333333333333,4,2,1,80,0,0
239780,-333.333333333333,4,2,1,70,0,0
240225,-333.333333333333,4,2,1,60,0,0
240669,-333.333333333333,4,2,1,50,0,0
241113,-333.333333333333,4,2,1,40,0,0
241558,-333.333333333333,4,2,1,30,0,0
242002,-333.333333333333,4,2,1,20,0,0
242447,-333.333333333333,4,2,99,10,0,0

[Colours]
Combo1 : 231,234,159
Combo2 : 241,131,191
Combo3 : 104,162,204

[HitObjects]
421,325,669,5,0,0:0:0:0:
421,325,1114,6,0,B|440:250|440:250|362:256,1,152.999995330811,8|8,0:0|0:1,0:0:0:0:
300,297,1780,1,2,0:0:0:0:
300,297,1891,2,0,P|287:257|299:218,1,76.4999976654053,8|8,0:0|0:0,0:0:0:0:
315,191,2225,2,0,L|268:195,2,38.2499988327027,2|8|8,0:0|0:0|0:1,0:0:0:0:
285,120,2669,2,0,L|238:124,2,38.2499988327027,2|8|0,0:0|0:0|0:0,0:0:0:0:
312,92,3002,1,8,0:1:0:0:
312,92,3113,1,8,0:0:0:0:
459,137,3558,6,0,L|239:123,1,212.5,2|2,0:0|0:0,0:0:0:0:
181,163,4225,2,0,P|153:180|69:155,1,114.749996498108
55,132,4669,6,0,B|63:249,1,114.749996498108,8|0,0:0|0:0,0:0:0:0:
75,281,5113,2,2,P|78:260|119:224,1,68.8500016809082,2|0,0:0|0:0,0:1:0:0:
152,292,5669,1,8,0:0:0:0:
152,292,5780,2,0,L|236:289,1,76.4999976654053,2|8,0:0|0:1,0:0:0:0:
303,305,6225,2,0,L|305:250,2,38.2499988327027,2|0|0,0:0|0:0|0:0,0:0:0:0:
328,333,6558,1,8,0:1:0:0:
328,333,6669,1,8,0:0:0:0:
401,307,6891,6,0,P|361:298|438:250,1,212.5,0|2,0:0|0:0,0:0:0:0:
256,192,7447,12,12,8225,0:0:0:0:
393,261,8669,6,0,L|211:252,1,170,8|8,0:1|0:0,0:0:0:0:
163,192,9336,1,2,0:0:0:0:
163,192,9447,2,0,P|184:174|217:170,1,42.5,0|8,0:0|0:1,0:0:0:0:
223,252,9780,2,0,L|313:245,1,85,2|8,0:0|0:0,0:0:0:0:
391,278,10225,1,10,0:1:0:0:
391,278,10336,1,2,0:0:0:0:
391,278,10447,1,8,0:1:0:0:
307,290,10669,2,0,L|134:268,1,170,10|10,0:1|0:1,0:0:0:0:
53,265,11336,2,0,P|54:294|86:337,1,85,8|2,0:1|0:0,0:0:0:0:
222,260,11780,6,0,L|127:269,1,85,8|2,0:0|0:0,0:0:0:0:
100,190,12225,2,0,L|280:214,1,170,8|8,0:1|0:0,0:0:0:0:
340,257,12891,1,2,0:0:0:0:
340,257,13002,2,0,P|361:240|389:235,1,42.5,0|8,0:0|0:1,0:0:0:0:
444,186,13336,2,0,P|404:191|298:111,1,170,2|10,0:0|0:1,0:0:0:0:
383,98,14002,1,8,0:1:0:0:
298,85,14225,1,10,0:1:0:0:
298,85,14336,1,0,0:0:0:0:
298,85,14447,2,0,L|205:92,3,85,8|10|8|2,0:0|0:1|0:1|0:0,0:0:0:0:
58,118,15336,6,0,L|51:33,1,85,8|2,0:0|0:0,0:0:0:0:
128,70,15780,2,0,L|297:84,1,170,8|8,0:1|0:0,0:0:0:0:
364,136,16447,1,2,0:0:0:0:
364,136,16558,2,0,P|345:152|310:154,1,42.5,0|8,0:0|0:1,0:0:0:0:
257,202,16891,2,0,P|230:177|172:169,1,85,2|8,0:0|0:0,0:0:0:0:
106,203,17336,1,10,0:1:0:0:
106,203,17447,1,2,0:0:0:0:
106,203,17558,1,8,0:1:0:0:
13,172,17780,2,0,L|197:166,1,170,10|10,0:1|0:1,0:0:0:0:
219,243,18447,2,0,L|123:246,1,85,8|2,0:1|0:0,0:0:0:0:
253,314,18891,6,0,P|282:296|300:240,1,85,8|2,0:0|0:0,0:0:0:0:
328,164,19336,2,0,L|349:337,1,170,8|8,0:1|0:0,0:0:0:0:
426,366,20002,1,2,0:0:0:0:
426,366,20113,2,0,L|433:319,1,42.5,0|8,0:0|0:1,0:0:0:0:
499,272,20447,2,0,P|448:284|339:236,1,170,2|10,0:0|0:1,0:0:0:0:
219,248,21113,1,8,0:1:0:0:
281,302,21336,2,0,P|232:285|115:326,1,170,2|10,0:0|0:1,0:0:0:0:
83,243,22002,2,0,L|72:335,2,85,8|2|6,0:1|0:0|0:1,0:0:0:0:
61,105,22891,6,0,L|83:249,1,139.400002127075,8|8,0:3|0:0,0:0:0:0:
33,302,23558,2,0,P|51:315|76:317,2,34.8500005317688,2|0|8,0:0|0:0|0:3,0:0:0:0:
82,242,24002,2,2,L|166:248,1,69.7000010635376,2|8,0:0|0:0,0:1:0:0:
221,214,24447,2,0,L|215:172,2,34.8500005317688,2|0|8,0:0|0:0|0:3,0:0:0:0:
296,225,24891,2,2,L|284:299,1,69.7000010635376,2|0,0:0|0:0,0:1:0:0:
342,360,25336,1,2,0:0:0:0:
342,360,25447,1,2,0:0:0:0:
342,360,25558,1,10,0:3:0:0:
409,323,25780,1,2,0:0:0:0:
498,359,26002,6,0,L|354:338,1,139.400002127075,10|8,0:1|0:3,0:0:0:0:
319,273,26669,2,0,P|299:284|290:304,2,34.8500005317688,2|8|8,0:0|0:0|0:0,0:0:0:0:
395,270,27113,2,0,L|388:186,1,69.7000010635376,2|8,0:0|0:3,0:0:0:0:
449,152,27558,2,2,P|414:126|375:128,1,69.7000010635376,8|8,0:1|0:0,0:1:0:0:
324,83,28002,2,0,P|344:61|362:54,2,34.8500005317688,2|0|8,0:0|0:0|0:3,0:0:0:0:
324,159,28447,2,2,L|245:154,1,69.7000010635376,8|8,0:1|0:0,0:1:0:0:
221,173,28780,1,0,0:0:0:0:
221,173,28891,1,2,0:0:0:0:
157,129,29113,1,8,0:3:0:0:
94,84,29336,1,2,0:0:0:0:
14,114,29558,6,0,L|157:99,1,139.400002127075,10|8,0:1|0:3,0:0:0:0:
220,62,30225,2,0,P|261:63|291:89,1,69.7000010635376,2|8,0:0|0:0,0:0:0:0:
271,154,30669,2,0,L|277:193,2,34.8500005317688,2|0|8,0:0|0:0|0:3,0:0:0:0:
342,127,31113,2,2,L|424:134,1,69.7000010635376,2|8,0:0|0:0,0:1:0:0:
474,176,31558,2,0,L|511:165,2,34.8500005317688,2|0|8,0:0|0:0|0:3,0:0:0:0:
404,208,32002,2,2,P|394:228|401:284,1,69.7000010635376,2|8,0:0|0:0,0:1:0:0:
444,346,32447,1,2,0:0:0:0:
444,346,32558,1,2,0:0:0:0:
444,346,32669,1,8,0:3:0:0:
373,315,32891,1,2,0:0:0:0:
303,283,33113,6,0,L|163:296,1,139.400002127075,10|8,0:1|0:3,0:0:0:0:
99,337,33780,2,0,P|89:355|72:366,2,34.8500005317688,2|0|8,0:0|0:0|0:0,0:0:0:0:
29,304,34225,2,0,L|38:227,1,69.7000010635376,2|8,0:0|0:3,0:0:0:0:
103,196,34669,2,2,L|94:126,1,69.7000010635376,2|8,0:0|0:0,0:1:0:0:
66,55,35113,2,0,L|29:48,2,34.8500005317688,2|0|8,0:0|0:0|0:3,0:0:0:0:
141,68,35558,5,2,0:0:0:0:
224,119,35780,1,8,0:0:0:0:
122,169,36002,1,2,0:0:0:0:
122,169,36113,1,8,0:0:0:0:
122,169,36225,1,8,0:0:0:0:
144,246,36447,1,8,0:0:0:0:
164,344,36669,6,0,B|179:248|179:248|241:278,1,152.999995330811,12|8,0:0|0:3,0:0:0:0:
287,333,37336,1,2,0:0:0:0:
287,333,37447,2,0,P|302:305|305:292,1,38.2499988327027,0|0,0:0|0:0,0:0:0:0:
289,223,37780,1,8,0:0:0:0:
347,296,38002,2,0,L|511:282,1,152.999995330811,8|8,0:3|0:0,0:0:0:0:
433,243,38669,2,0,P|411:218|406:166,1,76.4999976654053,2|8,0:0|0:3,0:0:0:0:
435,106,39113,1,2,0:0:0:0:
435,106,39225,2,0,L|476:109,1,38.2499988327027,0|0,0:0|0:0,0:0:0:0:
375,46,39558,2,0,L|289:76,1,76.4999976654053,8|8,0:0|0:3,0:0:0:0:
288,106,39891,1,8,0:0:0:0:
288,106,40002,1,8,0:0:0:0:
206,19,40225,6,0,P|243:85|223:157,2,152.999995330811,8|8|0,0:0|0:3|0:0,0:0:0:0:
141,79,41336,1,8,0:0:0:0:
141,79,41447,2,0,L|134:123,1,38.2499988327027,0|8,0:0|0:3,0:0:0:0:
152,199,41780,1,2,0:0:0:0:
41,205,42002,2,0,L|116:215,3,76.4999976654053,8|2|8|2,0:0|0:0|0:3|0:0,0:0:0:0:
86,303,42891,2,0,L|239:282,1,152.999995330811,0|8,0:0|0:3,0:0:0:0:
382,300,43558,1,8,0:0:0:0:
289,343,43780,6,0,L|445:348,1,152.999995330811,8|8,0:0|0:3,0:0:0:0:
386,304,44447,1,2,0:0:0:0:
386,304,44558,2,0,P|377:282|375:263,1,38.2499988327027,0|0,0:0|0:0,0:0:0:0:
380,191,44891,1,8,0:0:0:0:
295,253,45113,2,0,L|141:271,1,152.999995330811,8|8,0:3|0:0,0:0:0:0:
105,337,45780,2,0,P|81:318|70:260,1,76.4999976654053,2|8,0:0|0:3,0:0:0:0:
102,207,46225,1,2,0:0:0:0:
102,207,46336,2,0,L|64:196,1,38.2499988327027,0|0,0:0|0:0,0:0:0:0:
143,270,46669,2,0,L|229:260,1,76.4999976654053,8|8,0:0|0:3,0:0:0:0:
294,249,47113,1,2,0:0:0:0:
381,325,47336,6,0,B|326:255|326:255|364:196,1,152.999995330811,8|8,0:0|0:3,0:0:0:0:
436,195,48002,1,2,0:0:0:0:
364,166,48225,2,0,L|276:177,1,76.4999976654053,0|8,0:0|0:0,0:0:0:0:
272,194,48558,1,0,0:0:0:0:
272,194,48669,1,8,0:3:0:0:
183,165,48891,1,2,0:0:0:0:
68,131,49113,6,0,B|139:196|139:196|139:202|139:202|145:201|145:201|173:227|173:227|178:228|178:228|179:234|179:234|201:254,1,178.499994552612,12|0,0:0|0:0,0:0:0:0:
285,291,50891,6,2,P|222:282|149:342,1,141.5250034552,12|0,0:0|0:0,0:1:0:0:
137,347,51336,2,2,B|103:306|103:306|121:196,1,141.5250034552,8|0,0:1|0:0,0:1:0:0:
149,210,51780,2,2,L|120:95,1,94.3500023034669,8|0,0:0|0:0,0:1:0:0:
103,34,52225,5,8,0:1:0:0:
222,84,52447,2,0,L|29:77,1,188.700004606934,2|2,0:0|0:0,0:0:0:0:
17,160,53113,2,0,P|59:176|82:237,1,94.3500023034669,8|2,0:1|0:0,0:0:0:0:
75,253,53447,1,2,0:0:0:0:
75,253,53558,1,8,0:0:0:0:
47,333,53780,1,2,0:0:0:0:
160,374,54002,2,0,L|277:362,1,94.3500023034669,8|2,0:1|0:0,0:0:0:0:
385,287,54447,6,2,B|242:273,1,141.5250034552,8|0,0:0|0:0,0:1:0:0:
211,272,54891,2,2,P|256:218|235:137,1,141.5250034552,8|0,0:1|0:0,0:1:0:0:
215,139,55336,2,2,L|234:29,1,94.3500023034669,8|0,0:0|0:0,0:1:0:0:
321,16,55780,5,8,0:1:0:0:
458,74,56002,2,0,P|414:45|300:106,1,188.700004606934,2|2,0:0|0:0,0:0:0:0:
463,161,56669,1,8,0:1:0:0:
393,130,56891,1,2,0:0:0:0:
393,130,57002,1,2,0:0:0:0:
393,130,57113,1,8,0:0:0:0:
419,249,57336,2,0,L|410:139,2,94.3500023034669,2|8|2,0:0|0:1|0:0,0:0:0:0:
291,367,58002,6,2,B|303:293|303:293|233:304,1,141.5250034552,12|0,0:0|0:0,0:1:0:0:
215,328,58447,2,2,P|169:358|74:344,1,141.5250034552,8|0,0:1|0:0,0:1:0:0:
61,328,58891,2,2,L|72:229,1,94.3500023034669,8|0,0:0|0:0,0:1:0:0:
82,149,59336,5,8,0:1:0:0:
102,231,59558,1,2,0:0:0:0:
163,172,59780,1,8,0:0:0:0:
284,196,60002,2,0,L|182:203,1,94.3500023034669,2|8,0:0|0:1,0:0:0:0:
128,143,60447,1,2,0:0:0:0:
128,143,60558,1,2,0:0:0:0:
128,143,60669,1,8,0:0:0:0:
29,206,60891,2,0,P|22:244|56:310,1,94.3500023034669,2|8,0:0|0:1,0:0:0:0:
104,240,61336,1,2,0:0:0:0:
278,258,61558,6,0,B|166:212|166:212|96:244,1,188.700004606934,8|8,0:0|0:1,0:0:0:0:
175,306,62225,1,2,0:0:0:0:
175,306,62336,1,2,0:0:0:0:
175,306,62447,1,8,0:0:0:0:
243,359,62669,2,0,L|350:346,1,94.3500023034669,2|8,0:0|0:1,0:0:0:0:
420,334,63113,1,2,0:0:0:0:
410,213,63336,6,0,P|392:262|406:321,2,94.3500023034669,8|2|8,0:0|0:0|0:1,0:0:0:0:
490,313,64002,2,0,P|508:264|494:205,1,94.3500023034669,2|8,0:0|0:0,0:0:0:0:
459,145,64447,2,0,L|353:155,2,94.3500023034669,2|8|2,0:0|0:1|0:0,0:0:0:0:
397,302,65113,6,2,L|256:285,1,141.5250034552,12|0,0:0|0:0,0:1:0:0:
226,262,65558,2,2,P|160:257|106:319,1,141.5250034552,8|0,0:1|0:0,0:1:0:0:
81,331,66002,2,2,L|59:219,1,94.3500023034669,8|0,0:0|0:0,0:1:0:0:
49,154,66447,5,8,0:1:0:0:
99,53,66669,2,0,L|62:238,1,188.700004606934,2|2,0:0|0:0,0:0:0:0:
49,154,67336,2,0,P|103:161|138:198,1,94.3500023034669,8|2,0:1|0:0,0:0:0:0:
140,218,67669,1,0,0:0:0:0:
140,218,67780,1,8,0:0:0:0:
216,180,68002,1,2,0:0:0:0:
280,236,68225,2,0,L|387:228,1,94.3500023034669,8|2,0:1|0:0,0:0:0:0:
497,194,68669,6,2,P|427:197|373:124,1,141.5250034552,8|0,0:0|0:0,0:1:0:0:
359,123,69113,2,2,L|342:298,1,141.5250034552,8|0,0:1|0:0,0:1:0:0:
319,283,69558,2,2,L|309:175,1,94.3500023034669,8|0,0:0|0:0,0:1:0:0:
268,115,70002,5,8,0:1:0:0:
329,25,70225,2,0,B|267:116|267:116|209:48,1,188.700004606934,2|2,0:0|0:0,0:0:0:0:
128,158,70891,1,8,0:1:0:0:
95,79,71113,1,2,0:0:0:0:
95,79,71225,1,0,0:0:0:0:
95,79,71336,1,8,0:0:0:0:
36,144,71558,2,0,P|24:189|43:231,2,94.3500023034669,2|8|2,0:0|0:1|0:0,0:0:0:0:
185,86,72225,6,2,L|358:94,1,141.5250034552,12|0,0:0|0:0,0:1:0:0:
358,72,72669,2,2,P|406:39|498:76,1,141.5250034552,8|0,0:1|0:0,0:1:0:0:
500,90,73113,2,2,L|507:197,1,94.3500023034669,8|0,0:0|0:0,0:1:0:0:
489,267,73558,5,8,0:1:0:0:
416,310,73780,1,2,0:0:0:0:
338,344,74002,1,8,0:0:0:0:
408,272,74225,2,0,L|297:260,1,94.3500023034669,2|8,0:0|0:1,0:0:0:0:
230,247,74669,1,2,0:0:0:0:
230,247,74780,1,2,0:0:0:0:
230,247,74891,1,8,0:0:0:0:
122,312,75113,2,0,P|82:341|20:336,1,94.3500023034669,2|8,0:0|0:1,0:0:0:0:
52,258,75558,1,2,0:0:0:0:
76,83,75780,6,0,B|28:194|28:194|59:279,1,188.700004606934,8|8,0:0|0:1,0:0:0:0:
119,203,76447,1,2,0:0:0:0:
119,203,76558,1,0,0:0:0:0:
119,203,76669,1,8,0:0:0:0:
181,145,76891,2,0,L|286:155,1,94.3500023034669,2|8,0:0|0:1,0:0:0:0:
359,167,77336,1,2,0:0:0:0:
433,263,77558,6,0,L|383:172,2,94.3500023034669,8|2|8,0:0|0:0|0:1,0:0:0:0:
329,360,78225,2,0,L|339:247,1,94.3500023034669,2|8,0:0|0:0,0:0:0:0:
243,302,78669,1,8,0:0:0:0:
243,302,78780,1,8,0:0:0:0:
243,302,78891,1,8,0:0:0:0:
153,329,79113,1,8,0:0:0:0:
153,329,79224,1,8,0:0:0:0:
153,329,79335,1,12,0:0:0:0:
412,97,93558,5,6,0:1:0:0:
273,85,94002,2,0,L|424:97,1,139.400002127075,8|8,0:3|0:0,0:0:0:0:
478,56,94669,2,0,P|451:30|428:24,2,34.8500005317688,2|0|8,0:0|0:0|0:3,0:0:0:0:
477,132,95113,2,2,L|470:212,1,69.7000010635376,2|8,0:0|0:0,0:1:0:0:
480,277,95558,2,0,L|508:309,2,34.8500005317688,2|0|8,0:0|0:0|0:3,0:0:0:0:
410,245,96002,2,2,P|375:249|346:268,1,69.7000010635376,2|8,0:0|0:0,0:1:0:0:
306,334,96447,1,2,0:0:0:0:
306,334,96558,1,2,0:0:0:0:
306,334,96669,1,10,0:3:0:0:
239,281,96891,1,2,0:0:0:0:
87,320,97113,6,0,B|173:289|173:289|233:307,1,139.400002127075,10|8,0:1|0:3,0:0:0:0:
177,368,97780,2,0,L|136:383,2,34.8500005317688,2|0|8,0:0|0:0|0:0,0:0:0:0:
219,303,98225,2,0,L|229:219,1,69.7000010635376,2|8,0:0|0:3,0:0:0:0:
255,162,98669,2,0,L|263:231,1,69.7000010635376,10|8,0:1|0:0,0:0:0:0:
323,277,99113,2,0,P|337:254|340:240,2,34.8500005317688,2|0|8,0:0|0:0|0:3,0:0:0:0:
316,353,99558,2,0,P|365:342|387:313,1,69.7000010635376,10|8,0:1|0:0,0:0:0:0:
406,303,99891,1,0,0:0:0:0:
406,303,100002,1,2,0:0:0:0:
389,227,100225,1,8,0:3:0:0:
373,151,100447,1,2,0:0:0:0:
429,81,100669,6,0,L|408:230,1,139.400002127075,10|8,0:1|0:3,0:0:0:0:
373,151,101336,2,0,L|330:161,2,34.8500005317688,2|0|8,0:0|0:0|0:0,0:0:0:0:
337,83,101780,2,0,L|253:104,1,69.7000010635376,2|8,0:0|0:3,0:0:0:0:
235,168,102225,2,2,P|200:138|192:94,1,69.7000010635376,2|8,0:0|0:0,0:1:0:0:
216,43,102669,2,0,L|224:-1,2,34.8500005317688,2|0|8,0:0|0:0|0:3,0:0:0:0:
141,59,103113,2,2,L|55:49,1,69.7000010635376,2|8,0:0|0:0,0:1:0:0:
12,99,103558,1,2,0:0:0:0:
12,99,103669,1,2,0:0:0:0:
12,99,103780,1,10,0:3:0:0:
66,152,104002,1,2,0:0:0:0:
76,274,104225,6,0,L|93:132,1,139.400002127075,10|8,0:1|0:3,0:0:0:0:
161,102,104891,2,0,P|145:77|126:66,2,34.8500005317688,2|0|8,0:0|0:0|0:0,0:0:0:0:
159,180,105336,2,0,P|201:170|228:142,1,69.7000010635376,2|8,0:0|0:3,0:0:0:0:
241,79,105780,2,2,P|275:83|303:103,1,69.7000010635376,2|8,0:0|0:0,0:1:0:0:
331,175,106225,2,0,L|324:221,2,34.8500005317688,2|0|8,0:0|0:0|0:3,0:0:0:0:
380,116,106669,5,0,0:0:0:0:
418,215,106891,1,8,0:0:0:0:
296,198,107113,1,2,0:0:0:0:
296,198,107225,1,8,0:0:0:0:
296,198,107336,1,8,0:0:0:0:
277,272,107558,1,8,0:0:0:0:
288,368,107780,6,0,B|233:282|233:282|172:318,1,152.999995330811,12|8,0:0|0:3,0:0:0:0:
121,358,108447,1,2,0:0:0:0:
121,358,108558,2,0,L|50:348,1,38.2499988327027,0|0,0:0|0:0,0:0:0:0:
6,317,108891,1,8,0:0:0:0:
61,384,109113,2,0,L|47:211,1,152.999995330811,8|8,0:3|0:0,0:0:0:0:
8,157,109780,2,0,P|44:145|91:159,1,76.4999976654053,2|8,0:0|0:3,0:0:0:0:
147,204,110225,1,2,0:0:0:0:
147,204,110336,2,0,L|137:249,1,38.2499988327027,0|0,0:0|0:0,0:0:0:0:
222,237,110669,2,0,L|314:225,1,76.4999976654053,8|8,0:0|0:3,0:0:0:0:
333,249,111002,1,8,0:0:0:0:
333,249,111113,1,8,0:0:0:0:
388,134,111336,6,0,L|369:295,2,152.999995330811,8|8|0,0:0|0:3|0:0,0:0:0:0:
467,104,112447,1,8,0:0:0:0:
467,104,112558,2,0,L|473:152,1,38.2499988327027,0|8,0:0|0:3,0:0:0:0:
479,225,112891,1,2,0:0:0:0:
440,299,113113,2,0,L|508:243,3,76.4999976654053,8|2|8|2,0:0|0:0|0:3|0:0,0:0:0:0:
390,224,114002,2,0,L|227:214,1,152.999995330811,0|8,0:0|0:3,0:0:0:0:
220,360,114669,1,8,0:0:0:0:
128,315,114891,6,0,L|280:305,1,152.999995330811,8|8,0:0|0:3,0:0:0:0:
355,343,115558,1,2,0:0:0:0:
355,343,115669,2,0,L|361:295,1,38.2499988327027,0|0,0:0|0:0,0:0:0:0:
376,222,116002,1,8,0:0:0:0:
459,235,116225,2,0,P|441:167|354:140,1,152.999995330811,8|8,0:3|0:0,0:0:0:0:
297,93,116891,2,0,P|345:57|377:58,1,76.4999976654053,2|8,0:0|0:3,0:0:0:0:
374,142,117336,1,2,0:0:0:0:
374,142,117447,2,0,L|381:192,1,38.2499988327027,0|0,0:0|0:0,0:0:0:0:
295,179,117780,2,0,L|277:266,1,76.4999976654053,8|8,0:0|0:3,0:0:0:0:
263,336,118225,1,2,0:0:0:0:
177,241,118447,6,0,B|225:315|225:315|167:362,1,152.999995330811,8|8,0:0|0:3,0:0:0:0:
110,301,119113,1,2,0:0:0:0:
28,323,119336,2,0,P|30:274|50:241,1,76.4999976654053,0|8,0:0|0:0,0:0:0:0:
77,226,119669,1,0,0:0:0:0:
77,226,119780,1,8,0:3:0:0:
52,145,120002,1,2,0:0:0:0:
106,56,120225,6,0,B|90:150|90:150|85:154|85:154|89:158|89:158|82:196|82:196|84:201|84:201|80:205|80:205|75:234,1,178.499994552612,12|0,0:0|0:0,0:0:0:0:
113,325,122002,6,2,P|95:262|160:256,1,141.5250034552,12|0,0:0|0:0,0:1:0:0:
176,275,122447,2,2,L|348:261,1,141.5250034552,8|0,0:1|0:0,0:1:0:0:
329,294,122891,2,2,L|432:312,1,94.3500023034669,8|0,0:0|0:0,0:1:0:0:
505,329,123336,5,8,0:1:0:0:
364,377,123558,2,0,P|337:308|430:224,1,188.700004606934,2|2,0:0|0:0,0:0:0:0:
490,235,124225,2,0,L|505:331,1,94.3500023034669,8|2,0:1|0:0,0:0:0:0:
497,360,124558,1,0,0:0:0:0:
497,360,124669,1,8,0:0:0:0:
421,310,124891,1,2,0:0:0:0:
313,384,125113,2,0,L|216:370,1,94.3500023034669,8|2,0:1|0:0,0:0:0:0:
189,259,125558,6,2,L|25:276,1,141.5250034552,8|0,0:0|0:0,0:1:0:0:
29,300,126002,2,2,P|-3:223|41:165,1,141.5250034552,8|0,0:1|0:0,0:1:0:0:
52,162,126447,2,2,L|67:57,1,94.3500023034669,8|0,0:0|0:0,0:1:0:0:
142,121,126891,5,8,0:1:0:0:
312,122,127113,2,0,B|249:81|249:81|139:123,1,188.700004606934,2|2,0:0|0:0,0:0:0:0:
189,248,127780,1,8,0:1:0:0:
242,182,128002,1,2,0:0:0:0:
242,182,128113,1,2,0:0:0:0:
242,182,128225,1,8,0:0:0:0:
361,199,128447,2,0,L|241:211,2,94.3500023034669,2|8|2,0:0|0:1|0:0,0:0:0:0:
482,160,129113,6,2,P|418:168|356:97,1,141.5250034552,12|0,0:0|0:0,0:1:0:0:
357,87,129558,2,2,L|198:106,1,141.5250034552,8|0,0:1|0:0,0:1:0:0:
195,129,130002,2,2,L|86:117,1,94.3500023034669,8|0,0:0|0:0,0:1:0:0:
16,109,130447,5,8,0:1:0:0:
96,82,130669,1,2,0:0:0:0:
32,25,130891,1,8,0:0:0:0:
158,13,131113,2,0,L|49:1,1,94.3500023034669,2|8,0:0|0:1,0:0:0:0:
24,116,131558,1,2,0:0:0:0:
24,116,131669,1,2,0:0:0:0:
24,116,131780,1,8,0:0:0:0:
93,163,132002,2,0,P|104:207|77:263,1,94.3500023034669,2|8,0:0|0:1,0:0:0:0:
135,322,132447,1,2,0:0:0:0:
9,275,132669,6,0,L|213:264,1,188.700004606934,8|8,0:0|0:1,0:0:0:0:
143,328,133336,1,2,0:0:0:0:
143,328,133447,1,0,0:0:0:0:
143,328,133558,1,8,0:0:0:0:
223,346,133780,2,0,L|332:340,1,94.3500023034669,2|8,0:0|0:1,0:0:0:0:
402,337,134225,1,2,0:0:0:0:
460,234,134447,6,0,P|465:280|440:323,2,94.3500023034669,8|2|8,0:0|0:0|0:1,0:0:0:0:
355,302,135113,2,0,P|350:256|375:213,1,94.3500023034669,2|8,0:0|0:0,0:0:0:0:
457,156,135558,2,0,L|363:168,2,94.3500023034669,2|8|2,0:0|0:1|0:0,0:0:0:0:
372,215,136225,6,0,L|232:206,1,114.749996498108,12|2,0:0|0:1,0:0:0:0:
235,225,136669,1,8,0:1:0:0:
163,178,136891,2,2,L|153:259,1,76.4999976654053,0|8,0:0|0:0,0:1:0:0:
63,148,139780,6,0,P|121:163|157:102,1,114.749996498108,8|2,0:0|0:1,0:0:0:0:
151,99,140225,1,8,0:1:0:0:
76,60,140447,2,2,L|-19:73,1,76.4999976654053,0|8,0:0|0:0,0:1:0:0:
288,292,143336,6,0,B|297:210|297:210|333:233,1,114.749996498108,12|2,0:0|0:1,0:0:0:0:
346,246,143780,1,8,0:1:0:0:
413,298,144002,2,2,P|452:298|495:262,1,76.4999976654053,0|8,0:0|0:0,0:1:0:0:
23,252,146891,6,2,L|83:141,1,114.749996498108,8|2,0:0|0:1,0:1:0:0:
102,145,147336,1,8,0:1:0:0:
176,184,147558,2,2,P|214:164|270:180,1,76.4999976654053,0|8,0:0|0:0,0:1:0:0:
265,187,147891,2,2,L|275:270,1,76.4999976654053,0|0,0:0|0:0,0:1:0:0:
265,287,148225,1,10,0:1:0:0:
352,222,148447,1,0,0:0:0:0:
352,222,148558,2,0,L|403:230,1,38.2499988327027,2|8,0:1|0:0,0:0:0:0:
475,245,148891,6,0,B|361:308|272:251|279:126|96:164|49:263,1,458.999985992432,2|8,0:1|0:0,0:0:0:0:
137,274,150447,6,0,L|106:95,1,152.999995330811,12|8,0:0|0:1,0:0:0:0:
205,77,151113,1,2,0:0:0:0:
205,77,151225,2,0,L|189:139,1,38.2499988327027,0|8,0:0|0:0,0:0:0:0:
238,188,151558,1,2,0:0:0:0:
322,96,151780,1,8,0:1:0:0:
265,155,152002,6,0,P|321:123|422:149,1,152.999995330811,2|2,0:0|0:0,0:0:0:0:
458,245,152669,2,0,L|444:325,1,76.4999976654053,8|2,0:1|0:0,0:0:0:0:
370,267,153113,1,8,0:0:0:0:
283,287,153336,1,2,0:0:0:0:
180,268,153558,2,0,L|272:260,1,76.4999976654053,8|2,0:1|0:0,0:0:0:0:
160,355,154002,6,0,P|140:291|59:275,1,152.999995330811,8|8,0:0|0:1,0:0:0:0:
90,191,154669,1,2,0:0:0:0:
90,191,154780,2,0,L|138:186,1,38.2499988327027,0|8,0:0|0:0,0:0:0:0:
211,179,155113,1,2,0:0:0:0:
104,108,155336,1,8,0:1:0:0:
234,73,155558,2,0,B|69:88,1,152.999995330811,2|2,0:0|0:0,0:0:0:0:
20,169,156225,2,0,P|76:179|98:203,1,76.4999976654053,8|2,0:1|0:0,0:0:0:0:
39,321,156669,2,0,L|30:226,2,76.4999976654053,8|0|8,0:0|0:0|0:1,0:0:0:0:
113,268,157336,1,2,0:0:0:0:
265,279,157558,6,0,L|108:267,1,152.999995330811,8|8,0:0|0:1,0:0:0:0:
184,222,158225,1,2,0:0:0:0:
184,222,158336,2,0,L|244:210,1,38.2499988327027,0|8,0:0|0:0,0:0:0:0:
304,199,158669,1,2,0:0:0:0:
458,211,158891,2,0,P|416:184|363:196,1,76.4999976654053,8|2,0:1|0:0,0:0:0:0:
386,342,159336,6,0,L|395:266,1,76.4999976654053,8|2,0:0|0:0,0:0:0:0:
237,287,159780,2,0,L|312:296,1,76.4999976654053,8|2,0:1|0:0,0:0:0:0:
164,235,160225,2,0,L|154:310,1,76.4999976654053,8|2,0:0|0:0,0:0:0:0:
3,255,160669,2,0,L|79:265,1,76.4999976654053,8|2,0:1|0:0,0:0:0:0:
203,162,161113,6,0,P|155:197|61:169,1,152.999995330811,8|8,0:0|0:1,0:0:0:0:
26,104,161780,1,2,0:0:0:0:
26,104,161891,2,0,L|34:56,1,38.2499988327027,0|8,0:0|0:0,0:0:0:0:
96,2,162225,1,2,0:0:0:0:
200,131,162447,1,8,0:1:0:0:
116,88,162669,6,0,L|297:97,1,152.999995330811,2|2,0:0|0:0,0:0:0:0:
338,146,163336,2,0,L|447:135,1,76.4999976654053,8|2,0:1|0:0,0:0:0:0:
478,75,163780,2,0,B|443:126|443:126|469:220,1,152.999995330811,8|8,0:0|0:1,0:0:0:0:
494,293,164447,1,2,0:0:0:0:
389,235,164669,5,12,0:0:0:0:
352,330,164891,2,0,L|362:254,1,76.4999976654053,2|8,0:0|0:1,0:0:0:0:
272,284,165336,2,0,B|229:329|229:329|129:283,1,152.999995330811,2|2,0:0|0:0,0:0:0:0:
89,213,166002,1,8,0:1:0:0:
4,253,166225,2,0,P|51:254|87:222,1,76.4999976654053,2|8,0:0|0:0,0:0:0:0:
182,138,166669,6,0,L|166:230,2,76.4999976654053,2|8|2,0:0|0:1|0:0,0:0:0:0:
126,39,167336,1,8,0:0:0:0:
146,123,167558,1,2,0:0:0:0:
337,117,167780,2,0,L|184:106,1,152.999995330811,8|8,0:1|0:0,0:0:0:0:
130,44,168447,5,2,0:0:0:0:
130,44,168558,2,0,L|75:55,1,38.2499988327027,0|8,0:0|0:1,0:0:0:0:
24,99,168891,2,0,P|2:158|22:198,1,76.4999976654053,2|8,0:0|0:0,0:0:0:0:
44,244,169336,1,2,0:0:0:0:
116,195,169558,1,8,0:1:0:0:
196,231,169780,2,0,L|43:244,1,152.999995330811,2|2,0:0|0:0,0:0:0:0:
121,322,170447,2,0,P|206:320|263:373,1,152.999995330811,8|8,0:1|0:0,0:0:0:0:
334,340,171113,2,0,P|348:297|396:277,1,76.4999976654053,0|8,0:0|0:1,0:0:0:0:
492,319,171558,1,2,0:0:0:0:
413,347,171780,6,0,L|426:179,1,152.999995330811,8|8,0:0|0:1,0:0:0:0:
500,117,172447,1,2,0:0:0:0:
500,117,172558,2,0,L|447:125,1,38.2499988327027,0|8,0:0|0:0,0:0:0:0:
286,159,172891,2,0,L|372:142,1,76.4999976654053,2|8,0:0|0:1,0:0:0:0:
342,241,173336,2,0,P|280:199|196:227,1,152.999995330811,2|2,0:0|0:0,0:0:0:0:
283,354,174002,6,0,L|260:256,1,76.4999976654053,8|2,0:1|0:0,0:0:0:0:
198,337,174447,2,0,L|175:239,1,76.4999976654053,8|2,0:0|0:0,0:0:0:0:
113,324,174891,2,0,L|90:226,1,76.4999976654053,8|2,0:1|0:0,0:0:0:0:
76,167,175336,1,8,0:0:0:0:
256,192,175447,12,8,177113,0:0:0:0:
377,254,177558,6,0,L|290:246,1,76.4999976654053,2|8,0:0|0:3,0:0:0:0:
219,240,178002,2,0,L|132:232,1,76.4999976654053,8|8,0:3|0:3,0:0:0:0:
348,171,178447,1,8,0:0:0:0:
387,95,178669,5,8,0:0:0:0:
387,95,178780,1,8,0:0:0:0:
387,95,178891,2,0,P|400:174|456:140,1,152.999995330811,12|8,0:0|0:1,0:0:0:0:
466,78,179558,1,2,0:0:0:0:
374,58,179780,2,0,L|217:72,1,152.999995330811,8|8,0:0|0:1,0:0:0:0:
150,117,180447,6,0,L|139:183,2,38.2499988327027,10|2|10,0:1|0:1|0:1,0:0:0:0:
87,63,180891,2,0,L|93:25,2,38.2499988327027,10|2|10,0:1|0:1|0:1,0:0:0:0:
5,95,181336,1,10,0:1:0:0:
25,251,181558,2,0,L|15:167,3,76.4999976654053,10|10|10|10,0:1|0:1|0:1|0:1,0:0:0:0:
104,204,182447,6,2,P|155:190|232:252,1,152.999995330811,8|10,0:0|0:1,0:1:0:0:
157,282,183113,1,2,0:0:0:0:
157,282,183225,1,0,0:0:0:0:
157,282,183336,2,2,L|164:370,1,76.4999976654053,8|2,0:0|0:0,0:1:0:0:
246,334,183780,1,10,0:1:0:0:
324,305,184002,2,2,L|477:320,1,152.999995330811,2|2,0:0|0:0,0:1:0:0:
414,263,184669,6,0,P|397:217|419:170,1,76.4999976654053,8|2,0:1|0:0,0:0:0:0:
454,77,185113,1,8,0:0:0:0:
500,144,185336,2,0,L|544:150,2,38.2499988327027,10|2|10,0:1|0:1|0:1,0:0:0:0:
432,102,185780,1,10,0:1:0:0:
366,58,186002,6,2,L|204:72,1,152.999995330811,8|10,0:0|0:1,0:1:0:0:
164,139,186669,1,2,0:0:0:0:
164,139,186780,1,0,0:0:0:0:
164,139,186891,2,2,B|128:84|128:84|145:16,1,114.749996498108,8|2,0:0|0:1,0:1:0:0:
158,15,187336,1,0,0:0:0:0:
54,64,187558,6,0,L|-52:56,1,76.4999976654053,10|8,0:1|0:0,0:0:0:0:
76,149,188002,2,0,L|-30:141,1,76.4999976654053,10|8,0:1|0:1,0:0:0:0:
3,247,188447,1,2,0:0:0:0:
101,231,188669,2,0,L|-5:223,1,76.4999976654053,8|10,0:0|0:1,0:0:0:0:
65,312,189113,1,10,0:1:0:0:
129,259,189336,1,10,0:1:0:0:
143,341,189558,6,0,L|191:336,2,38.2499988327027,10|2|10,0:1|0:1|0:1,0:0:0:0:
211,260,190002,2,0,L|259:255,2,38.2499988327027,10|2|10,0:1|0:1|0:1,0:0:0:0:
305,319,190447,2,0,L|353:314,2,38.2499988327027,10|2|10,0:1|0:1|0:1,0:0:0:0:
411,272,190891,6,2,P|324:204|447:207,1,305.999990661621,8|10,0:1|0:1,0:1:0:0:
489,270,192002,1,10,0:1:0:0:
421,314,192225,2,2,L|294:302,1,114.749996498108,8|2,0:0|0:1,0:1:0:0:
289,315,192669,1,8,0:1:0:0:
212,352,192891,1,10,0:1:0:0:
137,303,193113,6,2,P|92:273|34:337,1,152.999995330811,8|8,0:0|0:1,0:1:0:0:
59,248,193780,2,0,B|105:168|105:168|81:87,1,152.999995330811,2|2,0:0|0:0,0:0:0:0:
18,55,194447,1,8,0:1:0:0:
104,85,194669,1,2,0:0:0:0:
257,80,194891,6,0,B|163:96|163:96|159:101|159:101|155:97|155:97|117:104|117:104|112:102|112:102|108:106|108:106|79:111,1,178.499994552612,4|0,0:0|0:0,0:0:0:0:
7,152,196669,6,2,P|72:144|127:220,1,140.25000428009,12|0,0:0|0:0,0:1:0:0:
109,222,197113,2,2,B|74:285|74:285|108:351,1,140.25000428009,8|0,0:1|0:0,0:1:0:0:
136,354,197558,2,2,L|243:346,1,93.5000028533936,8|0,0:0|0:0,0:1:0:0:
313,341,198002,1,8,0:1:0:0:
433,301,198225,6,0,P|368:344|360:267,1,187.000005706787,2|2,0:0|0:0,0:0:0:0:
427,218,198891,2,0,P|391:188|342:187,1,93.5000028533936,8|2,0:1|0:0,0:0:0:0:
321,200,199225,1,0,0:0:0:0:
321,200,199336,1,8,0:0:0:0:
242,229,199558,1,2,0:0:0:0:
142,167,199780,2,0,L|153:70,1,93.5000028533936,8|2,0:1|0:0,0:0:0:0:
60,142,200225,6,2,B|31:205|31:205|91:241,1,140.25000428009,8|0,0:0|0:0,0:1:0:0:
109,269,200669,2,2,L|258:257,1,140.25000428009,8|0,0:1|0:0,0:1:0:0:
266,230,201113,2,2,L|376:245,1,93.5000028533936,8|0,0:0|0:0,0:1:0:0:
441,258,201558,5,8,0:1:0:0:
471,343,201780,2,0,P|404:341|362:232,1,187.000005706787,2|2,0:0|0:0,0:0:0:0:
504,197,202447,1,8,0:1:0:0:
449,266,202669,1,2,0:0:0:0:
449,266,202780,1,2,0:0:0:0:
449,266,202891,1,8,0:0:0:0:
413,149,203113,2,0,L|404:253,2,93.5000028533936,2|8|2,0:0|0:1|0:0,0:0:0:0:
304,53,203780,6,2,B|322:120|322:120|247:142,1,140.25000428009,12|0,0:0|0:0,0:1:0:0:
233,165,204225,2,2,L|91:146,1,140.25000428009,8|0,0:1|0:0,0:1:0:0:
64,131,204669,2,2,P|31:176|48:227,1,93.5000028533936,8|0,0:0|0:0,0:1:0:0:
73,286,205113,5,8,0:1:0:0:
121,355,205336,1,2,0:0:0:0:
105,272,205558,1,8,0:0:0:0:
227,271,205780,2,0,L|113:258,1,93.5000028533936,2|8,0:0|0:1,0:0:0:0:
196,183,206225,1,2,0:0:0:0:
196,183,206336,1,2,0:0:0:0:
196,183,206447,1,8,0:0:0:0:
296,232,206669,2,0,P|280:284|294:327,1,93.5000028533936,2|8,0:0|0:1,0:0:0:0:
365,283,207113,1,2,0:0:0:0:
508,338,207336,6,0,B|467:266|467:266|354:284,1,187.000005706787,8|8,0:0|0:1,0:0:0:0:
298,328,208002,1,2,0:0:0:0:
298,328,208113,1,0,0:0:0:0:
298,328,208225,1,8,0:0:0:0:
209,295,208447,2,0,P|195:261|215:194,1,93.5000028533936,2|8,0:0|0:1,0:0:0:0:
238,129,208891,1,2,0:0:0:0:
360,112,209113,6,0,L|256:102,2,93.5000028533936,8|2|8,0:0|0:0|0:1,0:0:0:0:
377,194,209780,2,0,L|273:204,1,93.5000028533936,2|8,0:0|0:0,0:0:0:0:
342,285,210225,2,0,L|443:297,2,93.5000028533936,2|8|2,0:0|0:1|0:0,0:0:0:0:
182,347,210891,6,2,P|144:308|64:320,1,140.25000428009,12|0,0:0|0:0,0:1:0:0:
40,342,211336,2,2,B|14:296|14:296|42:199,1,140.25000428009,8|0,0:1|0:0,0:1:0:0:
68,200,211780,2,2,L|57:106,1,93.5000028533936,8|0,0:0|0:0,0:1:0:0:
104,37,212225,1,8,0:1:0:0:
219,125,212447,6,0,B|167:162|167:162|52:104,1,187.000005706787,2|2,0:0|0:0,0:0:0:0:
104,37,213113,2,0,L|205:27,1,93.5000028533936,8|2,0:1|0:0,0:0:0:0:
224,46,213447,1,0,0:0:0:0:
224,46,213558,1,8,0:0:0:0:
318,76,213780,1,2,0:0:0:0:
318,76,213891,2,0,L|307:24,1,46.7500014266968,0|8,0:0|0:1,0:0:0:0:
402,67,214225,1,2,0:0:0:0:
478,140,214447,6,2,B|411:99|411:99|395:173,1,140.25000428009,8|0,0:0|0:0,0:1:0:0:
378,185,214891,2,2,P|390:241|408:336,1,140.25000428009,8|0,0:1|0:0,0:1:0:0:
422,350,215336,2,2,L|315:338,1,93.5000028533936,8|0,0:0|0:0,0:1:0:0:
185,251,215780,5,8,0:1:0:0:
268,276,216002,2,0,L|66:306,1,187.000005706787,2|2,0:0|0:0,0:0:0:0:
26,241,216669,2,0,P|33:191|75:162,1,93.5000028533936,8|2,0:1|0:0,0:0:0:0:
97,166,217002,1,0,0:0:0:0:
97,166,217113,1,8,0:0:0:0:
173,129,217336,2,0,L|184:31,2,93.5000028533936,2|8|2,0:0|0:1|0:0,0:0:0:0:
286,208,218002,6,2,L|428:192,1,140.25000428009,12|0,0:0|0:0,0:1:0:0:
442,164,218447,2,2,L|291:127,1,140.25000428009,8|0,0:1|0:0,0:1:0:0:
282,108,218891,2,2,L|379:94,1,93.5000028533936,8|0,0:0|0:0,0:1:0:0:
457,76,219336,5,8,0:1:0:0:
377,49,219558,1,2,0:0:0:0:
296,25,219780,1,8,0:0:0:0:
195,97,220002,2,0,L|96:108,1,93.5000028533936,2|8,0:0|0:1,0:0:0:0:
23,77,220447,1,2,0:0:0:0:
23,77,220558,1,2,0:0:0:0:
23,77,220669,1,8,0:0:0:0:
109,147,220891,2,0,L|91:243,1,93.5000028533936,2|8,0:0|0:1,0:0:0:0:
77,322,221336,1,2,0:0:0:0:
217,279,221558,6,0,P|158:250|76:325,1,187.000005706787,8|8,0:0|0:1,0:0:0:0:
163,338,222225,1,2,0:0:0:0:
163,338,222336,1,0,0:0:0:0:
163,338,222447,1,8,0:0:0:0:
243,314,222669,1,2,0:0:0:0:
324,294,222891,1,8,0:1:0:0:
406,276,223113,6,0,L|505:288,2,93.5000028533936,2|8|2,0:0|0:0|0:0,0:0:0:0:
482,204,223780,2,0,L|389:192,2,93.5000028533936,8|2|8,0:1|0:0|0:0,0:0:0:0:
470,121,224447,1,8,0:0:0:0:
470,121,224558,1,8,0:0:0:0:
470,121,224669,1,8,0:0:0:0:
451,34,224891,1,8,0:0:0:0:
451,34,225002,1,8,0:0:0:0:
451,34,225113,1,12,0:0:0:0:
482,204,225558,6,0,L|467:294,1,76.4999976654053,8|2,0:1|0:0,0:0:0:0:
453,361,226002,1,8,0:0:0:0:
393,308,226225,1,2,0:0:0:0:
393,308,226336,2,0,L|353:314,1,38.2499988327027,0|8,0:0|0:1,0:0:0:0:
291,368,226669,2,0,P|262:333|156:335,1,152.999995330811,2|10,0:0|0:1,0:0:0:0:
5,304,227336,1,8,0:1:0:0:
53,373,227558,2,0,B|34:286|34:286|66:220,1,152.999995330811,10|10,0:1|0:1,0:0:0:0:
82,139,228225,2,0,L|-5:157,1,76.4999976654053,8|2,0:1|0:0,0:0:0:0:
147,201,228669,6,0,L|227:183,1,76.4999976654053,8|2,0:0|0:0,0:0:0:0:
194,104,229113,2,0,P|234:141|336:135,1,152.999995330811,8|8,0:1|0:0,0:0:0:0:
400,93,229780,1,2,0:0:0:0:
400,93,229891,2,0,L|404:52,1,38.2499988327027,0|8,0:0|0:1,0:0:0:0:
469,145,230225,2,0,L|450:303,1,152.999995330811,2|10,0:0|0:1,0:0:0:0:
333,180,230891,1,8,0:1:0:0:
272,240,231113,2,0,L|423:221,1,152.999995330811,10|10,0:1|0:1,0:0:0:0:
471,151,231780,2,0,P|430:144|398:114,1,76.4999976654053,8|2,0:1|0:0,0:0:0:0:
233,157,232225,6,0,P|265:131|277:86,1,76.4999976654053,12|2,0:0|0:0,0:0:0:0:
193,86,232669,2,0,B|83:75|83:75|41:108,1,152.999995330811,8|8,0:1|0:0,0:0:0:0:
25,184,233336,1,2,0:0:0:0:
25,184,233447,2,0,L|34:231,1,38.2499988327027,0|8,0:0|0:1,0:0:0:0:
43,304,233780,2,0,P|74:264|183:281,1,152.999995330811,2|10,0:0|0:1,0:0:0:0:
211,372,234447,1,8,0:1:0:0:
120,331,234669,2,0,L|297:318,1,152.999995330811,10|10,0:1|0:1,0:0:0:0:
353,294,235336,2,0,L|340:370,1,76.4999976654053,8|2,0:1|0:0,0:0:0:0:
448,312,235780,6,0,L|435:236,1,76.4999976654053,8|2,0:0|0:0,0:0:0:0:
460,163,236225,2,0,P|492:125|473:13,1,152.999995330811,8|8,0:1|0:0,0:0:0:0:
405,46,236891,1,2,0:0:0:0:
405,46,237002,2,0,L|352:41,1,38.2499988327027,0|8,0:0|0:1,0:0:0:0:
301,91,237336,1,2,0:0:0:0:
355,155,237558,6,0,B|317:193|317:193|271:168,1,104.550001595306,8|8,0:0|0:3,0:0:0:0:
256,142,238002,2,0,L|265:99,2,34.8500005317688,8|8|8,0:0|0:0|0:0,0:0:0:0:
195,211,238447,1,8,0:0:0:0:
195,211,238558,1,8,0:3:0:0:
195,211,238669,1,8,0:0:0:0:
122,262,238891,2,0,L|114:296,2,34.8500005317688,8|8|8,0:0|0:3|0:3,0:0:0:0:
56,201,239336,6,0,B|36:167|29:89|136:40|197:75|207:146|275:146|314:117,1,356.999989105225,4|0,0:0|0:0,0:0:0:0:
