osu file format v14

[General]
AudioFilename: audio.mp3
AudioLeadIn: 0
PreviewTime: 65650
Countdown: 0
SampleSet: Soft
StackLeniency: 0.4
Mode: 0
LetterboxInBreaks: 0
WidescreenStoryboard: 0

[Editor]
DistanceSpacing: 1.1
BeatDivisor: 6
GridSize: 4
TimelineZoom: 3.799999

[Metadata]
Title:Guilty Eyes Fever
TitleUnicode:Guilty Eyes Fever
Artist:Guilty Kiss
ArtistUnicode:Guilty Kiss
Creator:Cris-
Version:Shutdown
Source:Love Live! Sunshine!!
Tags:Rin Desu Parachute wolf3211 ラブライブ!サンシャイン!! School Idol Project Aqours Mari Ohara 小原鞠莉 Aina Suzuki 鈴木愛奈 Riko Sakurauchi 桜内梨子 Rikako Aida 逢田梨香子 Yoshiko Tsushima 津島善子 Aika Kobayashi 小林愛香 Japanese Pop J-Pop Anime
BeatmapID:1807570
BeatmapSetID:864242

[Difficulty]
HPDrainRate:6
CircleSize:4.2
OverallDifficulty:8
ApproachRate:9
SliderMultiplier:2.2
SliderTickRate:1

[Events]
//Background and Video events
0,0,"Guilty Kiss.png",0,0
//Break Periods
//Storyboard Layer 0 (Background)
//Storyboard Layer 1 (Fail)
//Storyboard Layer 2 (Pass)
//Storyboard Layer 3 (Foreground)
//Storyboard Layer 4 (Overlay)
//Storyboard Sound Samples

[TimingPoints]
687,441.176470588235,4,2,1,50,1,0
5981,-100,4,2,1,55,0,0
7304,-50,4,2,1,60,0,0
7745,-90.9090909090909,4,2,1,80,0,0
20098,-100,4,2,1,60,0,0
21863,-133.333333333333,4,2,1,50,0,0
28922,-83.3333333333333,4,2,1,70,0,0
31128,-83.3333333333333,4,2,1,50,0,0
32451,-100,4,2,1,60,0,0
35539,-133.333333333333,4,2,1,50,0,0
35981,-100,4,2,1,60,0,0
43039,-71.4285714285714,4,2,1,70,0,0
45466,-100,4,2,1,50,0,0
46569,-100,4,2,1,60,0,0
49657,-200,4,2,1,50,0,0
50098,-133.333333333333,4,2,1,55,0,0
57157,-100,4,2,1,60,0,0
60686,-80,4,2,1,65,0,0
62451,-66.6666666666667,4,2,1,50,0,0
63775,-66.6666666666667,4,2,1,70,0,0
64216,-66.6666666666667,4,2,1,50,0,0
65981,-100,4,2,1,50,0,0
66311,-100,4,2,1,5,0,0
66422,-83.3333333333333,4,2,1,55,0,0
66753,-83.3333333333333,4,2,1,5,0,0
66863,-71.4285714285714,4,2,1,60,0,0
67194,-71.4285714285714,4,2,1,5,0,0
67304,-62.5,4,2,1,65,0,0
67635,-62.5,4,2,1,5,0,0
67745,-83.3333333333333,4,2,1,80,0,1
74363,-100,4,2,1,70,0,0
74804,-83.3333333333333,4,2,1,80,0,1
81422,-100,4,2,1,70,0,0
81863,-83.3333333333333,4,2,1,80,0,1
88922,-100,4,2,1,70,0,0
95539,-200,4,2,1,60,0,0
95981,-100,4,2,1,70,0,0
101275,-100,4,2,1,50,0,0
102709,-100,4,2,1,25,0,0

[Colours]
Combo1 : 168,81,255
Combo2 : 249,49,49
Combo3 : 236,210,34
Combo4 : 108,112,232

[HitObjects]
412,320,687,6,0,L|420:208,1,110,2|0,0:0|0:0,0:0:0:0:
236,335,1128,2,0,L|229:225,1,110,2|0,0:0|0:0,0:0:0:0:
412,320,1569,2,0,B|420:208|420:208|392:164,1,165,2|2,0:0|0:0,0:0:0:0:
236,335,2451,6,0,P|184:351|132:335,1,110,2|0,0:0|0:0,0:0:0:0:
133,143,2892,2,0,P|184:128|236:143,1,110,2|0,0:0|0:0,0:0:0:0:
236,335,3334,2,0,B|184:367|132:335|132:335|88:367,1,165,2|2,0:0|0:0,0:0:0:0:
344,240,4216,6,0,L|336:349,1,110,2|0,0:0|0:0,0:0:0:0:
237,144,4657,2,0,L|229:253,1,110,2|0,0:0|0:0,0:0:0:0:
128,48,5098,2,0,B|120:160|120:160|92:204,1,165,2|2,0:0|0:0,0:0:0:0:
324,132,5760,1,2,0:0:0:0:
324,132,5981,6,0,L|269:140,3,55,2|0|0|0,0:0|0:0|0:0|0:0,0:0:0:0:
412,196,6422,2,0,L|467:188,3,55,2|0|0|0,0:0|0:0|0:0|0:0,0:0:0:0:
344,280,6863,2,0,L|289:288,3,55,2|0|0|0,0:0|0:0|0:0|0:0,0:0:0:0:
216,360,7304,6,0,B|164:284|216:220|216:220|208:196|208:196|260:128|208:56,1,330,12|0,0:0|0:0,0:0:0:0:
28,124,7745,6,0,B|84:148|84:148|140:124,1,121.000003692627,12|2,0:0|0:0,0:0:0:0:
319,56,8076,1,2,0:0:0:0:
319,56,8186,2,0,B|263:32|263:32|207:56,1,121.000003692627,8|2,0:0|0:0,0:0:0:0:
290,167,8517,1,2,0:0:0:0:
290,167,8628,2,0,L|350:175,1,60.5000018463135,8|0,0:0|0:0,0:0:0:0:
465,50,8848,2,0,L|405:42,1,60.5000018463135,2|2,0:0|0:0,0:0:0:0:
290,167,9069,2,0,B|282:203|282:203|298:247|298:247|290:283,1,121.000003692627,8|2,0:0|0:0,0:0:0:0:
465,50,9510,6,0,B|473:86|473:86|457:130|457:130|465:166,1,121.000003692627,8|2,0:0|0:0,0:0:0:0:
290,50,9841,1,2,0:0:0:0:
290,50,9951,2,0,B|282:86|282:86|298:130|298:130|290:166,1,121.000003692627,8|2,0:0|0:0,0:0:0:0:
465,50,10282,1,2,0:0:0:0:
465,50,10392,2,0,L|405:42,1,60.5000018463135,8|2,0:0|0:0,0:0:0:0:
290,166,10613,2,0,L|350:174,1,60.5000018463135,2|2,0:0|0:0,0:0:0:0:
205,137,10834,2,0,B|193:169|205:201|205:201|209:209|209:209|205:217|205:217|209:225|209:225|205:233|205:233|209:241|209:241|205:249|205:249|209:257|209:257|205:265|205:265|209:273|209:273|205:281|205:281|209:289|209:289|205:297|205:297|209:305,1,181.500005538941,10|2,0:0|0:0,0:0:0:0:
290,166,11275,5,8,0:0:0:0:
80,100,11495,2,0,L|72:160,1,60.5000018463135,2|2,0:0|0:0,0:0:0:0:
136,28,11716,2,0,P|80:8|24:28,1,121.000003692627,8|2,0:0|0:0,0:0:0:0:
209,305,12157,2,0,P|265:325|321:305,1,121.000003692627,8|2,0:0|0:0,0:0:0:0:
208,138,12488,1,2,0:0:0:0:
208,138,12598,2,0,L|148:146,1,60.5000018463135,8|2,0:0|0:0,0:0:0:0:
264,222,12819,2,0,L|324:214,1,60.5000018463135,2|2,0:0|0:0,0:0:0:0:
209,305,13039,6,0,L|149:313,1,60.5000018463135,8|2,0:0|0:0,0:0:0:0:
208,138,13260,2,0,L|268:130,1,60.5000018463135,2|2,0:0|0:0,0:0:0:0:
112,240,13481,2,0,B|68:264|20:240|20:240|40:224,1,121.000003692627,8|2,0:0|0:0,0:0:0:0:
323,325,13922,2,0,P|343:269|323:213,1,121.000003692627,8|2,0:0|0:0,0:0:0:0:
208,138,14253,2,0,P|188:82|208:26,1,121.000003692627,2|2,0:0|0:0,0:0:0:0:
348,76,14584,2,0,L|288:84,1,60.5000018463135,2|2,0:0|0:0,0:0:0:0:
121,152,14804,6,0,B|208:138|208:138|193:168,1,121.000003692627,12|2,0:0|0:0,0:0:0:0:
132,284,15135,1,2,0:0:0:0:
132,284,15245,2,0,B|45:298|45:298|60:268,1,121.000003692627,8|2,0:0|0:0,0:0:0:0:
193,167,15576,1,2,0:0:0:0:
193,167,15686,2,0,L|201:227,1,60.5000018463135,8|0,0:0|0:0,0:0:0:0:
48,108,15907,2,0,L|40:168,1,60.5000018463135,2|2,0:0|0:0,0:0:0:0:
177,47,16128,2,0,L|193:167,1,121.000003692627,8|2,0:0|0:0,0:0:0:0:
448,288,16569,6,0,L|464:168,1,121.000003692627,8|2,0:0|0:0,0:0:0:0:
392,360,16900,1,2,0:0:0:0:
392,360,17010,2,0,P|448:380|504:360,1,121.000003692627,8|2,0:0|0:0,0:0:0:0:
464,168,17341,1,2,0:0:0:0:
464,168,17451,2,0,L|456:228,1,60.5000018463135,8|2,0:0|0:0,0:0:0:0:
304,360,17672,2,0,L|296:300,1,60.5000018463135,2|2,0:0|0:0,0:0:0:0:
144,168,17892,2,0,B|116:168|96:200|96:200|116:232|144:180|210:211,1,181.500005538941,10|2,0:0|0:0,0:0:0:0:
296,300,18334,5,8,0:0:0:0:
12,364,18554,2,0,L|4:304,1,60.5000018463135,2|2,0:0|0:0,0:0:0:0:
144,168,18775,2,0,L|128:288,1,121.000003692627,8|2,0:0|0:0,0:0:0:0:
396,168,19216,2,0,L|380:48,1,121.000003692627,8|2,0:0|0:0,0:0:0:0:
248,192,19547,1,2,0:0:0:0:
248,192,19657,2,0,L|308:184,1,60.5000018463135,8|2,0:0|0:0,0:0:0:0:
380,48,19878,2,0,L|320:56,1,60.5000018463135,2|2,0:0|0:0,0:0:0:0:
248,192,20098,5,12,0:0:0:0:
320,56,20319,2,0,L|265:63,1,55,2|2,0:0|0:0,0:0:0:0:
396,168,20539,1,2,0:0:0:0:
396,168,20650,1,2,0:0:0:0:
396,168,20760,2,0,L|452:160,1,55,2|2,0:0|0:0,0:0:0:0:
266,63,20981,2,0,L|210:71,1,55,2|2,0:0|0:0,0:0:0:0:
40,328,21311,1,2,0:0:0:0:
40,328,21422,2,0,P|-16:328|40:308,1,165,2|0,0:0|0:0,0:0:0:0:
120,316,21863,6,0,P|160:328|200:316,1,82.5000031471254,4|2,0:0|0:0,0:0:0:0:
372,156,22304,1,8,0:0:0:0:
160,236,22525,1,2,0:0:0:0:
372,316,22745,2,0,P|384:276|372:236,1,82.5000031471254,8|2,0:0|0:0,0:0:0:0:
284,196,23076,1,2,0:0:0:0:
284,196,23186,2,0,P|272:236|284:276,1,82.5000031471254,8|2,0:0|0:0,0:0:0:0:
372,76,23628,5,8,0:0:0:0:
160,196,23848,1,2,0:0:0:0:
372,316,24069,2,0,L|456:308,1,82.5000031471254,8|2,0:0|0:0,0:0:0:0:
455,230,24400,1,2,0:0:0:0:
455,230,24510,2,0,L|371:238,1,82.5000031471254,8|2,0:0|0:0,0:0:0:0:
160,196,24951,2,0,L|168:236,1,41.2500015735627,2|2,0:0|0:0,0:0:0:0:
268,96,25172,2,0,L|260:136,1,41.2500015735627,2|2,0:0|0:0,0:0:0:0:
140,32,25392,6,0,B|144:56|144:56|136:88|136:88|140:112,1,82.5000031471254,8|2,0:0|0:0,0:0:0:0:
160,196,25723,1,2,0:0:0:0:
160,196,25834,1,8,0:0:0:0:
364,96,26054,1,2,0:0:0:0:
140,32,26275,2,0,L|60:48,1,82.5000031471254,8|2,0:0|0:0,0:0:0:0:
140,112,26606,1,2,0:0:0:0:
140,112,26716,2,0,L|180:104,1,41.2500015735627,8|2,0:0|0:0,0:0:0:0:
272,84,26936,1,2,0:0:0:0:
59,48,27157,6,0,P|49:88|61:127,1,82.5000031471254,8|2,0:0|0:0,0:0:0:0:
204,264,27598,1,8,0:0:0:0:
346,126,27819,1,2,0:0:0:0:
346,126,27929,2,0,P|358:87|348:48,1,82.5000031471254,2|2,0:0|0:0,0:0:0:0:
272,84,28260,2,0,P|233:96|194:86,1,82.5000031471254,2|2,0:0|0:0,0:0:0:0:
12,24,28701,1,2,0:0:0:0:
131,253,28922,6,0,B|167:253|191:229|191:229|215:253|251:253,1,131.99999597168,4|0,0:0|0:0,0:0:0:0:
194,86,29363,1,8,0:0:0:0:
96,380,29584,1,2,0:0:0:0:
348,197,29804,1,8,0:0:0:0:
39,197,30025,1,2,0:0:0:0:
289,380,30245,1,8,0:0:0:0:
194,86,30466,1,2,0:0:0:0:
96,380,30686,6,0,B|140:316|96:256|96:256|156:300|216:256,1,263.99999194336,8|0,0:0|0:0,0:0:0:0:
432,88,31348,2,0,L|440:156,1,65.9999979858399,2|2,0:0|0:0,0:0:0:0:
312,28,31569,2,0,B|320:64|320:64|304:116|304:116|312:156,1,131.99999597168,2|2,0:0|0:0,0:0:0:0:
376,372,32010,1,2,0:0:0:0:
440,154,32231,2,0,L|433:89,1,65.9999979858399,2|2,0:0|0:0,0:0:0:0:
388,228,32451,6,0,P|440:244|492:228,1,110,4|2,0:0|0:0,0:0:0:0:
312,28,32892,1,8,0:0:0:0:
312,320,33113,1,2,0:0:0:0:
440,153,33334,2,0,P|388:137|336:153,1,110,8|2,0:0|0:0,0:0:0:0:
176,320,33775,1,8,0:0:0:0:
388,228,33995,1,2,0:0:0:0:
168,136,34216,5,8,0:0:0:0:
168,136,35539,2,0,P|212:120|168:112,1,123.750004720688,2|0,0:0|0:0,0:0:0:0:
136,212,35981,6,0,P|192:228|240:212,1,110,4|2,0:0|0:0,0:0:0:0:
440,104,36422,1,8,0:0:0:0:
240,212,36642,1,2,0:0:0:0:
440,312,36863,2,0,P|456:256|440:208,1,110,8|2,0:0|0:0,0:0:0:0:
364,260,37194,1,2,0:0:0:0:
364,260,37304,2,0,P|347:311|363:363,1,110,8|2,0:0|0:0,0:0:0:0:
504,156,37745,5,8,0:0:0:0:
240,104,37966,1,2,0:0:0:0:
497,46,38186,2,0,L|504:155,1,110,8|2,0:0|0:0,0:0:0:0:
512,244,38517,1,2,0:0:0:0:
152,88,39069,2,0,L|144:144,1,55,2|2,0:0|0:0,0:0:0:0:
240,104,39289,2,0,L|248:48,1,55,2|2,0:0|0:0,0:0:0:0:
328,120,39510,6,0,L|312:228,1,110,8|2,0:0|0:0,0:0:0:0:
296,320,39841,1,2,0:0:0:0:
296,320,39952,1,8,0:0:0:0:
496,160,40172,1,2,0:0:0:0:
240,104,40392,2,0,L|224:212,1,110,8|2,0:0|0:0,0:0:0:0:
328,120,40724,1,2,0:0:0:0:
328,120,40834,2,0,L|336:64,1,55,8|2,0:0|0:0,0:0:0:0:
240,104,41054,1,2,0:0:0:0:
296,320,41275,6,0,P|347:337|399:321,1,110,8|2,0:0|0:0,0:0:0:0:
240,104,41716,1,8,0:0:0:0:
84,320,41936,1,2,0:0:0:0:
84,320,42047,2,0,P|135:336|187:319,1,110,2|2,0:0|0:0,0:0:0:0:
136,254,42378,2,0,P|118:203|135:152,1,110,2|2,0:0|0:0,0:0:0:0:
240,20,42819,1,2,0:0:0:0:
2,152,43039,6,0,B|42:152|70:184|70:184|98:152|136:152,1,153.999995300293,4|0,0:0|0:0,0:0:0:0:
376,376,43481,1,8,0:0:0:0:
137,152,43702,1,2,0:0:0:0:
408,296,43922,1,8,0:0:0:0:
137,152,44143,1,2,0:0:0:0:
440,216,44363,1,8,0:0:0:0:
137,152,44584,1,2,0:0:0:0:
468,136,44804,6,0,B|400:76|328:136|328:136|388:68|328:0,1,307.999990600586,8|0,0:0|0:0,0:0:0:0:
137,152,45466,2,0,L|192:159,1,55,2|0,0:0|0:0,0:0:0:0:
68,100,45686,2,0,P|52:156|68:204,1,110,2|2,0:0|0:0,0:0:0:0:
351,143,46128,2,0,L|355:123,5,18.3333333333333,2|0|2|0|2|0,0:0|0:0|0:0|0:0|0:0|0:0,0:0:0:0:
343,183,46348,2,0,L|379:188,1,36.6666666666667,2|0,0:0|0:0,0:0:0:0:
304,280,46569,6,0,L|196:264,1,110,4|2,0:0|0:0,0:0:0:0:
379,188,47010,1,8,0:0:0:0:
236,364,47231,1,2,0:0:0:0:
227,105,47451,2,0,L|335:121,1,110,8|2,0:0|0:0,0:0:0:0:
196,264,47892,1,8,0:0:0:0:
296,20,48113,1,2,0:0:0:0:
305,280,48334,6,0,L|197:264,1,110,8|2,0:0|0:0,0:0:0:0:
336,121,48775,1,8,0:0:0:0:
236,364,48995,1,2,0:0:0:0:
176,121,49216,2,0,B|252:153|252:89|336:121,1,165,8|2,0:0|0:0,0:0:0:0:
420,148,49657,6,0,P|424:120|420:94,1,55,8|2,3:0|0:0,0:0:0:0:
292,216,50098,6,0,B|264:260|228:264|228:264|264:272|292:312,1,165.000006294251,4|8,0:0|3:0,0:0:0:0:
492,216,50760,1,2,0:0:0:0:
292,120,50981,2,0,B|264:164|228:168|228:168|264:176|292:216,1,165.000006294251,8|8,3:0|3:0,0:0:0:0:
492,120,51642,1,2,0:0:0:0:
492,120,51753,1,2,0:0:0:0:
492,120,51863,6,0,B|480:80|436:64|436:64|392:80|380:120,1,165.000006294251,8|8,3:0|3:0,0:0:0:0:
380,312,52525,1,2,0:0:0:0:
380,312,52635,1,2,0:0:0:0:
380,312,52745,2,0,B|392:352|436:368|436:368|480:352|492:312,1,165.000006294251,8|8,3:0|3:0,0:0:0:0:
292,216,53407,1,2,0:0:0:0:
292,216,53517,1,2,0:0:0:0:
292,216,53628,6,0,B|252:136|332:136|292:60,1,165.000006294251,8|8,3:0|3:0,0:0:0:0:
92,216,54289,1,2,0:0:0:0:
292,372,54510,2,0,B|252:292|332:292|292:216,1,165.000006294251,8|8,3:0|3:0,0:0:0:0:
92,372,55172,1,2,0:0:0:0:
292,216,55392,6,0,B|348:180|408:216|408:216|372:240,1,165.000006294251,8|8,3:0|3:0,0:0:0:0:
204,296,56054,1,2,0:0:0:0:
12,240,56275,2,0,B|-24:216|-24:216|36:180|92:216,1,165.000006294251,8|8,3:0|3:0,0:0:0:0:
188,356,56936,2,0,L|196:316,1,41.2500015735627,2|0,0:0|3:0,0:0:0:0:
204,296,57102,1,0,3:0:0:0:
204,296,57157,6,0,B|256:280|256:312|312:296,1,110,8|2,3:0|0:0,0:0:0:0:
312,60,57598,2,0,B|256:44|256:76|204:60,1,110,8|2,3:0|0:0,0:0:0:0:
388,216,58039,1,8,3:0:0:0:
204,60,58260,1,2,0:0:0:0:
312,296,58481,1,8,3:0:0:0:
204,60,58701,1,2,0:0:0:0:
204,304,58922,6,0,P|183:343|163:303,1,110,8|2,3:0|0:0,0:0:0:0:
388,216,59363,2,0,P|408:256|428:216,1,110,8|2,3:0|0:0,0:0:0:0:
204,60,59804,1,8,3:0:0:0:
312,296,60025,1,2,0:0:0:0:
424,64,60245,2,0,L|416:8,1,55,8|2,3:0|0:0,0:0:0:0:
312,60,60466,1,2,0:0:0:0:
312,60,60576,1,2,0:0:0:0:
312,60,60686,6,0,L|304:128,1,68.75,8|0,3:0|0:0,0:0:0:0:
432,132,60907,2,0,L|424:64,1,68.75,2|0,0:0|0:0,0:0:0:0:
304,128,61128,2,0,L|296:196,1,68.75,8|0,3:0|0:0,0:0:0:0:
440,200,61349,2,0,L|432:132,1,68.75,2|0,0:0|0:0,0:0:0:0:
296,196,61569,2,0,L|288:264,1,68.75,8|0,3:0|0:0,0:0:0:0:
448,268,61789,2,0,L|440:200,1,68.75,2|0,0:0|0:0,0:0:0:0:
288,264,62010,2,0,L|280:332,1,68.75,8|0,3:0|0:0,0:0:0:0:
456,336,62231,2,0,L|448:268,1,68.75,2|0,0:0|0:0,0:0:0:0:
280,332,62451,6,0,L|276:376,7,41.2500015735627,8|0|2|0|2|0|2|0,3:0|0:0|0:0|0:0|0:0|0:0|0:0|0:0,0:0:0:0:
200,364,62892,2,0,L|204:320,7,41.2500015735627,2|0|2|0|2|0|2|0,0:0|0:0|0:0|0:0|0:0|0:0|0:0|0:0,0:0:0:0:
128,308,63334,2,0,L|124:352,7,41.2500015735627,2|0|2|0|2|0|2|0,0:0|0:0|0:0|0:0|0:0|0:0|0:0|0:0,0:0:0:0:
204,323,63775,1,8,0:0:0:0:
40,128,63995,1,8,0:0:0:0:
220,176,65760,5,2,0:0:0:0:
220,176,65981,6,0,P|180:108|220:40,1,165,2|0,0:0|0:0,0:0:0:0:
268,248,66422,6,0,B|172:296|172:200|80:248,1,197.99999395752,2|0,0:0|0:0,0:0:0:0:
268,108,66863,6,0,B|320:80|364:108|364:108|380:96|380:96|428:124|484:96,1,230.99999295044,2|0,0:0|0:0,0:0:0:0:
316,344,67304,6,0,B|252:264|316:184|316:184|348:220|316:264,1,264,8|0,0:0|0:0,0:0:0:0:
137,124,67745,6,0,L|269:108,1,131.99999597168,12|2,0:0|0:0,0:0:0:0:
152,292,68076,1,2,0:0:0:0:
152,292,68186,2,0,L|20:308,1,131.99999597168,8|2,0:0|0:0,0:0:0:0:
236,208,68517,1,2,0:0:0:0:
236,208,68628,2,0,L|243:273,1,65.9999979858399,8|2,0:0|0:0,0:0:0:0:
137,124,68848,2,0,L|130:59,1,65.9999979858399,2|2,0:0|0:0,0:0:0:0:
236,208,69069,2,0,L|252:340,1,131.99999597168,8|2,0:0|0:0,0:0:0:0:
444,176,69510,6,0,B|396:204|344:176|344:176|368:164,1,131.99999597168,8|2,0:0|0:0,0:0:0:0:
500,32,69841,1,2,0:0:0:0:
500,32,69951,2,0,L|507:97,1,65.9999979858399,8|2,0:0|0:0,0:0:0:0:
300,96,70172,2,0,L|307:31,1,65.9999979858399,2|2,0:0|0:0,0:0:0:0:
444,176,70392,2,0,L|437:241,1,65.9999979858399,8|2,0:0|0:0,0:0:0:0:
244,243,70613,2,0,L|237:178,1,65.9999979858399,2|2,0:0|0:0,0:0:0:0:
444,176,70834,2,0,L|428:307,1,131.99999597168,8|2,0:0|0:0,0:0:0:0:
251,309,71164,1,2,0:0:0:0:
251,309,71275,6,0,L|244:244,1,65.9999979858399,8|2,0:0|0:0,0:0:0:0:
436,242,71495,2,0,L|428:307,1,65.9999979858399,2|2,0:0|0:0,0:0:0:0:
292,128,71716,2,0,B|340:100|392:128|392:128|368:140,1,131.99999597168,8|2,0:0|0:0,0:0:0:0:
243,243,72047,1,2,0:0:0:0:
243,243,72157,2,0,L|178:250,1,65.9999979858399,8|2,0:0|0:0,0:0:0:0:
160,60,72378,2,0,L|225:53,1,65.9999979858399,2|2,0:0|0:0,0:0:0:0:
100,192,72598,2,0,P|76:252|99:311,1,131.99999597168,8|2,0:0|0:0,0:0:0:0:
312,312,73039,5,8,0:0:0:0:
100,192,73260,1,2,0:0:0:0:
300,92,73481,2,0,B|312:129|312:129|292:181|292:181|300:217,1,131.99999597168,8|2,0:0|0:0,0:0:0:0:
220,129,73811,1,2,0:0:0:0:
220,129,73922,2,0,B|208:92|208:92|228:40|228:40|220:4,1,131.99999597168,8|2,0:0|0:0,0:0:0:0:
458,92,74253,1,2,0:0:0:0:
458,92,74363,2,0,B|378:56|378:128|300:92,1,165,2|2,0:0|0:0,0:0:0:0:
415,279,74804,6,0,P|439:219|416:160,1,131.99999597168,12|2,0:0|0:0,0:0:0:0:
232,220,75135,1,2,0:0:0:0:
232,220,75245,2,0,P|292:244|352:220,1,131.99999597168,8|2,0:0|0:0,0:0:0:0:
216,68,75576,1,2,0:0:0:0:
216,68,75686,2,0,L|151:75,1,65.9999979858399,8|2,0:0|0:0,0:0:0:0:
166,227,75907,2,0,L|231:220,1,65.9999979858399,2|2,0:0|0:0,0:0:0:0:
84,168,76128,2,0,P|59:227|84:287,1,131.99999597168,8|2,0:0|0:0,0:0:0:0:
335,351,76569,6,0,L|351:219,1,131.99999597168,8|2,0:0|0:0,0:0:0:0:
225,154,76900,1,2,0:0:0:0:
225,154,77010,2,0,L|232:219,1,65.9999979858399,8|2,0:0|0:0,0:0:0:0:
336,351,77231,2,0,L|343:286,1,65.9999979858399,2|2,0:0|0:0,0:0:0:0:
120,284,77451,2,0,L|127:349,1,65.9999979858399,8|2,0:0|0:0,0:0:0:0:
232,219,77672,2,0,L|225:154,1,65.9999979858399,2|2,0:0|0:0,0:0:0:0:
120,284,77892,2,0,P|60:307|0:284,1,131.99999597168,8|2,0:0|0:0,0:0:0:0:
232,219,78223,1,2,0:0:0:0:
232,219,78334,6,0,L|297:212,1,65.9999979858399,8|2,0:0|0:0,0:0:0:0:
120,152,78554,2,0,L|55:159,1,65.9999979858399,2|2,0:0|0:0,0:0:0:0:
232,219,78775,2,0,B|220:182|220:182|240:130|240:130|232:94,1,131.99999597168,8|2,0:0|0:0,0:0:0:0:
120,284,79106,1,2,0:0:0:0:
120,284,79216,2,0,L|55:291,1,65.9999979858399,8|2,0:0|0:0,0:0:0:0:
232,219,79436,2,0,L|297:212,1,65.9999979858399,2|2,0:0|0:0,0:0:0:0:
120,152,79657,2,0,L|-12:168,1,131.99999597168,8|2,0:0|0:0,0:0:0:0:
232,352,80098,5,8,0:0:0:0:
232,93,80319,1,2,0:0:0:0:
232,352,80539,2,0,P|172:376|112:352,1,131.99999597168,8|2,0:0|0:0,0:0:0:0:
113,219,80870,1,2,0:0:0:0:
113,219,80981,2,0,P|172:195|232:219,1,131.99999597168,8|2,0:0|0:0,0:0:0:0:
112,352,81311,1,2,0:0:0:0:
112,352,81422,2,0,B|56:392|-8:352|-8:352|16:324,1,165,8|2,3:0|0:0,0:0:0:0:
113,219,81863,6,0,P|172:195|232:219,1,131.99999597168,12|2,0:0|0:0,0:0:0:0:
352,352,82194,1,2,0:0:0:0:
352,352,82304,2,0,B|368:288|368:288|336:228|336:228|352:167,1,197.99999395752,8|2,0:0|0:0,0:0:0:0:
424,92,82745,2,0,L|489:99,1,65.9999979858399,8|2,0:0|0:0,0:0:0:0:
352,166,82966,1,2,0:0:0:0:
488,352,83186,1,8,0:0:0:0:
352,166,83407,6,0,P|292:141|232:165,1,131.99999597168,4|0,0:0|0:0,0:0:0:0:
304,320,83848,2,0,P|296:352|305:384,1,65.9999979858399,2|2,0:0|0:0,0:0:0:0:
352,248,84069,2,0,B|256:200|256:296|164:248,1,197.99999395752,8|2,0:0|0:0,0:0:0:0:
76,184,84510,2,0,L|69:249,1,65.9999979858399,8|2,0:0|0:0,0:0:0:0:
212,184,84731,2,0,L|205:119,1,65.9999979858399,2|2,0:0|0:0,0:0:0:0:
116,324,84951,1,8,0:0:0:0:
352,248,85172,2,0,P|360:216|351:184,1,65.9999979858399,2|2,0:0|0:0,0:0:0:0:
292,312,85392,6,0,P|352:335|411:310,1,131.99999597168,8|2,0:0|0:0,0:0:0:0:
412,120,85723,1,2,0:0:0:0:
412,120,85834,2,0,P|351:96|292:121,1,131.99999597168,8|2,0:0|0:0,0:0:0:0:
88,324,86275,2,0,B|148:352|148:352|208:324,1,131.99999597168,8|2,0:0|0:0,0:0:0:0:
148,256,86606,1,8,0:0:0:0:
412,120,86936,6,0,L|428:252,1,131.99999597168,4|0,0:0|0:0,0:0:0:0:
292,120,87267,1,2,0:0:0:0:
292,120,87378,2,0,L|285:55,1,65.9999979858399,2|2,0:0|0:0,0:0:0:0:
172,120,87598,2,0,L|165:55,1,65.9999979858399,2|2,0:0|0:0,0:0:0:0:
52,120,87819,2,0,L|45:55,1,65.9999979858399,2|2,0:0|0:0,0:0:0:0:
172,120,88039,2,0,L|188:252,1,131.99999597168,2|2,0:0|0:0,0:0:0:0:
440,372,88481,2,0,B|436:364|436:364|440:356|440:356|436:348|436:348|440:340|440:340|436:332|436:332|440:324|440:324|436:316|436:316|440:308|440:308|436:300|436:300|440:292|440:292|436:284|436:284|440:276|440:276|436:268|436:268|456:232|437:189,1,197.99999395752,2|0,0:0|0:0,0:0:0:0:
360,228,88922,6,0,B|312:248|312:248|258:229,1,110,12|2,0:0|0:0,0:0:0:0:
260,104,89253,1,2,0:0:0:0:
260,104,89363,2,0,B|308:84|308:84|362:103,1,110,8|2,0:0|0:0,0:0:0:0:
188,263,89804,2,0,L|182:209,1,55,8|2,0:0|0:0,0:0:0:0:
104,152,90025,2,0,L|98:206,1,55,2|2,0:0|0:0,0:0:0:0:
20,260,90245,2,0,L|7:151,1,110,8|2,0:0|0:0,0:0:0:0:
188,263,90686,6,0,L|201:372,1,110,8|2,0:0|0:0,0:0:0:0:
320,264,91018,1,2,0:0:0:0:
320,264,91128,2,0,L|307:373,1,110,8|2,0:0|0:0,0:0:0:0:
256,192,91569,2,0,L|262:138,1,55,8|2,0:0|0:0,0:0:0:0:
320,264,91789,1,2,0:0:0:0:
92,216,92010,2,0,L|98:270,1,55,2|2,0:0|0:0,0:0:0:0:
182,208,92231,2,0,L|188:262,1,55,2|2,0:0|0:0,0:0:0:0:
0,224,92452,5,8,0:0:0:0:
184,56,92672,2,0,L|238:62,1,55,2|2,0:0|0:0,0:0:0:0:
111,107,92892,2,0,P|96:55|112:4,1,110,8|2,0:0|0:0,0:0:0:0:
256,192,93334,2,0,B|276:240|276:240|257:294,1,110,8|2,0:0|0:0,0:0:0:0:
185,346,93665,1,2,0:0:0:0:
185,346,93775,2,0,B|165:298|165:298|184:244,1,110,8|2,0:0|0:0,0:0:0:0:
384,340,94216,6,0,L|330:346,1,55,8|2,0:0|0:0,0:0:0:0:
320,252,94436,2,0,L|374:246,1,55,2|2,0:0|0:0,0:0:0:0:
384,340,94657,2,0,L|275:353,1,110,8|2,0:0|0:0,0:0:0:0:
104,240,95098,2,0,P|88:188|103:136,1,110,2|2,0:0|0:0,0:0:0:0:
188,108,95429,1,2,0:0:0:0:
188,108,95539,6,0,P|192:136|188:162,1,55,8|2,3:0|0:0,0:0:0:0:
72,340,95981,6,0,L|181:353,1,110,12|2,0:0|0:0,0:0:0:0:
275,353,96312,1,2,0:0:0:0:
275,353,96422,2,0,L|384:340,1,110,8|2,0:0|0:0,0:0:0:0:
175,298,96863,2,0,L|181:352,1,55,8|2,0:0|0:0,0:0:0:0:
281,298,97084,2,0,L|275:352,1,55,2|2,0:0|0:0,0:0:0:0:
175,298,97304,2,0,L|162:189,1,110,8|2,0:0|0:0,0:0:0:0:
364,84,97745,6,0,L|351:193,1,110,8|2,0:0|0:0,0:0:0:0:
312,12,98076,1,2,0:0:0:0:
312,12,98186,2,0,P|363:-3|415:11,1,110,8|2,0:0|0:0,0:0:0:0:
266,188,98628,2,0,P|214:203|162:188,1,110,8|2,0:0|0:0,0:0:0:0:
220,48,98959,1,2,0:0:0:0:
220,48,99069,2,0,L|214:102,1,55,2|2,0:0|0:0,0:0:0:0:
266,188,99289,2,0,L|260:242,1,55,2|2,0:0|0:0,0:0:0:0:
214,103,99511,5,8,0:0:0:0:
340,244,99731,2,0,L|346:190,1,55,2|2,0:0|0:0,0:0:0:0:
288,316,99951,2,0,P|339:331|391:315,1,110,8|2,0:0|0:0,0:0:0:0:
266,188,100392,2,0,P|214:172|162:188,1,110,8|2,0:0|0:0,0:0:0:0:
340,244,100724,1,2,0:0:0:0:
340,244,100834,2,0,P|355:192|339:140,1,110,8|2,0:0|0:0,0:0:0:0:
163,291,101275,6,0,P|147:239|163:187,1,110,8|2,0:0|0:0,0:0:0:0:
340,244,101716,2,0,L|334:298,1,55,2|2,0:0|0:0,0:0:0:0:
163,187,102157,6,0,L|176:78,1,110,2|0,0:0|0:0,0:0:0:0:
337,79,102488,2,0,L|350:188,1,110,2|0,0:0|0:0,0:0:0:0:
