osu file format v14

[General]
AudioFilename: audio.mp3
AudioLeadIn: 0
PreviewTime: 65650
Countdown: 0
SampleSet: Soft
StackLeniency: 0.7
Mode: 0
LetterboxInBreaks: 0
WidescreenStoryboard: 1

[Editor]
Bookmarks: 39731,46789,50098
DistanceSpacing: 0.8
BeatDivisor: 12
GridSize: 4
TimelineZoom: 2.400001

[Metadata]
Title:Guilty Eyes Fever
TitleUnicode:Guilty Eyes Fever
Artist:Guilty Kiss
ArtistUnicode:Guilty Kiss
Creator:Cris-
Version:Parachute's Hyper
Source:Love Live! Sunshine!!
Tags:Rin Desu Parachute wolf3211 ラブライブ!サンシャイン!! School Idol Project Aqours Mari Ohara 小原鞠莉 Aina Suzuki 鈴木愛奈 Riko Sakurauchi 桜内梨子 Rikako Aida 逢田梨香子 Yoshiko Tsushima 津島善子 Aika Kobayashi 小林愛香 Japanese Pop J-Pop Anime
BeatmapID:1882840
BeatmapSetID:864242

[Difficulty]
HPDrainRate:5
CircleSize:5
OverallDifficulty:6
ApproachRate:7.5
SliderMultiplier:1.6
SliderTickRate:1

[Events]
//Background and Video events
0,0,"Guilty Kiss.png",0,0
//Break Periods
//Storyboard Layer 0 (Background)
//Storyboard Layer 1 (Fail)
//Storyboard Layer 2 (Pass)
//Storyboard Layer 3 (Foreground)
//Storyboard Layer 4 (Overlay)
//Storyboard Sound Samples

[TimingPoints]
687,441.176470588235,4,2,5,50,1,0
5981,-100,4,2,5,55,0,0
7304,-100,4,2,5,60,0,0
7745,-71.4285714285714,4,2,5,75,0,0
20098,-100,4,2,5,65,0,0
21863,-100,4,2,5,60,0,0
28260,-100,4,2,5,45,0,0
28701,-100,4,2,5,60,0,0
42378,-100,4,2,5,45,0,0
43039,-100,4,2,5,60,0,0
45356,-100,4,2,5,45,0,0
46422,-100,4,2,5,60,0,0
57157,-100,4,2,5,65,0,0
58922,-100,4,2,5,70,0,0
60686,-100,4,2,5,55,0,0
62451,-100,4,2,5,35,0,0
63775,-100,4,2,5,80,0,0
63995,-100,4,2,5,70,0,0
64436,-100,4,2,5,55,0,0
67745,-83.3333333333333,4,2,5,80,0,1
74363,-83.3333333333333,4,2,5,70,0,0
74804,-83.3333333333333,4,2,5,80,0,1
81863,-83.3333333333333,4,2,5,80,0,1
88922,-100,4,2,5,70,0,0

[Colours]
Combo1 : 255,181,98
Combo2 : 255,60,157
Combo3 : 255,255,0
Combo4 : 166,182,255

[HitObjects]
336,192,687,6,0,L|176:192,1,160,0|2,0:0|0:0,0:0:0:0:
196,352,1569,2,0,L|340:352,1,120,0|2,0:0|0:0,0:0:0:0:
176,192,2451,6,0,L|336:192,1,160,0|2,0:0|0:0,0:0:0:0:
316,32,3333,2,0,L|172:32,1,120,0|2,0:0|0:0,0:0:0:0:
336,352,4216,6,0,L|176:352,1,160,0|2,0:0|0:0,0:0:0:0:
316,192,5098,2,0,L|172:192,1,120,0|2,0:0|0:0,0:0:0:0:
304,32,5760,6,0,L|384:32,2,80,0|2|0,0:0|0:0|0:0,0:0:0:0:
208,32,6422,2,0,L|120:32,1,80,2|0,0:0|0:0,0:0:0:0:
72,116,6863,2,0,L|172:116,1,80,0|2,0:0|0:0,0:0:0:0:
360,116,7304,2,0,L|440:116,1,80,4|0,1:0|0:0,0:0:0:0:
452,233,7745,6,0,P|345:254|256:192,1,223.999993164063,6|2,1:2|1:2,0:0:0:0:
256,72,8407,1,0,0:0:0:0:
256,192,8628,2,0,P|208:239|166:255,1,111.999996582031,2|0,1:2|0:0,0:0:0:0:
132,256,8959,2,0,P|136:176|216:133,1,167.999994873047,2|0,1:2|0:0,0:0:0:0:
312,132,9510,5,2,1:2:0:0:
372,220,9731,2,0,P|356:280|296:312,1,111.999996582031,0|2,0:0|1:2,0:0:0:0:
212,376,10172,2,0,L|100:376,1,111.999996582031,0|2,0:0|1:2,0:0:0:0:
256,272,10613,1,0,0:0:0:0:
412,376,10834,2,0,L|300:376,1,111.999996582031,2|0,1:2|0:0,0:0:0:0:
256,272,11275,1,2,1:2:0:0:
328,160,11495,5,0,0:0:0:0:
216,61,11716,2,0,P|182:105|184:160,1,111.999996582031,2|0,1:2|0:0,0:0:0:0:
328,160,12157,2,0,P|329:104|292:60,1,111.999996582031,2|0,1:2|0:0,0:0:0:0:
256,104,12488,2,0,B|262:160|244:160|256:216,1,111.999996582031,2|0,1:2|0:0,0:0:0:0:
256,272,12819,1,2,1:2:0:0:
256,272,13039,1,2,1:2:0:0:
336,384,13260,5,0,0:2:0:0:
176,384,13481,2,0,P|168:324|184:268,1,111.999996582031,2|0,1:2|0:0,0:0:0:0:
331,274,13922,2,0,P|344:328|336:384,1,111.999996582031,2|0,1:2|0:0,0:0:0:0:
312,360,14253,2,0,L|192:360,1,111.999996582031,2|0,0:0|0:0,0:0:0:0:
176,384,14584,1,2,0:0:0:0:
48,356,14804,6,0,P|62:302|96:257,1,111.999996582031,6|0,1:2|0:0,0:0:0:0:
96,126,15245,2,0,P|62:81|48:28,1,111.999996582031,2|0,1:2|0:0,0:0:0:0:
176,0,15686,2,0,L|244:108,1,111.999996582031,2|0,1:2|0:0,0:0:0:0:
277,94,16017,2,0,L|337:0,1,111.999996582031,2|0,1:2|0:0,0:0:0:0:
368,28,16348,6,0,P|412:96|408:156,1,111.999996582031,0|2,0:2|1:2,0:0:0:0:
414,260,16789,2,0,P|403:314|368:357,1,111.999996582031,0|2,0:0|1:2,0:0:0:0:
256,192,17231,2,0,B|208:180|208:204|144:192,1,111.999996582031,0|2,0:0|1:2,0:0:0:0:
32,192,17672,1,0,0:0:0:0:
256,192,17892,2,0,B|304:180|304:204|366:192,1,111.999996582031,2|0,1:2|0:0,0:0:0:0:
366,192,18334,1,2,1:2:0:0:
324,72,18554,5,0,0:0:0:0:
188,72,18775,2,0,P|152:136|160:176,1,111.999996582031,2|0,1:2|0:0,0:0:0:0:
354,171,19216,2,0,P|356:116|324:72,1,111.999996582031,2|0,1:2|0:0,0:0:0:0:
256,80,19547,2,0,B|236:128|280:128|256:192,1,111.999996582031,2|0,1:2|0:0,0:0:0:0:
256,252,19878,1,2,1:2:0:0:
136,328,20098,1,6,0:0:0:0:
136,328,20319,6,0,L|216:328,1,80,0|2,0:0|0:0,0:0:0:0:
376,328,20981,2,0,L|256:328,1,120,0|2,0:0|0:0,0:0:0:0:
256,328,21863,1,4,0:0:0:0:
256,328,22084,6,0,P|257:287|240:244,1,80,2|0,0:0|1:2,0:0:0:0:
164,324,22525,2,0,P|154:284|126:248,1,80,2|0,0:0|1:2,0:0:0:0:
84,192,22966,1,2,0:0:0:0:
68,192,23076,1,0,1:2:0:0:
176,192,23297,1,0,1:2:0:0:
192,192,23407,1,2,0:0:0:0:
163,60,23628,6,0,P|154:98|131:131,1,80,0|2,1:2|0:0,0:0:0:0:
256,56,24069,2,0,P|257:95|244:133,1,80,0|2,1:2|0:0,0:0:0:0:
236,148,24400,1,0,1:2:0:0:
236,236,24620,1,0,1:2:0:0:
244,251,24731,1,2,0:0:0:0:
316,192,24951,2,0,L|368:192,3,40
300,192,25392,1,0,1:2:0:0:
328,108,25613,6,0,P|336:72|328:16,1,80,2|0,0:0|1:2,0:0:0:0:
416,132,26054,2,0,P|433:99|439:43,1,80,2|0,0:0|1:2,0:0:0:0:
456,192,26495,1,2,0:0:0:0:
472,192,26605,1,0,1:2:0:0:
364,192,26826,1,0,1:2:0:0:
348,192,26936,1,2,0:0:0:0:
440,326,27157,2,0,P|434:287|416:252,1,80,0|2,1:2|0:0,0:0:0:0:
332,354,27598,2,0,P|336:314|328:276,1,80,0|2,1:2|0:0,0:0:0:0:
320,256,27929,1,0,0:2:0:0:
228,232,28150,1,0,0:0:0:0:
208,232,28260,6,0,L|128:232,2,80,0|2|0,0:0|0:0|0:0,0:0:0:0:
304,232,28922,2,0,L|384:232,1,80,0|0,1:0|0:0,0:0:0:0:
412,232,29253,2,0,L|412:148,1,80,0|0,1:2|0:2,0:0:0:0:
412,152,29584,1,0,1:2:0:0:
360,64,29804,1,0,1:2:0:0:
304,152,30025,1,0,0:0:0:0:
256,64,30245,1,0,1:2:0:0:
208,152,30466,1,0,0:0:0:0:
152,64,30686,2,0,L|72:64,1,80,2|0,1:2|0:0,0:0:0:0:
44,64,31017,2,0,L|44:148,1,80,0|0,0:0|0:0,0:0:0:0:
44,192,31348,5,0,0:0:0:0:
44,216,31459,1,0,0:0:0:0:
44,240,31569,1,2,0:0:0:0:
64,328,31789,1,0,0:0:0:0:
160,360,32010,1,2,0:0:0:0:
256,320,32231,2,0,L|304:320,1,40
320,320,32451,1,6,1:2:0:0:
412,192,32672,6,0,L|412:108,1,80,0|2,0:0|1:2,0:0:0:0:
100,112,33334,2,0,L|100:244,1,120,0|2,1:2|0:0,0:0:0:0:
336,348,34436,6,0,L|256:348,1,80,0|2,0:0|0:0,0:0:0:0:
176,36,35098,2,0,L|256:36,1,80,0|2,0:0|0:0,0:0:0:0:
288,36,35429,2,0,P|260:104|192:108,1,120,0|0,0:0|0:0,0:0:0:0:
256,192,35981,1,4,0:0:0:0:
220,280,36201,6,0,B|192:300|208:316|176:344,1,80,2|0,0:0|1:2,0:0:0:0:
116,268,36642,2,0,B|82:274|89:295|49:307,1,80,2|0,0:0|1:2,0:0:0:0:
24,200,37084,1,2,0:0:0:0:
24,184,37194,1,0,1:2:0:0:
112,192,37414,1,0,1:2:0:0:
132,192,37524,1,2,0:0:0:0:
116,116,37745,2,0,B|82:109|89:88|49:76,1,80,0|2,1:2|0:0,0:0:0:0:
220,104,38186,2,0,B|192:84|208:68|176:40,1,80,0|2,1:2|0:0,0:0:0:0:
164,24,38517,1,0,0:2:0:0:
256,0,38738,1,0,0:0:0:0:
256,192,39069,2,0,L|304:192,3,40
316,192,39510,1,0,1:2:0:0:
292,280,39731,6,0,B|320:300|304:316|336:344,1,80,2|0,0:0|1:2,0:0:0:0:
396,268,40172,2,0,B|429:274|422:295|462:307,1,80,2|0,0:0|1:2,0:0:0:0:
488,200,40614,1,2,0:0:0:0:
488,184,40724,1,0,1:2:0:0:
400,192,40944,1,0,1:2:0:0:
380,192,41054,1,2,0:0:0:0:
396,116,41275,2,0,B|429:109|422:88|462:76,1,80,0|2,1:2|0:0,0:0:0:0:
292,104,41716,2,0,B|320:84|304:68|336:40,1,80,0|2,1:2|0:0,0:0:0:0:
348,24,42047,1,0,0:0:0:0:
256,24,42268,1,0,0:0:0:0:
236,24,42378,6,0,L|152:24,2,80,0|2|0,0:0|0:0|0:0,0:0:0:0:
184,132,43039,2,0,P|204:168|238:190,1,80,6|0,1:2|0:2,0:2:0:0:
276,189,43370,2,0,P|309:166|328:132,1,80,0|0,1:2|1:2,0:0:0:0:
344,100,43701,1,0,0:2:0:0:
376,192,43922,1,0,1:2:0:0:
300,252,44142,1,0,0:0:0:0:
212,252,44363,1,0,1:2:0:0:
136,192,44584,1,0,0:0:0:0:
168,100,44804,2,0,P|208:88|252:100,1,80,2|0,0:0|0:0,0:0:0:0:
267,95,45135,2,0,P|306:88|344:100,1,80,0|0,0:0|0:0,0:0:0:0:
364,116,45466,5,0,0:0:0:0:
324,192,45686,1,0,0:0:0:0:
364,268,45907,1,0,0:0:0:0:
284,320,46128,2,0,L|284:336,6,13.3333333333333,2|0|0|0|0|0|0,0:0|0:0|0:0|0:0|0:0|0:0|0:0,0:0:0:0:
204,268,46569,5,4,1:2:0:0:
172,192,46789,2,0,P|135:176|113:143,1,80,0|2,0:0|1:2,0:0:0:0:
340,192,47451,2,0,P|376:207|408:288,1,120,0|2,1:2|0:0,0:0:0:0:
398,143,48554,6,0,P|376:176|340:192,1,80,0|2,0:0|1:2,0:0:0:0:
102,276,49216,2,0,P|121:221|172:192,1,120,0|2,1:2|0:0,0:0:0:0:
200,192,49657,2,0,L|248:192,1,40,0|0,1:0|0:0,0:0:0:0:
256,76,50098,5,4,1:2:0:0:
372,192,50539,1,0,1:2:0:0:
256,308,50981,1,0,1:2:0:0:
140,192,51422,1,0,1:2:0:0:
324,124,51863,5,0,1:2:0:0:
188,124,52304,1,0,1:2:0:0:
188,260,52745,1,0,1:2:0:0:
324,260,53186,1,0,1:2:0:0:
372,192,53407,1,2,0:0:0:0:
372,176,53517,1,0,0:0:0:0:
372,160,53628,5,0,1:2:0:0:
288,308,54069,1,0,1:2:0:0:
140,224,54510,1,0,1:2:0:0:
224,76,54951,1,0,1:2:0:0:
360,251,55392,5,0,1:2:0:0:
196,296,55833,1,0,1:2:0:0:
151,132,56274,1,0,1:2:0:0:
315,87,56715,1,0,1:2:0:0:
315,297,57157,5,0,1:2:0:0:
256,204,57378,1,0,0:0:0:0:
197,297,57598,1,0,1:2:0:0:
256,216,57819,1,0,0:0:0:0:
164,192,58039,1,0,1:2:0:0:
256,228,58260,1,0,0:0:0:0:
348,192,58481,1,0,1:2:0:0:
256,240,58701,1,0,0:0:0:0:
256,144,58922,5,0,1:2:0:0:
164,192,59142,1,0,0:0:0:0:
256,156,59363,1,0,1:2:0:0:
197,87,59584,1,0,0:0:0:0:
256,168,59804,1,0,1:2:0:0:
315,87,60025,1,0,0:0:0:0:
256,180,60245,1,0,1:2:0:0:
348,192,60466,1,0,0:0:0:0:
348,192,60576,1,0,0:0:0:0:
348,192,60686,5,0,1:2:0:0:
256,104,60907,1,0,0:0:0:0:
164,192,61128,1,0,1:2:0:0:
256,280,61348,1,0,0:0:0:0:
200,132,61569,5,0,1:2:0:0:
200,252,61789,1,0,0:0:0:0:
312,252,62010,1,0,1:2:0:0:
312,132,62231,1,0,0:0:0:0:
164,192,62451,6,0,L|116:192,3,40,0|0|0|0,1:2|1:2|1:2|1:2,1:2:0:0:
184,192,62892,2,0,L|184:272,1,80
348,192,63334,6,0,L|396:192,3,40,0|0|0|0,1:2|1:2|1:2|1:2,1:2:0:0:
328,192,63775,1,0,1:2:0:0:
184,192,63995,1,0,0:0:0:0:
320,280,64436,5,0,0:0:0:0:
320,280,64657,1,2,0:0:0:0:
192,104,65098,5,0,0:0:0:0:
192,104,65319,1,2,0:0:0:0:
256,276,65760,5,0,0:0:0:0:
168,256,65981,2,0,L|168:144,1,80,2|0,0:0|0:0,0:0:0:0:
192,104,66422,2,0,L|272:104,1,80,2|0,0:0|0:0,0:0:0:0:
344,128,66863,2,0,L|344:240,1,80,2|0,0:0|0:0,0:0:0:0:
320,280,67304,2,0,L|208:280,1,80,6|0,0:0|0:0,0:0:0:0:
116,284,67745,6,0,P|44:264|24:220,1,95.9999970703126,6|0,1:2|0:0,0:0:0:0:
33,134,68186,2,0,P|68:102|116:100,1,95.9999970703126,2|0,1:2|0:0,0:0:0:0:
184,192,68628,2,0,L|288:192,1,95.9999970703126,2|0,1:2|0:0,0:0:0:0:
336,192,68959,1,2,1:2:0:0:
480,152,69289,6,0,P|504:192|480:232,1,95.9999970703126,2|2,1:2|1:2,0:0:0:0:
384,296,69731,1,0,0:0:0:0:
336,192,69951,1,2,1:2:0:0:
256,272,70172,1,0,0:0:0:0:
176,192,70392,1,2,1:2:0:0:
128,296,70613,1,2,0:0:0:0:
30,231,70834,2,0,P|8:191|32:152,2,95.9999970703126,0|2|2,1:2|1:2|1:2,0:0:0:0:
112,192,71495,5,0,0:0:0:0:
208,192,71716,1,2,1:2:0:0:
304,192,71936,1,0,0:0:0:0:
400,192,72157,2,0,L|400:76,1,95.9999970703126,2|0,1:2|0:0,0:0:0:0:
304,192,72598,1,2,1:2:0:0:
208,288,72819,6,0,L|208:192,1,95.9999970703126,2|0,1:2|0:0,0:0:0:0:
208,96,73260,2,0,L|208:192,1,95.9999970703126,2|2,1:2|1:2,0:0:0:0:
112,192,73701,2,0,L|208:192,1,95.9999970703126,0|2,0:0|1:2,0:0:0:0:
304,192,74142,1,0,0:0:0:0:
341,285,74363,2,0,B|391:271|389:298|435:285,1,95.9999970703126,6|0,1:2|0:0,0:0:0:0:
436,192,74804,6,0,P|444:248|432:296,1,95.9999970703126,4|0,1:2|0:0,0:0:0:0:
436,192,75245,2,0,P|428:136|440:88,1,95.9999970703126,2|0,1:2|0:0,0:0:0:0:
352,192,75686,2,0,L|224:192,1,95.9999970703126,2|0,1:2|0:0,0:0:0:0:
208,192,76017,1,2,1:2:0:0:
30,231,76348,6,0,P|8:191|32:152,1,95.9999970703126,2|2,1:2|1:2,0:0:0:0:
132,192,76789,1,0,0:0:0:0:
196,104,77010,1,2,1:2:0:0:
256,192,77231,1,0,0:0:0:0:
316,280,77451,1,2,1:2:0:0:
380,192,77672,1,2,0:2:0:0:
316,104,77892,2,0,B|284:208|240:156|188:292,1,191.999994140625,2|2,1:2|1:2,0:0:0:0:
168,352,78554,5,0,0:0:0:0:
256,312,78775,1,2,1:2:0:0:
344,352,78995,1,0,0:0:0:0:
388,260,79216,2,0,B|352:232|372:208|324:184,1,95.9999970703126,2|0,1:2|0:0,0:0:0:0:
256,108,79657,1,2,1:2:0:0:
182,186,79878,6,0,B|140:208|160:232|124:260,1,95.9999970703126,2|0,1:2|0:0,0:0:0:0:
256,256,80319,2,0,B|240:304|280:304|256:348,1,95.9999970703126,2|2,1:2|1:2,0:0:0:0:
329,186,80760,2,0,B|372:208|352:232|388:260,1,95.9999970703126,0|2,0:0|1:2,0:0:0:0:
256,108,81201,1,0,0:0:0:0:
256,16,81422,2,0,B|280:60|240:60|256:108,1,95.9999970703126,6|0,1:2|0:0,0:0:0:0:
196,208,81863,6,0,P|256:174|316:208,1,143.999995605469,0|0,1:2|0:0,0:0:0:0:
376,188,82304,2,0,L|376:288,1,95.9999970703126,2|0,1:2|0:0,0:0:0:0:
256,240,82745,1,2,1:2:0:0:
136,284,82966,2,0,L|136:188,1,95.9999970703126,2|0,0:0|0:0,0:0:0:0:
16,192,83407,1,2,1:2:0:0:
196,308,83848,5,0,0:0:0:0:
196,308,84069,1,2,0:0:0:0:
316,76,84510,5,2,0:0:0:0:
316,76,84731,1,0,0:0:0:0:
496,192,85172,5,0,0:0:0:0:
496,192,85282,1,0,0:0:0:0:
496,192,85392,2,0,L|372:192,1,95.9999970703126,2|2,1:2|0:0,0:0:0:0:
400,192,85834,6,0,L|220:192,1,143.999995605469,4|0,1:2|0:0,0:0:0:0:
224,224,86275,2,0,P|160:232|116:212,1,95.9999970703126,2|0,1:2|0:0,1:2:0:0:
131,162,86606,2,0,P|177:150|224:160,1,95.9999970703126,2|0,1:2|0:2,0:0:0:0:
256,192,86936,1,2,1:2:0:0:
256,32,87267,5,0,0:0:0:0:
256,32,87378,2,0,L|256:92,5,47.9999985351563,2|0|0|0|0|0,0:0|0:0|0:0|0:0|0:0|0:0,0:0:0:0:
256,116,88039,5,2,0:0:0:0:
256,192,88260,1,0,0:0:0:0:
256,352,88922,6,0,L|256:192,1,160,0|0,1:2|1:2,0:0:0:0:
256,84,89584,1,2,0:0:0:0:
336,40,89804,2,0,P|364:84|336:144,1,120,0|2,1:2|1:2,0:0:0:0:
174,221,90466,2,0,P|131:283|176:344,1,160,0|2,1:2|0:2,0:0:0:0:
256,300,91128,1,0,1:2:0:0:
336,343,91348,2,0,P|380:283|337:221,1,160,2|2,0:0|1:2,0:0:0:0:
256,192,92010,2,0,L|256:152,4,40,0|0|0|0|0,0:0|0:0|0:0|0:0|1:2,0:0:0:0:
184,80,92672,6,0,L|112:168,1,80,2|0,0:0|1:2,0:0:0:0:
328,80,93334,2,0,L|424:200,1,120,0|2,1:2|1:2,0:0:0:0:
133,242,94436,6,0,L|184:304,1,80,2|0,0:0|1:2,0:0:0:0:
402,210,95098,2,0,L|328:304,1,120,0|0,0:2|0:0,0:0:0:0:
304,332,95539,1,0,1:2:0:0:
184,48,95981,6,0,P|155:120|184:192,1,160,4|0,1:2|1:2,0:0:0:0:
256,120,96642,1,2,0:0:0:0:
336,176,96863,2,0,P|353:101|336:64,1,120,0|2,1:2|1:2,0:0:0:0:
184,191,97525,2,0,P|155:263|184:336,1,160,2|2,1:2|0:0,0:0:0:0:
256,264,98186,1,0,1:2:0:0:
327,191,98407,2,0,P|356:263|328:335,1,160,2|2,0:0|0:0,0:0:0:0:
256,264,99069,2,0,L|256:224,4,40,0|0|0|0|0,0:0|0:0|0:0|0:0|1:2,0:0:0:0:
180,192,99731,6,0,L|88:192,1,80,2|0,0:0|1:2,0:0:0:0:
332,192,100392,2,0,L|464:192,1,120,0|2,1:2|1:2,0:0:0:0:
256,192,101495,6,0,L|256:100,1,80,0|2,0:0|0:0,0:0:0:0:
256,192,102157,2,0,L|256:312,1,120,0|2,0:0|0:0,0:0:0:0:
