osu file format v14

[General]
AudioFilename: audio.mp3
AudioLeadIn: 0
PreviewTime: 65650
Countdown: 0
SampleSet: Soft
StackLeniency: 0.4
Mode: 0
LetterboxInBreaks: 0
WidescreenStoryboard: 1

[Editor]
DistanceSpacing: 1.2
BeatDivisor: 4
GridSize: 4
TimelineZoom: 5.299997

[Metadata]
Title:Guilty Eyes Fever
TitleUnicode:Guilty Eyes Fever
Artist:Guilty Kiss
ArtistUnicode:Guilty Kiss
Creator:Cris-
Version:Hard
Source:Love Live! Sunshine!!
Tags:Rin Desu Parachute wolf3211 ラブライブ!サンシャイン!! School Idol Project Aqours Mari Ohara 小原鞠莉 Aina Suzuki 鈴木愛奈 Riko Sakurauchi 桜内梨子 Rikako Aida 逢田梨香子 Yoshiko Tsushima 津島善子 Aika Kobayashi 小林愛香 Japanese Pop J-Pop Anime
BeatmapID:2103542
BeatmapSetID:864242

[Difficulty]
HPDrainRate:5
CircleSize:4
OverallDifficulty:6
ApproachRate:7
SliderMultiplier:1.5
SliderTickRate:1

[Events]
//Background and Video events
0,0,"Guilty Kiss.png",0,0
//Break Periods
//Storyboard Layer 0 (Background)
//Storyboard Layer 1 (Fail)
//Storyboard Layer 2 (Pass)
//Storyboard Layer 3 (Foreground)
//Storyboard Layer 4 (Overlay)
//Storyboard Sound Samples

[TimingPoints]
687,441.176470588235,4,2,1,50,1,0
5981,-100,4,2,1,55,0,0
7304,-100,4,2,1,60,0,0
7745,-100,4,2,1,80,0,0
20098,-100,4,2,1,60,0,0
21863,-100,4,2,1,50,0,0
28922,-100,4,2,1,70,0,0
31128,-100,4,2,1,50,0,0
32451,-100,4,2,1,60,0,0
35539,-100,4,2,1,50,0,0
35981,-100,4,2,1,60,0,0
43039,-100,4,2,1,70,0,0
45466,-100,4,2,1,50,0,0
46569,-100,4,2,1,60,0,0
49657,-100,4,2,1,50,0,0
50098,-100,4,2,1,55,0,0
57157,-100,4,2,1,60,0,0
60686,-100,4,2,1,65,0,0
62451,-100,4,2,1,50,0,0
63775,-100,4,2,1,70,0,0
64216,-100,4,2,1,50,0,0
65981,-100,4,2,1,50,0,0
66311,-100,4,2,1,5,0,0
66422,-100,4,2,1,55,0,0
66753,-100,4,2,1,5,0,0
66863,-100,4,2,1,60,0,0
67194,-100,4,2,1,5,0,0
67304,-100,4,2,1,65,0,0
67635,-100,4,2,1,5,0,0
67745,-100,4,2,1,80,0,1
74363,-100,4,2,1,70,0,0
74804,-100,4,2,1,80,0,1
81422,-100,4,2,1,70,0,0
81863,-100,4,2,1,80,0,1
88922,-100,4,2,1,70,0,0
95539,-100,4,2,1,60,0,0
95981,-100,4,2,1,70,0,0
101275,-100,4,2,1,50,0,0
102709,-100,4,2,1,25,0,0

[Colours]
Combo1 : 168,81,255
Combo2 : 249,49,49
Combo3 : 236,210,34
Combo4 : 108,112,232

[HitObjects]
220,340,687,6,0,P|256:348|292:340,1,75,2|0,0:0|0:0,0:0:0:0:
292,248,1128,2,0,P|255:240|219:248,1,75,2|0,0:0|0:0,0:0:0:0:
144,300,1569,2,0,P|128:248|144:194,1,112.5,2|2,0:0|0:0,0:0:0:0:
144,194,2451,6,0,L|70:186,1,75,2|0,0:0|0:0,0:0:0:0:
80,96,2892,2,0,L|154:104,1,75,2|0,0:0|0:0,0:0:0:0:
228,156,3334,2,0,B|280:180|280:180|329:156,1,112.5,2|2,0:0|0:0,0:0:0:0:
330,156,4216,6,0,P|366:148|402:157,1,75,2|0,0:0|0:0,0:0:0:0:
402,248,4657,2,0,P|365:256|329:248,1,75,2|0,0:0|0:0,0:0:0:0:
254,196,5098,2,0,P|238:248|254:302,1,112.5,2|2,0:0|0:0,0:0:0:0:
364,384,5760,1,2,0:0:0:0:
440,332,5981,6,0,L|444:295,3,37.5,2|0|0|0,0:0|0:0|0:0|0:0,0:0:0:0:
452,248,6422,2,0,L|448:211,3,37.5,2|0|0|0,0:0|0:0|0:0|0:0,0:0:0:0:
440,168,6863,2,0,L|444:131,3,37.5,2|0|0|0,0:0|0:0|0:0|0:0,0:0:0:0:
452,88,7304,2,0,L|340:76,1,112.5,12|0,0:0|0:0,0:0:0:0:
296,72,7745,6,0,L|288:146,1,75,12|2,0:0|0:0,0:0:0:0:
196,146,8186,2,0,L|188:72,1,75,8|2,0:0|0:0,0:0:0:0:
96,72,8628,2,0,L|88:146,1,75,8|2,0:0|0:0,0:0:0:0:
84,192,8959,1,2,0:0:0:0:
84,192,9069,1,8,0:0:0:0:
144,260,9289,1,2,0:0:0:0:
204,192,9510,6,0,P|240:184|276:192,1,75,8|2,0:0|0:0,0:0:0:0:
336,260,9951,2,0,P|372:268|408:260,1,75,8|2,0:0|0:0,0:0:0:0:
468,192,10392,2,0,L|460:118,1,75,8|2,0:0|0:0,0:0:0:0:
456,72,10723,1,2,0:0:0:0:
456,72,10834,2,0,B|402:52|402:92|347:72,1,112.5,10|2,0:0|0:0,0:0:0:0:
304,56,11275,6,0,P|268:48|232:56,1,75,8|2,0:0|0:0,0:0:0:0:
232,148,11716,2,0,P|268:156|304:148,1,75,8|2,0:0|0:0,0:0:0:0:
304,56,12157,2,0,P|268:48|232:56,1,75,8|2,0:0|0:0,0:0:0:0:
188,76,12488,1,2,0:0:0:0:
188,76,12598,2,0,P|152:84|116:76,1,75,8|2,0:0|0:0,0:0:0:0:
76,56,12929,1,2,0:0:0:0:
76,56,13039,6,0,P|40:48|4:56,1,75,8|2,0:0|0:0,0:0:0:0:
3,147,13481,2,0,P|40:155|76:147,1,75,8|2,0:0|0:0,0:0:0:0:
160,112,13922,2,0,P|168:148|160:184,1,75,8|2,0:0|0:0,0:0:0:0:
136,224,14253,2,0,P|120:276|136:330,1,112.5,2|2,0:0|0:0,0:0:0:0:
160,368,14694,1,2,0:0:0:0:
160,368,14804,6,0,L|234:360,1,75,12|2,0:0|0:0,0:0:0:0:
324,360,15245,2,0,L|398:368,1,75,8|2,0:0|0:0,0:0:0:0:
488,376,15686,2,0,P|496:340|488:304,1,75,8|2,0:0|0:0,0:0:0:0:
476,260,16018,1,2,0:0:0:0:
476,260,16128,1,8,0:0:0:0:
412,196,16348,1,2,0:0:0:0:
348,260,16569,6,0,B|313:272|313:272|278:260,1,75,8|2,0:0|0:0,0:0:0:0:
212,196,17010,2,0,B|200:161|200:161|212:126,1,75,8|2,0:0|0:0,0:0:0:0:
276,60,17451,2,0,B|311:48|311:48|346:60,1,75,8|2,0:0|0:0,0:0:0:0:
388,76,17782,1,2,0:0:0:0:
388,76,17893,2,0,B|396:112|396:112|380:148|380:148|388:183,1,112.5,10|2,0:0|0:0,0:0:0:0:
400,228,18334,6,0,L|392:302,1,75,8|2,0:0|0:0,0:0:0:0:
300,302,18775,2,0,L|292:228,1,75,8|2,0:0|0:0,0:0:0:0:
200,228,19216,2,0,L|192:302,1,75,8|2,0:0|0:0,0:0:0:0:
168,340,19547,1,2,0:0:0:0:
168,340,19657,2,0,P|132:348|96:340,1,75,8|2,0:0|0:0,0:0:0:0:
64,304,19988,1,2,0:0:0:0:
64,304,20098,6,0,L|56:230,1,75,12|2,0:0|0:0,0:0:0:0:
44,140,20539,2,0,L|81:136,3,37.5,2|2|2|2,0:0|0:0|0:0|0:0,0:0:0:0:
128,136,20981,2,0,L|165:140,1,37.5,2|2,0:0|0:0,0:0:0:0:
252,116,21311,1,2,0:0:0:0:
252,116,21422,2,0,B|272:170|232:170|252:225,1,112.5,2|0,0:0|0:0,0:0:0:0:
264,268,21863,6,0,L|338:260,1,75,4|2,0:0|0:0,0:0:0:0:
348,348,22304,2,0,L|274:356,1,75,8|2,0:0|0:0,0:0:0:0:
188,324,22745,2,0,L|114:332,1,75,8|2,0:0|0:0,0:0:0:0:
68,336,23076,1,2,0:0:0:0:
68,336,23186,2,0,P|60:300|68:264,1,75,8|2,0:0|0:0,0:0:0:0:
128,196,23628,5,8,0:0:0:0:
188,264,23848,1,2,0:0:0:0:
248,196,24069,2,0,P|284:188|320:196,1,75,8|2,0:0|0:0,0:0:0:0:
360,220,24400,1,2,0:0:0:0:
360,220,24510,2,0,P|396:228|432:220,1,75,8|2,0:0|0:0,0:0:0:0:
500,160,24951,2,0,L|496:123,3,37.5,2|2|2|2,0:0|0:0|0:0|0:0,0:0:0:0:
492,76,25392,6,0,L|418:84,1,75,8|2,0:0|0:0,0:0:0:0:
332,48,25834,2,0,P|324:84|332:120,1,75,8|2,0:0|0:0,0:0:0:0:
392,188,26275,2,0,P|400:224|392:260,1,75,8|2,0:0|0:0,0:0:0:0:
380,304,26606,1,2,0:0:0:0:
380,304,26716,2,0,P|344:312|308:304,1,75,8|2,0:0|0:0,0:0:0:0:
244,240,27157,5,8,0:0:0:0:
180,304,27378,1,2,0:0:0:0:
116,240,27598,2,0,P|108:204|117:168,1,75,8|2,0:0|0:0,0:0:0:0:
132,124,27929,1,2,0:0:0:0:
132,124,28922,6,0,P|184:140|238:124,1,112.5,4|0,0:0|0:0,0:0:0:0:
276,100,29363,2,0,P|312:92|348:100,1,75,8|2,0:0|0:0,0:0:0:0:
412,164,29804,1,8,0:0:0:0:
476,100,30025,1,2,0:0:0:0:
412,36,30245,1,8,0:0:0:0:
348,100,30466,1,2,0:0:0:0:
412,164,30686,6,0,B|380:236|444:236|412:308,1,150,8|0,0:0|0:0,0:0:0:0:
348,372,31348,1,2,0:0:0:0:
348,372,31459,1,2,0:0:0:0:
348,372,31569,2,0,P|312:380|276:372,1,75,2|2,0:0|0:0,0:0:0:0:
208,308,32010,2,0,P|172:300|136:308,1,75,2|2,0:0|0:0,0:0:0:0:
92,324,32341,1,2,0:0:0:0:
92,324,32451,6,0,L|18:316,1,75,4|2,0:0|0:0,0:0:0:0:
28,228,32892,2,0,L|102:236,1,75,8|2,0:0|0:0,0:0:0:0:
176,288,33334,2,0,P|192:236|176:182,1,112.5,8|0,0:0|0:0,0:0:0:0:
152,144,33775,2,0,P|144:108|152:72,1,75,8|2,0:0|0:0,0:0:0:0:
220,12,34216,5,8,0:0:0:0:
220,12,35539,2,0,B|228:48|228:48|212:84|212:84|220:119,1,112.5,2|0,0:0|0:0,0:0:0:0:
228,164,35981,6,0,L|302:156,1,75,4|2,0:0|0:0,0:0:0:0:
312,244,36422,2,0,L|238:252,1,75,8|2,0:0|0:0,0:0:0:0:
252,340,36863,2,0,L|326:332,1,75,8|2,0:0|0:0,0:0:0:0:
372,332,37194,1,2,0:0:0:0:
372,332,37304,2,0,L|446:340,1,75,8|2,0:0|0:0,0:0:0:0:
500,264,37746,5,8,0:0:0:0:
444,192,37966,1,2,0:0:0:0:
500,120,38187,2,0,P|508:84|500:48,1,75,8|2,0:0|0:0,0:0:0:0:
484,4,38517,1,2,0:0:0:0:
484,4,39069,2,0,L|447:8,3,37.5,2|2|2|2,0:0|0:0|0:0|0:0,0:0:0:0:
400,8,39510,6,0,L|326:0,1,75,8|2,0:0|0:0,0:0:0:0:
316,88,39951,2,0,L|390:96,1,75,8|2,0:0|0:0,0:0:0:0:
376,184,40392,2,0,L|302:176,1,75,8|2,0:0|0:0,0:0:0:0:
256,176,40723,1,2,0:0:0:0:
256,176,40833,2,0,L|182:184,1,75,8|2,0:0|0:0,0:0:0:0:
120,252,41275,5,8,0:0:0:0:
60,184,41496,1,2,0:0:0:0:
120,116,41716,2,0,B|132:81|132:81|120:46,1,75,8|2,0:0|0:0,0:0:0:0:
104,4,42047,1,2,0:0:0:0:
104,4,43039,6,0,B|140:12|140:12|176:-4|176:-4|211:4,1,112.5,4|0,0:0|0:0,0:0:0:0:
256,20,43480,2,0,P|264:56|256:92,1,75,8|2,0:0|0:0,0:0:0:0:
192,156,43922,1,8,0:0:0:0:
256,220,44143,1,2,0:0:0:0:
320,156,44363,1,8,0:0:0:0:
256,93,44584,1,2,0:0:0:0:
192,156,44804,6,0,B|152:156|128:188|128:188|104:156|63:156,1,150,8|0,0:0|0:0,0:0:0:0:
8,228,45466,1,2,0:0:0:0:
64,300,45687,2,0,P|100:308|136:300,1,75,2|2,0:0|0:0,0:0:0:0:
192,228,46128,2,0,L|192:216,6,12.5,2|0|2|0|2|0|2,0:0|0:0|0:0|0:0|0:0|0:0|0:0,0:0:0:0:
248,300,46569,6,0,P|284:308|320:300,1,75,4|2,0:0|0:0,0:0:0:0:
376,228,47010,2,0,P|384:192|376:156,1,75,8|2,0:0|0:0,0:0:0:0:
320,84,47451,2,0,P|268:68|214:84,1,112.5,8|0,0:0|0:0,0:0:0:0:
176,108,47892,2,0,P|168:144|176:180,1,75,8|2,0:0|0:0,0:0:0:0:
240,248,48334,5,8,0:0:0:0:
176,312,48554,1,2,0:0:0:0:
112,248,48775,2,0,L|38:240,1,75,8|2,0:0|0:0,0:0:0:0:
44,148,49216,2,0,L|155:161,1,112.5,8|2,0:0|0:0,0:0:0:0:
200,160,49657,2,0,L|274:152,1,75,8|2,3:0|0:0,0:0:0:0:
340,88,50098,6,0,P|372:148|340:217,1,150,4|8,0:0|3:0,0:0:0:0:
164,151,50981,2,0,P|228:118|293:151,1,150,8|8,3:0|3:0,0:0:0:0:
228,328,51863,2,0,P|196:268|228:199,1,150,8|8,3:0|3:0,0:0:0:0:
404,265,52746,2,0,P|339:297|274:264,1,150,8|8,3:0|3:0,0:0:0:0:
340,88,53628,6,0,L|489:72,1,150,8|8,3:0|3:0,0:0:0:0:
504,252,54510,2,0,L|355:268,1,150,8|8,3:0|3:0,0:0:0:0:
176,268,55392,2,0,L|27:252,1,150,8|8,3:0|3:0,0:0:0:0:
42,72,56274,2,0,L|191:88,1,150,8|8,3:0|3:0,0:0:0:0:
184,176,56936,1,2,0:0:0:0:
184,176,57047,1,0,3:0:0:0:
184,176,57157,6,0,L|35:160,1,150,8|8,3:0|3:0,0:0:0:0:
20,344,58039,2,0,L|94:352,1,75,8|2,3:0|0:0,0:0:0:0:
102,260,58481,2,0,L|28:252,1,75,8|2,3:0|0:0,0:0:0:0:
35,160,58922,6,0,L|109:168,1,75,8|2,3:0|0:0,0:0:0:0:
200,177,59363,1,8,3:0:0:0:
191,268,59584,1,2,0:0:0:0:
102,260,59804,2,0,L|28:252,1,75,8|2,3:0|0:0,0:0:0:0:
35,160,60245,1,8,3:0:0:0:
42,72,60466,1,2,0:0:0:0:
42,72,60576,1,2,0:0:0:0:
42,72,60686,6,0,L|191:88,1,150,8|8,3:0|3:0,0:0:0:0:
264,140,61348,1,2,0:0:0:0:
340,88,61569,2,0,L|489:72,1,150,8|8,3:0|3:0,0:0:0:0:
496,160,62231,1,2,0:0:0:0:
504,248,62451,5,8,3:0:0:0:
256,192,62561,12,8,63775,0:0:0:0:
204,108,65981,6,0,B|256:88|256:88|308:109,1,112.5,2|0,0:0|0:0,0:0:0:0:
344,140,66422,2,0,B|364:192|364:192|343:244,1,112.5,2|0,0:0|0:0,0:0:0:0:
308,276,66863,2,0,B|256:296|256:296|204:275,1,112.5,2|0,0:0|0:0,0:0:0:0:
168,244,67304,2,0,B|148:192|148:192|169:140,1,112.5,8|0,0:0|0:0,0:0:0:0:
204,108,67745,6,0,L|196:34,1,75,12|2,0:0|0:0,0:0:0:0:
104,34,68186,2,0,L|96:108,1,75,8|2,0:0|0:0,0:0:0:0:
60,192,68628,2,0,P|96:200|132:192,1,75,8|2,0:0|0:0,0:0:0:0:
176,176,68959,1,2,0:0:0:0:
176,176,69069,1,8,0:0:0:0:
248,232,69289,6,0,L|240:306,1,75,2|8,0:0|0:0,0:0:0:0:
176,372,69731,1,2,0:0:0:0:
116,304,69951,2,0,L|108:230,1,75,8|2,0:0|0:0,0:0:0:0:
176,176,70392,2,0,P|184:140|176:104,1,75,8|2,0:0|0:0,0:0:0:0:
160,60,70723,1,2,0:0:0:0:
160,60,70834,2,0,L|234:52,1,75,8|2,0:0|0:0,0:0:0:0:
324,44,71275,6,0,L|332:118,1,75,8|2,0:0|0:0,0:0:0:0:
340,208,71716,1,8,0:0:0:0:
252,216,71936,1,2,0:0:0:0:
243,126,72157,2,0,L|235:52,1,75,8|2,0:0|0:0,0:0:0:0:
232,8,72488,1,2,0:0:0:0:
232,8,72598,1,8,0:0:0:0:
144,16,72819,6,0,L|70:24,1,75,2|8,0:0|0:0,0:0:0:0:
4,88,73260,1,2,0:0:0:0:
72,148,73481,1,8,0:0:0:0:
4,208,73701,2,0,B|-8:243|-8:243|4:278,1,75,2|8,0:0|0:0,0:0:0:0:
72,340,74142,1,2,0:0:0:0:
136,278,74363,2,0,B|148:243|148:243|136:208,1,75,2|0,0:0|0:0,0:0:0:0:
72,148,74804,6,0,L|80:74,1,75,12|2,0:0|0:0,0:0:0:0:
172,74,75245,2,0,L|180:148,1,75,8|2,0:0|0:0,0:0:0:0:
272,148,75686,2,0,L|280:74,1,75,8|2,0:0|0:0,0:0:0:0:
283,30,76017,1,2,0:0:0:0:
283,30,76127,1,8,0:0:0:0:
371,38,76348,6,0,L|445:46,1,75,2|8,0:0|0:0,0:0:0:0:
511,110,76789,1,2,0:0:0:0:
432,156,77010,2,0,L|358:148,1,75,8|2,0:0|0:0,0:0:0:0:
344,236,77451,2,0,L|418:244,1,75,8|2,0:0|0:0,0:0:0:0:
464,252,77782,1,2,0:0:0:0:
464,252,77892,2,0,L|456:326,1,75,8|2,0:0|0:0,0:0:0:0:
448,372,78223,1,2,0:0:0:0:
448,372,78334,6,0,L|374:364,1,75,8|2,0:0|0:0,0:0:0:0:
300,308,78775,1,8,0:0:0:0:
228,364,78995,1,2,0:0:0:0:
156,308,79216,2,0,P|148:272|156:236,1,75,8|2,0:0|0:0,0:0:0:0:
168,192,79547,1,2,0:0:0:0:
168,192,79657,1,8,0:0:0:0:
228,124,79878,6,0,B|263:112|263:112|298:124,1,75,2|8,0:0|0:0,0:0:0:0:
360,192,80319,1,2,0:0:0:0:
420,124,80540,1,8,0:0:0:0:
480,192,80760,2,0,B|492:227|492:227|480:262,1,75,2|8,0:0|0:0,0:0:0:0:
420,332,81201,1,2,0:0:0:0:
360,264,81422,2,0,B|325:252|325:252|290:264,1,75,8|0,3:0|0:0,0:0:0:0:
228,332,81863,6,0,P|176:348|122:332,1,112.5,12|2,0:0|0:0,0:0:0:0:
84,308,82304,2,0,P|76:272|84:236,1,75,8|0,0:0|0:0,0:0:0:0:
144,168,82745,1,8,0:0:0:0:
84,100,82966,1,2,0:0:0:0:
24,168,83186,1,8,0:0:0:0:
84,235,83407,6,0,P|92:271|84:307,1,75,4|0,0:0|0:0,0:0:0:0:
144,376,83848,1,2,0:0:0:0:
204,308,84069,2,0,P|195:271|203:235,1,75,8|0,0:0|0:0,0:0:0:0:
144,168,84510,1,8,0:0:0:0:
84,235,84731,1,2,0:0:0:0:
24,168,84951,2,0,B|12:133|12:133|24:98,1,75,8|2,0:0|0:0,0:0:0:0:
40,56,85282,1,2,0:0:0:0:
40,56,85392,6,0,B|75:44|75:44|110:56,1,75,8|2,0:0|0:0,0:0:0:0:
192,100,85834,2,0,P|228:108|264:100,1,75,8|2,0:0|0:0,0:0:0:0:
344,56,86275,2,0,B|379:44|379:44|414:56,1,75,8|2,0:0|0:0,0:0:0:0:
456,72,86606,1,8,0:0:0:0:
372,188,86936,6,0,B|337:200|337:200|302:188,1,75,4|0,0:0|0:0,0:0:0:0:
256,180,87267,1,2,0:0:0:0:
256,180,87378,2,0,L|219:184,1,37.5,2|2,0:0|0:0,0:0:0:0:
176,188,87598,2,0,L|172:151,4,37.5,2|2|2|2|2,0:0|0:0|0:0|0:0|0:0,0:0:0:0:
112,252,88260,1,2,0:0:0:0:
176,316,88481,2,0,B|212:324|212:324|248:308|248:308|283:316,1,112.5,2|0,0:0|0:0,0:0:0:0:
328,332,88922,6,0,B|363:344|363:344|398:332,1,75,12|2,0:0|0:0,0:0:0:0:
468,272,89363,2,0,B|480:237|480:237|467:201,1,75,8|2,0:0|0:0,0:0:0:0:
400,140,89804,2,0,B|365:128|365:128|330:140,1,75,8|2,0:0|0:0,0:0:0:0:
288,160,90136,1,2,0:0:0:0:
288,160,90246,1,8,0:0:0:0:
228,228,90466,1,2,0:0:0:0:
168,160,90686,6,0,P|131:151|95:159,1,75,8|2,0:0|0:0,0:0:0:0:
36,228,91128,2,0,P|27:265|35:301,1,75,8|2,0:0|0:0,0:0:0:0:
96,368,91569,2,0,P|133:377|169:369,1,75,8|2,0:0|0:0,0:0:0:0:
228,300,92010,2,0,L|265:304,3,37.5,2|2|2|2,0:0|0:0|0:0|0:0,0:0:0:0:
312,304,92451,6,0,L|386:296,1,75,8|2,0:0|0:0,0:0:0:0:
380,208,92892,2,0,L|305:215,1,75,8|2,0:0|0:0,0:0:0:0:
300,124,93333,2,0,L|374:116,1,75,8|2,0:0|0:0,0:0:0:0:
420,116,93665,1,2,0:0:0:0:
419,115,93775,2,0,P|411:79|418:43,1,75,8|2,0:0|0:0,0:0:0:0:
508,44,94216,6,0,P|517:81|509:117,1,75,8|2,0:0|0:0,0:0:0:0:
464,196,94658,2,0,P|455:232|463:268,1,75,8|2,0:0|0:0,0:0:0:0:
499,353,95099,2,0,P|463:361|427:353,1,75,2|2,0:0|0:0,0:0:0:0:
384,340,95429,1,2,0:0:0:0:
384,340,95539,2,0,B|349:328|349:328|314:340,1,75,8|2,3:0|0:0,0:0:0:0:
228,368,95981,6,0,L|220:293,1,75,12|2,0:0|0:0,0:0:0:0:
132,294,96422,2,0,L|124:368,1,75,8|2,0:0|0:0,0:0:0:0:
36,368,96863,2,0,L|28:293,1,75,8|2,0:0|0:0,0:0:0:0:
24,248,97195,1,2,0:0:0:0:
24,248,97305,1,8,0:0:0:0:
80,176,97525,1,2,0:0:0:0:
132,248,97745,6,0,P|168:256|204:248,1,75,8|2,0:0|0:0,0:0:0:0:
260,176,98186,2,0,B|295:164|295:164|330:176,1,75,8|2,0:0|0:0,0:0:0:0:
388,248,98628,2,0,P|424:256|460:248,1,75,8|2,0:0|0:0,0:0:0:0:
504,240,98959,1,2,0:0:0:0:
504,240,99070,2,0,B|500:200,3,37.5,2|2|2|2,0:0|0:0|0:0|0:0,0:0:0:0:
496,156,99511,6,0,L|488:82,1,75,8|2,0:0|0:0,0:0:0:0:
396,82,99952,2,0,L|388:156,1,75,8|2,0:0|0:0,0:0:0:0:
296,156,100393,2,0,L|288:82,1,75,8|2,0:0|0:0,0:0:0:0:
260,44,100724,1,2,0:0:0:0:
260,44,100834,2,0,P|224:36|188:44,1,75,8|2,0:0|0:0,0:0:0:0:
104,84,101275,6,0,L|96:158,1,75,8|2,0:0|0:0,0:0:0:0:
84,248,101716,2,0,B|44:244,2,37.5,2|2|0,0:0|0:0|0:0,0:0:0:0:
172,260,102157,2,0,L|246:268,1,75,2|0,0:0|0:0,0:0:0:0:
292,276,102488,2,0,L|300:202,1,75,2|0,0:0|0:0,0:0:0:0:
