osu file format v14

[General]
AudioFilename: audio.mp3
AudioLeadIn: 0
PreviewTime: 65650
Countdown: 0
SampleSet: Soft
StackLeniency: 0.7
Mode: 0
LetterboxInBreaks: 0
WidescreenStoryboard: 1

[Editor]
DistanceSpacing: 1
BeatDivisor: 4
GridSize: 4
TimelineZoom: 2.400001

[Metadata]
Title:Guilty Eyes Fever
TitleUnicode:Guilty Eyes Fever
Artist:Guilty Kiss
ArtistUnicode:Guilty Kiss
Creator:Cris-
Version:Easy
Source:Love Live! Sunshine!!
Tags:Rin Desu Parachute wolf3211 ラブライブ!サンシャイン!! School Idol Project Aqours Mari Ohara 小原鞠莉 Aina Suzuki 鈴木愛奈 Riko Sakurauchi 桜内梨子 Rikako Aida 逢田梨香子 Yoshiko Tsushima 津島善子 Aika Kobayashi 小林愛香 Japanese Pop J-Pop Anime
BeatmapID:1888892
BeatmapSetID:864242

[Difficulty]
HPDrainRate:2
CircleSize:3
OverallDifficulty:2
ApproachRate:3
SliderMultiplier:1
SliderTickRate:1

[Events]
//Background and Video events
0,0,"Guilty Kiss.png",0,0
//Break Periods
//Storyboard Layer 0 (Background)
//Storyboard Layer 1 (Fail)
//Storyboard Layer 2 (Pass)
//Storyboard Layer 3 (Foreground)
//Storyboard Sound Samples

[TimingPoints]
687,441.176470588235,4,2,1,50,1,0
5981,-100,4,2,1,55,0,0
7304,-100,4,2,1,60,0,0
7745,-100,4,2,1,80,0,0
20098,-100,4,2,1,60,0,0
21863,-100,4,2,1,50,0,0
28922,-100,4,2,1,70,0,0
31128,-100,4,2,1,50,0,0
32451,-100,4,2,1,60,0,0
35539,-100,4,2,1,50,0,0
35981,-100,4,2,1,60,0,0
43039,-100,4,2,1,70,0,0
46569,-100,4,2,1,60,0,0
49657,-100,4,2,1,50,0,0
50098,-100,4,2,1,55,0,0
57157,-100,4,2,1,60,0,0
60686,-100,4,2,1,65,0,0
62451,-100,4,2,1,50,0,0
63775,-100,4,2,1,70,0,0
64216,-100,4,2,1,50,0,0
65981,-100,4,2,1,50,0,0
66311,-100,4,2,1,5,0,0
66422,-100,4,2,1,55,0,0
66753,-100,4,2,1,5,0,0
66863,-100,4,2,1,60,0,0
67194,-100,4,2,1,5,0,0
67304,-100,4,2,1,65,0,0
67635,-100,4,2,1,5,0,0
67745,-100,4,2,1,80,0,1
74363,-100,4,2,1,70,0,0
74804,-100,4,2,1,80,0,1
81422,-100,4,2,1,70,0,0
81863,-100,4,2,1,80,0,1
88922,-100,4,2,1,70,0,0
95539,-100,4,2,1,60,0,0
95981,-100,4,2,1,70,0,0
101275,-100,4,2,1,50,0,0
102709,-100,4,2,1,25,0,0

[Colours]
Combo1 : 168,81,255
Combo2 : 249,49,49
Combo3 : 236,210,34
Combo4 : 108,112,232

[HitObjects]
376,256,687,6,0,P|424:268|472:256,1,100,2|2,0:0|0:0,0:0:0:0:
460,156,1569,2,0,P|423:148|387:156,1,75,2|2,0:0|0:0,0:0:0:0:
272,204,2451,2,0,P|224:216|176:204,1,100,2|2,0:0|0:0,0:0:0:0:
188,104,3333,2,0,P|224:96|260:104,1,75,2|2,0:0|0:0,0:0:0:0:
376,156,4216,6,0,P|424:168|472:156,1,100,2|2,0:0|0:0,0:0:0:0:
460,56,5098,2,0,P|423:48|387:56,1,75,2|2,0:0|0:0,0:0:0:0:
272,104,5981,2,0,P|223:116|175:104,1,100,2|2,0:0|0:0,0:0:0:0:
108,28,6863,1,2,0:0:0:0:
40,104,7304,1,12,0:0:0:0:
108,176,7745,6,0,L|116:276,1,100,12|8,0:0|0:0,0:0:0:0:
216,276,8628,2,0,L|224:176,1,100,8|8,0:0|0:0,0:0:0:0:
324,176,9510,2,0,L|332:276,1,100,8|8,0:0|0:0,0:0:0:0:
276,360,10392,1,8,0:0:0:0:
216,276,10834,1,10,0:0:0:0:
160,360,11275,6,0,P|111:372|63:360,1,100,8|8,0:0|0:0,0:0:0:0:
8,276,12157,2,0,P|-4:227|8:179,1,100,8|8,0:0|0:0,0:0:0:0:
64,96,13039,1,8,0:0:0:0:
120,180,13481,1,8,0:0:0:0:
176,96,13922,2,0,P|213:88|249:96,1,75,8|2,0:0|0:0,0:0:0:0:
344,180,14804,6,0,B|360:228|360:228|344:274,1,100,12|8,0:0|0:0,0:0:0:0:
280,352,15686,2,0,B|232:368|232:368|186:352,1,100,8|8,0:0|0:0,0:0:0:0:
120,276,16569,2,0,B|104:228|104:228|120:182,1,100,8|8,0:0|0:0,0:0:0:0:
184,104,17451,1,8,0:0:0:0:
248,184,17893,1,10,0:0:0:0:
312,104,18334,6,0,P|361:92|409:104,1,100,8|8,0:0|0:0,0:0:0:0:
468,184,19216,2,0,P|480:233|468:281,1,100,8|8,0:0|0:0,0:0:0:0:
408,360,20098,1,12,0:0:0:0:
344,280,20540,1,2,0:0:0:0:
280,360,20981,2,0,B|232:376|232:376|186:360,1,100,2|2,0:0|0:0,0:0:0:0:
124,280,21863,6,0,P|112:231|124:183,2,100,4|8|8,0:0|0:0|0:0,0:0:0:0:
186,360,23186,1,8,0:0:0:0:
248,280,23628,2,0,P|260:231|248:183,1,100,8|8,0:0|0:0,0:0:0:0:
184,104,24510,2,0,B|136:88|136:88|90:104,1,100,8|2,0:0|0:0,0:0:0:0:
28,184,25392,6,0,P|16:233|28:281,2,100,8|8|8,0:0|0:0|0:0,0:0:0:0:
89,104,26716,1,8,0:0:0:0:
152,184,27157,2,0,P|164:233|152:281,2,100,8|8|0,0:0|0:0|0:0,0:0:0:0:
328,88,28922,6,0,P|316:136|327:184,1,100,4|8,0:0|0:0,0:0:0:0:
400,256,29804,1,8,0:0:0:0:
332,328,30245,1,8,0:0:0:0:
260,256,30686,2,0,P|211:244|163:256,1,100,8|0,0:0|0:0,0:0:0:0:
164,255,32451,6,0,L|64:263,1,100,4|8,0:0|0:0,0:0:0:0:
56,164,33334,2,0,L|156:156,1,100,8|8,0:0|0:0,0:0:0:0:
148,56,34216,1,8,0:0:0:0:
148,56,35539,1,2,0:0:0:0:
236,104,35981,6,0,P|248:55|236:7,2,100,4|8|8,0:0|0:0|0:0,0:0:0:0:
148,56,37304,1,8,0:0:0:0:
60,104,37746,2,0,P|48:55|60:7,2,100,8|8|0,0:0|0:0|0:0,0:0:0:0:
148,156,39069,1,2,0:0:0:0:
60,208,39510,6,0,P|48:256|60:304,1,100,8|8,0:0|0:0,0:0:0:0:
136,372,40392,2,0,P|184:383|232:371,1,100,8|8,0:0|0:0,0:0:0:0:
308,304,41275,2,0,P|319:255|307:207,2,100,8|8|0,0:0|0:0|0:0,0:0:0:0:
132,208,43039,6,0,P|120:159|131:111,1,100,4|8,0:0|0:0,0:0:0:0:
196,32,43921,1,8,0:0:0:0:
256,112,44362,1,8,0:0:0:0:
320,32,44803,2,0,P|369:20|417:32,1,100,8|0,0:0|0:0,0:0:0:0:
368,228,46128,1,2,0:0:0:0:
416,316,46569,6,0,P|368:328|320:316,1,100,4|8,0:0|0:0,0:0:0:0:
252,240,47451,1,8,0:0:0:0:
184,316,47892,1,8,0:0:0:0:
116,240,48334,2,0,P|104:191|116:143,1,100,8|8,0:0|0:0,0:0:0:0:
184,68,49216,1,8,0:0:0:0:
252,144,49657,1,8,3:0:0:0:
320,68,50098,6,0,B|368:52|368:52|414:68,2,100,4|8|8,0:0|3:0|3:0,0:0:0:0:
252,144,51422,1,8,3:0:0:0:
320,220,51863,2,0,B|368:236|368:236|414:220,2,100,8|8|8,3:0|3:0|3:0,0:0:0:0:
252,144,53186,1,8,3:0:0:0:
184,220,53628,6,0,B|136:236|136:236|90:220,2,100,8|8|8,3:0|3:0|3:0,0:0:0:0:
252,144,54951,1,8,3:0:0:0:
184,68,55392,2,0,B|136:52|136:52|90:68,2,100,8|8|8,3:0|3:0|3:0,0:0:0:0:
252,144,56716,1,8,3:0:0:0:
320,68,57157,6,0,B|366:52|366:52|414:68,1,100,8|8,3:0|3:0,0:0:0:0:
480,144,58039,2,0,B|496:190|496:190|480:238,1,100,8|8,3:0|3:0,0:0:0:0:
412,312,58922,1,8,3:0:0:0:
344,236,59363,1,8,3:0:0:0:
276,312,59804,2,0,B|230:328|230:328|182:312,1,100,8|8,3:0|3:0,0:0:0:0:
116,236,60686,6,0,P|104:187|116:139,1,100,8|8,3:0|3:0,0:0:0:0:
184,64,61569,2,0,B|230:48|230:48|278:64,1,100,8|8,3:0|3:0,0:0:0:0:
256,192,62451,12,8,63995,0:0:0:0:
40,200,65981,6,0,P|28:249|40:297,1,100,2|2,0:0|0:0,0:0:0:0:
140,296,66863,2,0,P|152:247|140:199,1,100,2|8,0:0|0:0,0:0:0:0:
92,112,67745,6,0,P|140:100|188:112,1,100,12|8,0:0|0:0,0:0:0:0:
256,188,68627,1,8,0:0:0:0:
324,112,69068,1,8,0:0:0:0:
392,188,69510,2,0,P|404:237|392:285,1,100,8|8,0:0|0:0,0:0:0:0:
324,360,70392,1,8,0:0:0:0:
256,284,70834,1,8,0:0:0:0:
188,360,71275,6,0,B|140:376|140:376|94:360,2,100,8|8|8,0:0|0:0|0:0,0:0:0:0:
256,284,72598,1,8,0:0:0:0:
324,360,73039,2,0,B|372:376|372:376|418:360,1,100,8|8,0:0|0:0,0:0:0:0:
488,284,73922,2,0,B|504:236|504:236|488:190,1,100,8|2,0:0|0:0,0:0:0:0:
420,116,74804,6,0,B|372:100|372:100|326:116,1,100,12|8,0:0|0:0,0:0:0:0:
256,188,75686,1,8,0:0:0:0:
184,116,76127,1,8,0:0:0:0:
112,188,76569,2,0,P|100:236|111:284,1,100,8|8,0:0|0:0,0:0:0:0:
184,356,77451,1,8,0:0:0:0:
256,284,77893,1,8,0:0:0:0:
328,356,78334,6,0,P|376:367|424:356,2,100,8|8|8,0:0|0:0|0:0,0:0:0:0:
256,284,79657,1,8,0:0:0:0:
184,356,80098,2,0,P|135:367|87:355,1,100,8|8,0:0|0:0,0:0:0:0:
16,284,80981,1,8,0:0:0:0:
88,212,81422,1,8,3:0:0:0:
16,140,81863,6,0,L|24:40,1,100,12|8,0:0|0:0,0:0:0:0:
124,40,82745,2,0,L|128:89,1,50,8|2,0:0|0:0,0:0:0:0:
140,188,83407,2,0,B|210:156|210:220|284:188,1,150,4|8,0:0|0:0,0:0:0:0:
348,108,84510,1,8,0:0:0:0:
416,184,84951,1,8,0:0:0:0:
348,260,85392,6,0,L|340:360,1,100,8|8,0:0|0:0,0:0:0:0:
240,360,86275,2,0,L|234:286,2,75,8|8|4,0:0|0:0|0:0,0:0:0:0:
340,359,87378,2,0,B|396:323|460:359|460:359|424:299|460:243,1,250,2|2,0:0|0:0,0:0:0:0:
508,156,88922,6,0,P|459:145|411:157,1,100,12|8,0:0|0:0,0:0:0:0:
324,208,89804,2,0,P|275:219|227:207,1,100,8|8,0:0|0:0,0:0:0:0:
228,108,90686,2,0,P|277:97|325:109,1,100,8|8,0:0|0:0,0:0:0:0:
412,157,91569,1,8,0:0:0:0:
324,208,92010,1,2,0:0:0:0:
412,260,92451,6,0,L|404:360,1,100,8|8,0:0|0:0,0:0:0:0:
304,360,93334,2,0,L|296:260,1,100,8|8,0:0|0:0,0:0:0:0:
224,188,94216,1,8,0:0:0:0:
152,260,94658,1,8,0:0:0:0:
80,188,95098,2,0,B|64:140|64:140|80:94,1,100,2|8,0:0|3:0,0:0:0:0:
152,20,95981,6,0,B|200:4|200:4|246:20,1,100,12|8,0:0|0:0,0:0:0:0:
316,92,96863,2,0,L|324:192,1,100,8|8,0:0|0:0,0:0:0:0:
424,192,97745,2,0,L|432:92,1,100,8|8,0:0|0:0,0:0:0:0:
376,8,98628,1,8,0:0:0:0:
316,92,99070,1,2,0:0:0:0:
247,20,99510,6,0,B|201:4|201:4|153:20,1,100,8|8,0:0|0:0,0:0:0:0:
80,92,100392,2,0,B|64:138|64:138|80:186,1,100,8|8,0:0|0:0,0:0:0:0:
152,260,101275,1,8,0:0:0:0:
220,184,101717,1,2,0:0:0:0:
288,260,102158,2,0,P|324:268|360:260,1,75,2|2,0:0|0:0,0:0:0:0:
