osu file format v14

[General]
AudioFilename: audio.mp3
AudioLeadIn: 0
PreviewTime: 59541
Countdown: 0
SampleSet: Soft
StackLeniency: 0.1
Mode: 0
LetterboxInBreaks: 0
WidescreenStoryboard: 1

[Editor]
DistanceSpacing: 2.5
BeatDivisor: 6
GridSize: 8
TimelineZoom: 1.6

[Metadata]
Title:Mahou no Kizuna (TV Size)
TitleUnicode:魔法のキズナ (TV Size)
Artist:Growth
ArtistUnicode:Growth
Creator:Mafumafu
Version:Kyouren's Insane
Source:TSUKIPRO THE ANIMATION
Tags:regraz Kyouren gokugohan12468 kittyadventure kirishima- malphs japanese anime folk jpop j-pop pop male idol 衛藤昂輝 土岐隼一 八重樫剣介 山谷祥生 櫻庭涼太 山下大輝 藤村衛 寺島惇太 滝沢章 はまたけし ツキプロ・ジ・アニメーション ツキプロ opening op4
BeatmapID:4478754
BeatmapSetID:2089713

[Difficulty]
HPDrainRate:5
CircleSize:4.3
OverallDifficulty:7
ApproachRate:8.3
SliderMultiplier:2.6
SliderTickRate:1

[Events]
//Background and Video events
0,0,"wp7789272.jpg",0,0
//Break Periods
//Storyboard Layer 0 (Background)
//Storyboard Layer 1 (Fail)
//Storyboard Layer 2 (Pass)
//Storyboard Layer 3 (Foreground)
//Storyboard Layer 4 (Overlay)
//Storyboard Sound Samples

[TimingPoints]
723,708.658627328239,4,2,1,70,1,0
723,-100,2,2,1,70,0,0
13479,708.658627328239,4,2,1,60,1,0
13479,-111.111111111111,4,2,1,60,0,0
36156,-90.9090909090909,4,2,1,70,0,0
58833,-100,4,2,1,60,0,0
59187,-83.3333333333333,4,2,1,60,0,0
60250,708.658627328239,4,2,1,80,1,1
60250,-83.3333333333333,4,2,1,80,0,1
60722,-76.9230769230769,4,2,1,80,0,1
62966,-76.9230769230769,4,2,1,80,0,0
63084,-76.9230769230769,4,2,1,80,0,1
63557,-76.9230769230769,4,2,1,80,0,0
63793,-76.9230769230769,4,2,1,80,0,1
64265,-76.9230769230769,4,2,1,80,0,0
64501,-76.9230769230769,4,2,1,80,0,1
65801,-76.9230769230769,4,2,1,80,0,0
65919,-76.9230769230769,4,2,1,80,0,1
71470,-76.9230769230769,4,2,1,80,0,0
71588,-76.9230769230769,4,2,1,80,0,1
72297,-90.9090909090909,4,2,1,80,0,1
72533,-76.9230769230769,4,2,1,80,0,1
73950,-66.6666666666667,4,2,1,80,0,1
74305,-76.9230769230769,4,2,1,80,0,0
74423,-76.9230769230769,4,2,1,80,0,1
74895,-76.9230769230769,4,2,1,80,0,0
75131,-76.9230769230769,4,2,1,80,0,1
75604,-76.9230769230769,4,2,1,80,0,0
75840,-100,4,2,1,80,0,1
76076,-76.9230769230769,4,2,1,80,0,1
77139,-76.9230769230769,4,2,1,80,0,0
77257,-76.9230769230769,4,2,1,80,0,1
81509,-90.9090909090909,4,2,1,80,0,1
81864,-76.9230769230769,4,2,1,80,0,1
82808,-76.9230769230769,4,2,1,80,0,0
82927,-90.9090909090909,4,2,1,70,0,1
83045,-90.9090909090909,4,2,1,70,0,0
87887,-90.9090909090909,4,2,1,70,0,1
88005,-90.9090909090909,4,2,1,70,0,0
88123,-90.9090909090909,4,2,1,70,0,1
88242,-90.9090909090909,4,2,1,70,0,0

[Colours]
Combo1 : 215,200,145
Combo2 : 90,90,120
Combo3 : 220,220,205
Combo4 : 135,85,105

[HitObjects]
150,125,250,5,2,0:0:0:0:
140,170,368,1,2,0:0:0:0:
168,212,487,1,2,0:0:0:0:
220,220,605,1,2,0:0:0:0:
255,190,723,6,0,B|328:182|303:208|383:198,1,130,4|0,1:0|0:0,0:0:0:0:
430,80,1313,1,2,0:0:0:0:
410,65,1431,2,0,P|370:80|351:118,1,86.6666666666667,4|0,3:0|0:0,0:0:0:0:
485,270,1904,5,4,3:0:0:0:
475,265,2022,1,4,3:0:0:0:
465,260,2140,2,0,B|420:271|420:271|405:295|405:295|351:307,1,130,4|0,3:0|0:0,0:0:0:0:
190,235,2731,1,2,0:0:0:0:
200,225,2849,2,0,P|242:231|280:252,1,86.6666666666667,4|0,3:0|0:0,0:0:0:0:
82,368,3321,5,4,3:0:0:0:
80,360,3439,1,4,3:0:0:0:
90,360,3557,2,0,B|82:287|108:312|98:232,1,130,4|0,1:0|0:0,0:0:0:0:
185,45,4148,1,2,0:0:0:0:
195,55,4266,2,0,L|186:142,1,86.6666666666667,4|0,3:0|0:0,0:0:0:0:
420,140,4739,5,4,3:0:0:0:
410,130,4857,1,4,3:0:0:0:
400,120,4975,2,0,B|331:102|351:124|271:106,1,130,4|0,3:0|0:0,0:0:0:0:
200,225,5565,5,2,0:0:0:0:
210,220,5683,2,0,L|201:177,1,43.3333333333333,4|0,3:0|0:0,0:0:0:0:
133,110,5920,2,0,L|123:152,1,43.3333333333333,4|0,3:0|0:0,0:0:0:0:
53,197,6156,1,4,3:0:0:0:
46,188,6274,1,4,3:0:0:0:
40,180,6392,6,0,P|53:116|62:52,1,130,4|0,1:0|0:0,0:0:0:0:
250,20,6983,1,2,0:0:0:0:
240,10,7101,2,0,L|154:23,1,86.6666666666667,4|0,3:0|0:0,0:0:0:0:
305,105,7573,1,2,0:0:0:0:
315,115,7691,1,2,0:0:0:0:
325,125,7809,6,0,P|307:187|306:252,1,130,4|0,3:0|0:0,0:0:0:0:
200,365,8400,1,2,0:0:0:0:
185,360,8518,2,0,L|175:273,1,86.6666666666667,4|0,3:0|0:0,0:0:0:0:
70,170,8990,1,2,0:0:0:0:
55,175,9109,1,2,0:0:0:0:
40,180,9227,6,0,P|36:244|25:308,1,130,4|0,1:0|0:0,0:0:0:0:
175,185,9817,1,2,0:0:0:0:
160,180,9935,2,0,L|150:93,1,86.6666666666667,4|0,3:0|0:0,0:0:0:0:
255,15,10408,1,2,0:0:0:0:
265,25,10526,1,2,0:0:0:0:
275,35,10644,6,0,L|265:121,1,86.6666666666667,4|4,3:0|3:0,0:0:0:0:
325,180,10998,2,0,L|319:223,2,43.3333333333333,2|2|2,0:0|0:0|0:0,0:0:0:0:
400,135,11353,6,0,L|405:91,1,43.3333333333333,4|0,1:0|0:0,0:0:0:0:
510,190,11589,2,0,L|504:233,1,43.3333333333333,4|0,1:0|0:0,0:0:0:0:
325,180,12298,6,0,L|316:267,2,86.6666666666667,2|2|2,0:0|0:0|0:0,0:0:0:0:
400,135,13006,1,2,0:0:0:0:
215,35,13479,6,0,P|139:28|86:82,1,155.999995239258,4|0,3:0|0:0,0:0:0:0:
198,262,14187,2,0,L|168:108,1,155.999995239258,2|0,3:0|0:0,0:0:0:0:
300,10,14896,6,0,P|308:47|302:86,1,77.999997619629,4|0,3:0|0:0,0:0:0:0:
215,175,15368,1,2,0:0:0:0:
380,115,15604,2,0,P|359:146|327:170,1,77.999997619629,2|4,3:0|3:0,0:0:0:0:
320,175,15959,1,2,0:0:0:0:
312,178,16077,2,0,L|319:216,1,38.9999988098145,2|0,0:0|0:0,0:0:0:0:
265,275,16313,6,0,B|183:265|201:293|110:279,1,155.999995239258,4|2,3:0|0:0,0:0:0:0:
135,150,17022,1,2,3:0:0:0:
35,240,17258,1,2,0:0:0:0:
140,160,17494,1,2,0:0:0:0:
0,90,17730,6,0,P|54:37|130:35,1,155.999995239258,4|0,3:0|0:0,0:0:0:0:
235,90,18439,2,0,L|243:12,1,77.999997619629,2|2,3:0|3:0,0:0:0:0:
330,110,18912,1,8,3:0:0:0:
335,120,19030,1,8,3:0:0:0:
340,130,19148,6,0,P|342:168|338:207,1,77.999997619629,4|0,3:0|0:0,0:0:0:0:
420,120,19620,1,2,0:0:0:0:
505,235,19856,2,0,P|500:157|511:80,1,155.999995239258,2|0,3:0|0:0,0:0:0:0:
420,235,20565,6,0,L|411:312,1,77.999997619629,4|0,3:0|0:0,0:0:0:0:
260,365,21038,1,2,0:0:0:0:
265,360,21156,1,2,0:0:0:0:
270,355,21274,2,0,P|274:316|270:277,1,77.999997619629,2|4,3:0|3:0,0:0:0:0:
208,232,21628,1,2,0:0:0:0:
200,230,21746,2,0,L|161:224,1,38.9999988098145,2|0,0:0|0:0,0:0:0:0:
70,170,21982,6,0,B|157:152|124:122|210:106,1,155.999995239258,4|0,3:0|0:0,0:0:0:0:
108,52,22691,1,2,3:0:0:0:
220,120,22927,6,0,L|257:129,1,38.9999988098145,2|0,0:0|0:0,0:0:0:0:
325,90,23164,2,0,L|362:99,1,38.9999988098145,2|0,0:0|0:0,0:0:0:0:
440,60,23400,6,0,B|505:44|505:44|481:129,1,155.999995239258,4|2,3:0|0:0,0:0:0:0:
470,140,23990,1,2,0:0:0:0:
460,147,24108,2,0,L|472:224,1,77.999997619629,2|0,3:0|0:0,0:0:0:0:
380,320,24581,1,4,3:0:0:0:
365,330,24699,1,4,3:0:0:0:
360,315,24817,6,0,P|325:297|287:287,1,77.999997619629,4|2,1:0|0:0,0:0:0:0:
225,365,25289,2,0,L|186:358,1,38.9999988098145,2|2,0:0|0:0,0:0:0:0:
110,370,25526,2,0,L|96:293,1,77.999997619629,2|4,3:0|3:0,0:0:0:0:
10,210,25998,2,0,L|16:171,1,38.9999988098145,2|2,0:0|0:0,0:0:0:0:
90,140,26234,6,0,P|93:101|90:62,1,77.999997619629,4|0,3:0|0:0,0:0:0:0:
334,16,26707,2,0,L|328:54,1,38.9999988098145,2|2,0:0|0:0,0:0:0:0:
255,95,26943,5,2,3:0:0:0:
410,50,27179,1,4,3:0:0:0:
375,165,27415,1,4,3:0:0:0:
380,170,27534,1,4,3:0:0:0:
385,175,27652,6,0,L|397:252,1,77.999997619629,4|0,3:0|0:0,0:0:0:0:
280,360,28124,2,0,L|290:322,1,38.9999988098145,2|0,0:0|0:0,0:0:0:0:
240,260,28360,2,0,P|201:260|165:275,1,77.999997619629,2|4,3:0|3:0,0:0:0:0:
55,375,28833,2,0,L|49:336,1,38.9999988098145,2|2,0:0|0:0,0:0:0:0:
0,275,29069,6,0,L|11:197,1,77.999997619629,4|0,3:0|0:0,0:0:0:0:
15,55,29541,2,0,L|20:16,1,38.9999988098145,2|2,0:0|0:0,0:0:0:0:
0,65,29778,1,2,3:0:0:0:
130,130,30014,5,2,3:0:0:0:
164,112,30132,1,2,3:0:0:0:
203,106,30250,1,4,3:0:0:0:
241,113,30368,1,4,3:0:0:0:
275,130,30486,6,0,L|352:120,1,77.999997619629,4|0,1:0|0:0,0:0:0:0:
458,212,30959,2,0,L|420:203,1,38.9999988098145,2|2,0:0|0:0,0:0:0:0:
350,240,31195,2,0,P|344:278|348:317,1,77.999997619629,2|4,3:0|3:0,0:0:0:0:
250,380,31667,2,0,L|211:374,1,38.9999988098145,2|2,0:0|0:0,0:0:0:0:
160,315,31904,6,0,P|125:333|87:336,1,77.999997619629,4|0,3:0|0:0,0:0:0:0:
15,155,32376,2,0,L|20:116,1,38.9999988098145,2|2,0:0|0:0,0:0:0:0:
5,170,32612,2,0,L|82:181,1,77.999997619629,2|4,3:0|3:0,0:0:0:0:
140,50,33085,2,0,L|145:11,1,38.9999988098145,4|4,3:0|3:0,0:0:0:0:
220,40,33321,6,0,L|297:51,1,77.999997619629,4|0,3:0|0:0,0:0:0:0:
470,125,33793,2,0,L|476:87,1,38.9999988098145,2|2,0:0|0:0,0:0:0:0:
480,140,34030,2,0,P|486:178|479:216,1,77.999997619629,2|4,3:0|3:0,0:0:0:0:
340,330,34502,2,0,L|346:292,1,38.9999988098145,2|2,0:0|0:0,0:0:0:0:
310,215,34738,6,0,P|249:261|172:259,1,155.999995239258,4|0,3:0|0:0,0:0:0:0:
65,165,35447,2,0,L|142:177,1,77.999997619629,4|4,1:0|3:0,0:0:0:0:
180,155,35801,1,4,3:0:0:0:
200,115,35919,1,4,3:0:0:0:
195,70,36037,1,4,3:0:0:0:
160,35,36156,6,0,P|217:105|307:90,1,190.666672485352,4|2,1:0|3:2,0:0:0:0:
470,15,36864,2,0,L|459:109,1,95.3333362426759,0|4,1:0|3:0,0:0:0:0:
385,50,37337,1,4,3:0:0:0:
310,215,37573,5,2,3:2:0:0:
425,280,37809,1,4,3:0:0:0:
300,225,38045,1,4,3:0:0:0:
200,350,38282,6,0,L|152:343,1,47.6666681213379,0|0,1:0|0:0,0:0:0:0:
70,275,38518,2,0,L|117:268,1,47.6666681213379,4|0,3:0|0:0,0:0:0:0:
165,200,38754,2,0,L|212:193,1,47.6666681213379,4|0,3:0|0:0,0:0:0:0:
300,225,38990,6,0,B|318:115|264:154|284:38,1,190.666672485352,4|2,3:0|3:2,0:0:0:0:
480,15,39699,2,0,L|465:109,1,95.3333362426759,0|2,1:0|3:2,0:0:0:0:
380,70,40171,1,2,3:2:0:0:
300,225,40408,6,0,P|347:221|391:237,1,95.3333362426759,4|2,3:0|3:2,0:0:0:0:
230,280,40880,2,0,L|179:266,1,47.6666681213379,4|4,3:0|3:0,0:0:0:0:
110,305,41116,1,0,1:0:0:0:
20,190,41352,6,0,L|71:176,1,47.6666681213379,4|0,3:0|0:0,0:0:0:0:
145,195,41589,2,0,L|159:144,1,47.6666681213379,4|0,3:0|0:0,0:0:0:0:
125,75,41825,6,0,P|188:141|281:139,1,190.666672485352,4|2,1:0|3:2,0:0:0:0:
440,90,42534,2,0,L|345:74,1,95.3333362426759,0|4,1:0|3:0,0:0:0:0:
282,138,43006,1,4,3:0:0:0:
440,190,43242,6,0,P|392:190|346:201,1,95.3333362426759,2|4,3:2|3:0,0:0:0:0:
285,265,43715,1,4,3:0:0:0:
146,193,43951,1,0,1:0:0:0:
285,265,44187,6,0,L|279:319,1,47.6666681213379,4|0,3:0|0:0,0:0:0:0:
200,310,44423,2,0,L|194:364,1,47.6666681213379,4|0,3:0|0:0,0:0:0:0:
120,325,44659,6,0,P|30:314|2:228,1,190.666672485352,4|2,3:0|3:2,0:0:0:0:
158,98,45368,2,0,L|146:193,1,95.3333362426759,0|4,1:0|3:0,0:0:0:0:
60,135,45841,1,4,3:0:0:0:
160,15,46077,5,2,3:2:0:0:
260,90,46313,1,4,3:0:0:0:
315,30,46549,1,4,3:0:0:0:
455,120,46785,2,0,P|407:123|361:135,1,95.3333362426759,0|4,1:0|3:0,0:0:0:0:
295,245,47258,1,4,3:0:0:0:
146,193,47494,6,0,B|131:90|79:136|57:29,1,190.666672485352,4|0,1:0|0:0,0:0:0:0:
220,0,48203,2,0,L|202:93,1,95.3333362426759,0|4,1:0|3:0,0:0:0:0:
60,190,48675,1,4,3:0:0:0:
160,320,48911,5,2,3:2:0:0:
295,245,49148,1,4,3:0:0:0:
150,310,49384,1,4,3:0:0:0:
325,370,49620,6,0,L|332:322,1,47.6666681213379,0|0,1:0|0:0,0:0:0:0:
295,245,49856,2,0,L|342:238,1,47.6666681213379,4|0,3:0|0:0,0:0:0:0:
455,290,50092,2,0,L|408:297,1,47.6666681213379,4|0,3:0|0:0,0:0:0:0:
354,226,50328,6,0,B|372:116|318:155|338:39,1,190.666672485352,4|2,3:0|3:2,0:0:0:0:
510,110,51037,2,0,P|465:93|418:90,1,95.3333362426759,0|2,1:0|3:2,0:0:0:0:
265,160,51510,1,2,3:2:0:0:
354,226,51746,6,0,L|344:131,1,95.3333362426759,4|2,3:0|3:2,0:0:0:0:
205,70,52219,2,0,L|200:117,1,47.6666681213379,4|4,3:0|3:0,0:0:0:0:
265,160,52455,1,0,1:0:0:0:
118,32,52691,6,0,L|122:79,1,47.6666681213379,4|0,3:0|0:0,0:0:0:0:
62,178,52927,2,0,L|57:130,1,47.6666681213379,4|0,3:0|0:0,0:0:0:0:
0,240,53163,6,0,P|87:205|177:230,1,190.666672485352,4|2,1:0|3:2,0:0:0:0:
245,370,53872,2,0,P|234:323|244:277,1,95.3333362426759,0|4,1:0|3:0,0:0:0:0:
316,324,54344,1,2,3:2:0:0:
177,230,54581,6,0,L|168:135,1,95.3333362426759,2|4,3:2|3:0,0:0:0:0:
245,15,55053,1,4,3:0:0:0:
250,100,55289,1,0,1:0:0:0:
45,120,55526,6,0,L|90:107,1,47.6666681213379,4|0,3:0|0:0,0:0:0:0:
105,25,55762,2,0,L|150:38,1,47.6666681213379,4|0,3:0|0:0,0:0:0:0:
168,135,55998,6,0,P|261:128|338:181,1,190.666672485352,4|2,1:0|3:2,0:0:0:0:
405,230,56589,1,2,0:0:0:0:
410,235,56707,2,0,L|401:281,2,47.6666681213379,0|2|2,1:0|0:0|3:2,0:0:0:0:
510,160,57179,1,2,0:0:0:0:
400,10,57415,6,0,L|416:103,1,95.3333362426759,4|2,1:0|0:0,0:0:0:0:
410,110,57770,1,2,0:0:0:0:
404,116,57888,1,2,0:0:0:0:
490,240,58124,6,0,L|481:286,1,47.6666681213379,4|0,3:1|0:0,0:0:0:0:
401,282,58360,6,0,L|409:328,1,47.6666681213379,4|0,1:0|0:0,0:0:0:0:
235,170,58833,6,0,L|275:155,1,43.3333333333333,2|0,0:0|0:0,0:0:0:0:
157,133,59069,1,2,0:0:0:0:
150,125,59187,2,0,L|145:99,4,25.999999206543,0|2|0|2|0,0:0|0:0|0:0|0:0|0:0,0:0:0:0:
265,5,59541,6,0,P|257:29|251:55,1,51.999998413086,2|0,0:0|0:0,0:0:0:0:
144,36,59778,6,0,P|152:60|158:85,1,51.999998413086,2|0,0:0|0:0,0:0:0:0:
235,170,60014,6,0,P|225:194|219:219,1,51.999998413086,2|0,0:0|0:0,0:0:0:0:
155,275,60250,6,0,B|68:265|105:233|11:223,1,155.999995239258,4|4,1:0|3:0,0:0:0:0:
0,140,60722,1,2,0:0:0:0:
10,145,60840,1,2,0:0:0:0:
92,208,60958,6,0,P|87:151|77:96,1,112.666661509196,0|2,1:0|0:0,0:0:0:0:
150,70,61312,1,2,0:0:0:0:
155,65,61431,2,0,L|167:9,1,56.3333307545981,4|4,3:0|3:0,0:0:0:0:
230,230,61667,6,0,L|218:117,1,112.666661509196,4|2,3:0|0:0,0:0:0:0:
305,170,62021,1,4,3:0:0:0:
310,165,62139,2,0,P|316:140|330:112,1,56.3333307545981,2|0,0:0|0:0,0:0:0:0:
154,275,62375,6,0,P|126:267|99:260,1,56.3333307545981,0|0,1:0|0:0,0:0:0:0:
225,315,62612,2,0,B|230:345|230:345|225:371,1,56.3333307545981,4|0,3:0|0:0,0:0:0:0:
300,280,62848,2,0,P|328:272|355:265,1,56.3333307545981,4|0,3:0|0:0,0:0:0:0:
230,230,63084,6,0,P|188:158|203:76,1,168.999992263794,4|4,1:0|3:0,0:0:0:0:
325,130,63557,2,0,L|271:143,1,56.3333307545981,2|2,0:0|0:0,0:0:0:0:
154,275,63793,6,0,P|85:229|62:149,1,168.999992263794,4|4,1:0|3:0,0:0:0:0:
155,140,64265,2,0,L|168:194,1,56.3333307545981,2|2,0:0|0:0,0:0:0:0:
255,325,64501,6,0,P|210:358|155:368,1,112.666661509196,4|0,1:0|0:0,0:0:0:0:
75,370,64856,1,4,3:0:0:0:
65,365,64974,2,0,L|52:310,1,56.3333307545981,2|2,0:0|0:0,0:0:0:0:
168,195,65210,6,0,L|155:249,1,56.3333307545981,0|0,1:0|0:0,0:0:0:0:
255,325,65446,2,0,P|258:297|257:269,1,56.3333307545981,4|0,3:0|0:0,0:0:0:0:
342,160,65683,2,0,P|351:186|355:214,1,56.3333307545981,4|0,3:0|0:0,0:0:0:0:
407,334,65919,6,0,B|307:325|359:276|256:269,1,168.999992263794,4|4,1:0|3:0,0:0:0:0:
168,195,66391,2,0,L|223:186,1,56.3333307545981,2|0,0:0|0:0,0:0:0:0:
255,60,66627,6,0,L|267:115,1,56.3333307545981,0|0,1:0|0:0,0:0:0:0:
355,215,66864,2,0,L|342:160,1,56.3333307545981,4|0,3:0|0:0,0:0:0:0:
390,95,67100,2,0,L|450:85,1,56.3333307545981,4|4,3:0|3:0,0:0:0:0:
506,186,67336,6,0,P|425:171|355:215,1,168.999992263794,4|4,3:0|3:0,0:0:0:0:
450,310,67809,2,0,P|448:281|441:254,1,56.3333307545981,2|0,0:0|0:0,0:0:0:0:
315,310,68045,6,0,L|370:300,1,56.3333307545981,0|0,1:0|0:0,0:0:0:0:
242,358,68281,2,0,L|231:302,1,56.3333307545981,4|0,3:0|0:0,0:0:0:0:
215,225,68517,1,4,3:0:0:0:
225,215,68635,1,4,3:0:0:0:
295,150,68753,6,0,P|327:227|315:310,1,168.999992263794,4|2,1:0|0:0,0:0:0:0:
242,358,69226,2,0,L|231:302,1,56.3333307545981,2|2,0:0|0:0,0:0:0:0:
215,225,69462,6,0,P|138:216|51:262,1,168.999992263794,0|2,1:0|0:0,0:0:0:0:
0,205,69935,2,0,L|12:146,1,56.3333307545981,2|2,0:0|0:0,0:0:0:0:
70,90,70171,6,0,B|171:68|137:110|238:87,1,168.999992263794,4|2,3:0|0:0,0:0:0:0:
290,25,70643,2,0,L|345:14,1,56.3333307545981,4|0,3:0|0:0,0:0:0:0:
430,35,70879,6,0,L|411:88,1,56.3333307545981,0|0,1:0|0:0,0:0:0:0:
356,145,71116,2,0,L|319:102,1,56.3333307545981,4|0,3:0|0:0,0:0:0:0:
290,25,71352,2,0,L|351:13,1,56.3333307545981,4|0,3:0|0:0,0:0:0:0:
440,170,71588,6,0,P|386:232|304:239,1,168.999992263794,4|4,1:0|3:0,0:0:0:0:
265,160,72060,1,2,0:0:0:0:
262,173,72179,1,2,0:0:0:0:
199,231,72297,6,0,P|214:275|219:323,1,95.3333362426759,0|2,1:0|0:0,0:0:0:0:
125,255,72651,1,2,0:0:0:0:
115,260,72769,2,0,L|61:243,1,56.3333307545981,4|4,3:0|3:0,0:0:0:0:
5,185,73005,6,0,P|7:128|28:76,1,112.666661509196,4|2,3:0|0:0,0:0:0:0:
44,66,73360,1,4,3:0:0:0:
110,120,73478,6,0,P|137:130|165:134,1,56.3333307545981,2|0,0:0|0:0,0:0:0:0:
185,50,73714,2,0,P|159:41|131:37,1,56.3333307545981,0|0,1:0|0:0,0:0:0:0:
130,25,73950,6,0,P|163:30|193:41,1,65.0000024795533,4|0,3:0|0:0,0:0:0:0:
166,144,74186,2,0,P|134:140|104:129,1,65.0000024795533,4|0,3:0|0:0,0:0:0:0:
246,114,74423,6,0,P|328:100|403:135,1,168.999992263794,4|4,1:0|3:0,0:0:0:0:
453,207,74896,2,0,L|507:220,1,56.3333307545981,2|2,0:0|0:0,0:0:0:0:
360,230,75131,6,0,P|402:302|387:384,1,168.999992263794,4|4,1:0|3:0,0:0:0:0:
260,320,75604,2,0,L|314:333,1,56.3333307545981,2|2,0:0|0:0,0:0:0:0:
195,375,75840,6,0,P|161:347|121:333,1,86.6666666666667,4|0,1:0|0:0,0:0:0:0:
70,250,76194,1,4,3:0:0:0:
76,243,76313,2,0,L|130:256,1,56.3333307545981,2|0,0:0|0:0,0:0:0:0:
220,165,76549,6,0,L|207:219,1,56.3333307545981,0|0,1:0|0:0,0:0:0:0:
140,155,76785,2,0,L|153:101,1,56.3333307545981,4|0,3:0|0:0,0:0:0:0:
310,140,77021,2,0,L|297:194,1,56.3333307545981,4|0,3:0|0:0,0:0:0:0:
350,260,77257,6,0,P|430:251|471:180,1,168.999992263794,4|4,1:0|3:0,0:0:0:0:
512,108,77730,2,0,L|458:95,1,56.3333307545981,2|0,0:0|0:0,0:0:0:0:
320,150,77966,6,0,L|374:163,1,56.3333307545981,0|0,1:0|0:0,0:0:0:0:
390,20,78202,2,0,L|377:74,1,56.3333307545981,4|0,3:0|0:0,0:0:0:0:
445,235,78438,2,0,L|458:181,1,56.3333307545981,4|4,3:0|3:0,0:0:0:0:
320,150,78675,6,0,B|223:160|268:207|171:219,1,168.999992263794,4|0,3:0|1:0,0:0:0:0:
50,255,79147,2,0,L|104:269,1,56.3333307545981,2|0,0:0|0:0,0:0:0:0:
170,355,79383,6,0,L|179:299,1,56.3333307545981,0|0,1:0|0:0,0:0:0:0:
180,163,79620,2,0,L|171:218,1,56.3333307545981,4|0,3:0|0:0,0:0:0:0:
250,250,79856,1,4,3:0:0:0:
252,238,79974,1,4,3:0:0:0:
180,163,80092,6,0,P|245:213|327:207,1,168.999992263794,4|2,1:0|0:0,0:0:0:0:
355,130,80564,2,0,L|410:121,1,56.3333307545981,2|0,0:0|0:0,0:0:0:0:
477,202,80801,6,0,L|492:91,1,112.666661509196,0|4,1:0|3:0,0:0:0:0:
360,45,81273,1,4,3:0:0:0:
365,35,81391,1,4,3:0:0:0:
411,121,81509,6,0,P|353:81|283:86,1,143.000004364014,4|2,1:0|0:0,0:0:0:0:
205,110,81982,2,0,L|212:54,1,56.3333307545981,4|0,3:0|0:0,0:0:0:0:
330,160,82218,6,0,L|322:215,1,56.3333307545981,0|0,1:0|0:0,0:0:0:0:
235,280,82454,2,0,L|242:224,1,56.3333307545981,4|0,3:0|0:0,0:0:0:0:
130,70,82690,2,0,L|122:125,1,56.3333307545981,4|0,3:0|0:0,0:0:0:0:
165,205,82927,6,0,B|88:192|102:223|24:210,1,143.000004364014,4|2,1:0|0:0,0:0:0:0:
140,290,83517,1,2,0:0:0:0:
130,280,83635,2,0,L|119:380,2,95.3333362426759,0|2|4,1:0|0:0|3:0,0:0:0:0:
322,216,84344,6,0,P|368:209|414:223,1,95.3333362426759,4|2,3:0|0:0,0:0:0:0:
428,238,84698,1,2,0:0:0:0:
265,155,84934,1,0,0:0:0:0:
255,165,85053,2,0,L|244:70,2,95.3333362426759,0|2|4,1:0|0:0|3:0,0:0:0:0:
235,280,85761,6,0,B|158:267|172:298|94:285,1,143.000004364014,4|2,1:0|0:0,0:0:0:0:
155,125,86352,1,2,0:0:0:0:
145,115,86470,2,0,L|134:215,2,95.3333362426759,0|2|4,1:0|0:0|3:0,0:0:0:0:
255,165,87179,5,4,3:0:0:0:
375,225,87415,1,4,3:0:0:0:
365,215,87533,2,0,L|350:270,1,47.6666681213379,4|2,3:0|0:0,0:0:0:0:
418,82,87769,1,4,3:0:0:0:
475,140,87887,6,0,L|433:162,1,47.6666681213379,4|0,1:0|0:0,0:0:0:0:
332,88,88123,6,0,L|352:131,1,47.6666681213379,4|0,1:0|0:0,0:0:0:0:
