osu file format v14

[General]
AudioFilename: audio.mp3
AudioLeadIn: 0
PreviewTime:59541
Countdown: 0
SampleSet: Soft
StackLeniency: 0.7
Mode: 0
LetterboxInBreaks: 0
WidescreenStoryboard: 0

[Editor]
DistanceSpacing: 1.1
BeatDivisor: 6
GridSize: 8
TimelineZoom: 1.6

[Metadata]
Title:Mahou no Kizuna (TV Size)
TitleUnicode:魔法のキズナ (TV Size)
Artist:Growth
ArtistUnicode:Growth
Creator:Mafumafu
Version:Hard
Source:TSUKIPRO THE ANIMATION
Tags:regraz Kyouren gokugohan12468 kittyadventure kirishima- malphs japanese anime folk jpop j-pop pop male idol 衛藤昂輝 土岐隼一 八重樫剣介 山谷祥生 櫻庭涼太 山下大輝 藤村衛 寺島惇太 滝沢章 はまたけし ツキプロ・ジ・アニメーション ツキプロ opening op4
BeatmapID:4379535
BeatmapSetID:2089713

[Difficulty]
HPDrainRate:4.4
CircleSize:4
OverallDifficulty:6
ApproachRate:8
SliderMultiplier:2.4
SliderTickRate:1

[Events]
//Background and Video events
0,0,"wp7789272.jpg",0,0
//Break Periods
//Storyboard Layer 0 (Background)
//Storyboard Layer 1 (Fail)
//Storyboard Layer 2 (Pass)
//Storyboard Layer 3 (Foreground)
//Storyboard Layer 4 (Overlay)
//Storyboard Sound Samples

[TimingPoints]
723,708.658627328239,4,2,1,70,1,0
13479,708.658627328239,4,2,1,60,1,0
13479,-111.111111111111,4,2,1,60,0,0
36156,-100,4,2,1,70,0,0
58833,-100,4,2,1,60,0,0
60250,708.658627328239,4,2,1,80,1,0
60250,-90.9090909090909,4,2,1,80,0,1
82927,-90.9090909090909,4,2,1,70,0,0

[Colours]
Combo1 : 215,200,145
Combo2 : 90,90,120
Combo3 : 220,220,205
Combo4 : 135,85,105

[HitObjects]
103,50,723,6,0,P|152:109|135:160,1,120,4|0,1:0|0:0,0:0:0:0:
139,237,1313,1,2,0:0:0:0:
139,237,1431,2,0,P|81:224|28:225,2,80,4|0|4,3:0|0:0|3:0,0:0:0:0:
172,317,2140,6,0,P|247:300|300:302,1,120,4|0,3:0|0:0,0:0:0:0:
373,343,2731,1,2,0:0:0:0:
373,343,2849,2,0,P|424:329|435:282,1,80,4|0,3:0|0:0,0:0:0:0:
423,220,3321,1,4,3:0:0:0:
273,217,3557,6,0,L|288:70,1,120,4|0,1:0|0:0,0:0:0:0:
353,42,4148,1,2,0:0:0:0:
353,42,4266,2,0,P|400:42|429:5,2,80,4|0|4,3:0|0:0|3:0,0:0:0:0:
285,98,4975,6,0,P|218:67|158:102,1,120,4|0,3:0|0:0,0:0:0:0:
124,151,5565,1,2,0:0:0:0:
124,151,5683,2,0,P|70:161|39:142,1,80,4|4,3:0|3:0,0:0:0:0:
26,65,6156,1,4,3:0:0:0:
11,230,6392,6,0,P|92:269|116:312,1,120,4|0,1:0|0:0,0:0:0:0:
183,245,6983,1,2,0:0:0:0:
182,244,7101,2,0,P|173:206|184:167,2,80,4|0|2,3:0|0:0|0:0,0:0:0:0:
269,262,7809,6,0,P|284:204|268:148,1,120,4|0,3:0|0:0,0:0:0:0:
345,103,8400,1,2,0:0:0:0:
345,103,8518,2,0,L|442:112,1,80,4|0,3:0|0:0,0:0:0:0:
512,119,8990,1,2,0:0:0:0:
488,263,9227,6,0,L|342:250,1,120,4|0,1:0|0:0,0:0:0:0:
309,187,9817,1,2,0:0:0:0:
309,187,9935,2,0,P|244:187|208:217,2,80,4|0|2,3:0|0:0|0:0,0:0:0:0:
374,128,10644,5,4,3:0:0:0:
313,64,10880,1,4,3:0:0:0:
313,64,10998,2,0,P|246:42|218:47,1,80,2|2,0:0|0:0,0:0:0:0:
205,72,11353,1,4,1:0:0:0:
400,42,11589,5,4,1:0:0:0:
256,192,11707,12,2,13006,0:0:0:0:
393,17,13479,6,0,P|342:54|365:142,1,143.999995605469,4|0,3:0|0:0,0:0:0:0:
417,169,14187,2,0,P|483:152|516:161,2,71.9999978027344,2|0|0,3:0|0:0|0:0,0:0:0:0:
377,238,14896,2,0,P|297:212|213:212,1,143.999995605469,4|2,3:0|0:0,0:0:0:0:
180,154,15604,1,2,3:0:0:0:
234,96,15841,2,0,L|238:48,2,35.9999989013672,4|2|2,3:0|0:0|0:0,0:0:0:0:
180,154,16313,6,0,P|116:193|150:269,1,143.999995605469,4|2,3:0|0:0,0:0:0:0:
192,297,17022,1,2,3:0:0:0:
260,257,17258,2,0,P|312:259|340:241,1,71.9999978027344,2|2,0:0|0:0,0:0:0:0:
343,172,17730,2,0,P|291:147|201:149,1,143.999995605469,4|0,3:0|0:0,0:0:0:0:
150,91,18439,1,2,3:0:0:0:
84,135,18675,2,0,L|97:193,1,35.9999989013672,2|0,3:0|0:0,0:0:0:0:
120,197,18912,2,0,L|109:251,1,35.9999989013672,8|8,3:0|3:0,0:0:0:0:
136,263,19148,6,0,P|61:272|-6:312,1,143.999995605469,4|2,3:0|0:0,0:0:0:0:
32,231,19856,2,0,P|50:187|43:153,1,71.9999978027344,2|0,3:0|0:0,0:0:0:0:
1,98,20329,1,2,3:0:0:0:
62,47,20565,2,0,P|137:44|188:102,1,143.999995605469,4|2,3:0|0:0,0:0:0:0:
253,51,21274,1,2,3:0:0:0:
297,116,21510,2,0,L|291:171,2,35.9999989013672,4|2|2,3:0|0:0|0:0,0:0:0:0:
349,56,21982,6,0,P|434:57|466:108,1,143.999995605469,4|0,3:0|0:0,0:0:0:0:
415,162,22691,1,2,3:0:0:0:
472,216,22927,2,0,P|489:269|483:308,1,71.9999978027344,2|2,0:0|0:0,0:0:0:0:
425,332,23400,2,0,P|337:315|261:322,1,143.999995605469,4|2,3:0|0:0,0:0:0:0:
240,251,24108,1,2,3:0:0:0:
185,308,24345,2,0,L|140:294,1,35.9999989013672
118,320,24581,2,0,L|69:334,1,35.9999989013672,4|4,3:0|3:0,0:0:0:0:
56,301,24817,6,0,P|37:244|73:190,1,107.999996704102,4|0,1:0|0:0,0:0:0:0:
109,143,25408,1,2,0:0:0:0:
109,143,25526,2,0,L|101:53,1,71.9999978027344,2|4,3:0|3:0,0:0:0:0:
177,45,25998,1,2,0:0:0:0:
251,72,26234,2,0,P|318:88|374:38,1,143.999995605469,4|2,3:0|0:0,0:0:0:0:
441,80,26943,1,2,3:0:0:0:
488,143,27179,1,4,3:0:0:0:
445,209,27415,1,4,3:0:0:0:
330,291,27652,6,0,P|263:272|196:289,1,107.999996704102,4|0,3:0|0:0,0:0:0:0:
182,210,28242,1,0,0:0:0:0:
182,210,28360,2,0,L|185:118,1,71.9999978027344,2|4,3:0|3:0,0:0:0:0:
159,62,28833,1,2,0:0:0:0:
92,111,29069,2,0,P|55:149|93:219,1,143.999995605469,4|2,3:0|0:0,0:0:0:0:
151,281,29778,1,2,3:0:0:0:
217,237,30014,2,0,L|272:239,2,35.9999989013672,2|2|4,3:0|3:0|3:0,0:0:0:0:
122,362,30486,6,0,P|37:351|1:369,1,107.999996704102,4|0,1:0|0:0,0:0:0:0:
0,280,31077,1,2,0:0:0:0:
0,280,31195,2,0,P|-6:235|14:194,1,71.9999978027344,2|4,3:0|3:0,0:0:0:0:
55,147,31667,1,2,0:0:0:0:
137,176,31904,2,0,P|175:233|134:316,1,143.999995605469,4|2,3:0|0:0,0:0:0:0:
139,337,32494,1,2,0:0:0:0:
139,337,32612,1,2,3:0:0:0:
219,363,32849,1,4,3:0:0:0:
276,305,33085,1,4,3:0:0:0:
409,307,33321,6,0,P|464:317|508:267,1,107.999996704102,4|0,3:0|0:0,0:0:0:0:
451,221,33911,1,2,0:0:0:0:
451,221,34030,2,0,L|458:135,1,71.9999978027344,2|4,3:0|3:0,0:0:0:0:
467,70,34502,1,2,0:0:0:0:
398,30,34738,2,0,B|324:16|347:107|263:89,1,143.999995605469,4|0,3:0|0:0,0:0:0:0:
215,42,35447,1,4,1:0:0:0:
147,83,35683,2,0,L|96:77,1,35.9999989013672,4|4,3:0|3:0,0:0:0:0:
83,107,35919,2,0,L|28:100,1,35.9999989013672,4|4,3:0|3:0,0:0:0:0:
9,116,36156,5,4,1:0:0:0:
60,186,36392,2,0,P|86:255|65:303,1,120
31,314,36864,1,0,1:0:0:0:
100,367,37100,2,0,L|187:355,1,80,4|4,3:0|3:0,0:0:0:0:
244,296,37573,1,2,3:2:0:0:
319,341,37809,2,0,P|391:338|420:278,1,120,4|0,3:0|0:0,0:0:0:0:
415,258,38282,1,0,1:0:0:0:
353,194,38518,1,4,3:0:0:0:
421,138,38754,1,4,3:0:0:0:
251,72,38990,6,0,P|187:56|147:88,1,120,4|0,3:0|0:0,0:0:0:0:
131,118,39463,1,2,0:0:0:0:
56,62,39699,1,0,1:0:0:0:
23,149,39935,2,0,P|37:205|32:241,1,80,2|2,3:2|3:2,0:0:0:0:
82,299,40408,1,4,3:0:0:0:
161,262,40644,2,0,P|160:222|173:184,1,80,2|4,3:2|3:0,0:0:0:0:
257,130,41116,1,0,1:0:0:0:
183,82,41352,1,4,3:0:0:0:
107,128,41589,1,4,3:0:0:0:
44,254,41825,6,0,P|-5:304|31:359,1,120,4|0,1:0|0:0,0:0:0:0:
44,369,42297,1,2,3:2:0:0:
128,341,42534,2,0,P|180:339|212:363,2,80,0|4|4,1:0|3:0|3:0,0:0:0:0:
94,265,43242,1,2,3:2:0:0:
153,200,43478,2,0,P|215:213|256:192,1,80,4|4,3:0|3:0,0:0:0:0:
270,131,43951,1,0,1:0:0:0:
354,106,44187,1,4,3:0:0:0:
430,149,44423,1,4,3:0:0:0:
238,211,44659,6,0,L|251:360,1,120,4|0,3:0|0:0,0:0:0:0:
282,348,45132,1,2,3:2:0:0:
355,303,45368,2,0,P|394:303|432:315,1,80,0|4,1:0|3:0,0:0:0:0:
483,240,45841,1,4,3:0:0:0:
483,240,46077,1,2,3:2:0:0:
435,165,46313,2,0,P|395:165|357:177,1,80,4|4,3:0|3:0,0:0:0:0:
291,240,46785,1,0,1:0:0:0:
224,183,47022,1,4,3:0:0:0:
287,120,47258,1,4,3:0:0:0:
162,249,47494,6,0,P|77:211|34:245,1,120,4|0,1:0|0:0,0:0:0:0:
26,246,47967,1,0,0:0:0:0:
3,163,48203,2,0,P|-8:120|8:79,2,80,0|4|4,1:0|3:0|3:0,0:0:0:0:
26,246,48911,1,2,3:2:0:0:
82,309,49148,2,0,P|122:304|161:313,1,80,4|4,3:0|3:0,0:0:0:0:
223,258,49620,1,0,1:0:0:0:
155,203,49857,1,4,3:0:0:0:
214,138,50093,1,4,3:0:0:0:
347,228,50329,6,0,P|400:244|453:184,1,120,4|0,3:0|0:0,0:0:0:0:
453,163,50801,1,2,3:2:0:0:
399,93,51037,2,0,L|308:103,1,80,0|2,1:0|3:2,0:0:0:0:
255,41,51510,1,2,3:2:0:0:
191,101,51746,2,0,L|97:88,2,80,4|2|4,3:0|3:2|3:0,0:0:0:0:
264,149,52455,1,0,1:0:0:0:
196,204,52691,1,4,3:0:0:0:
267,254,52927,1,4,3:0:0:0:
157,355,53163,6,0,P|92:345|21:359,1,120,4|0,1:0|0:0,0:0:0:0:
4,380,53636,1,2,3:2:0:0:
12,279,53872,2,0,P|25:225|18:190,2,80,0|4|2,1:0|3:0|3:2,0:0:0:0:
105,252,54581,1,2,3:2:0:0:
140,324,54817,2,0,P|179:321|217:333,1,80,4|4,3:0|3:0,0:0:0:0:
289,287,55289,1,0,1:0:0:0:
363,336,55526,1,4,3:0:0:0:
417,266,55762,1,4,3:0:0:0:
305,122,55998,6,0,P|262:148|189:125,1,120,4|0,1:0|0:0,0:0:0:0:
175,94,56470,1,2,3:2:0:0:
97,137,56707,2,0,L|110:199,2,40,0|2|2,1:0|0:0|3:2,0:0:0:0:
80,60,57179,1,2,0:0:0:0:
246,33,57415,2,0,P|319:46|322:138,1,160,4|2,1:0|0:0,0:0:0:0:
236,207,58124,5,4,3:1:0:0:
394,173,58360,1,4,1:0:0:0:
417,95,59541,5,2,0:0:0:0:
330,68,59778,1,2,0:0:0:0:
427,108,60014,1,2,0:0:0:0:
281,129,60250,6,0,B|193:111|216:213|117:202,1,176.000005371094,4|2,1:0|0:0,0:0:0:0:
108,175,60840,1,2,0:0:0:0:
107,174,60958,2,0,P|95:133|113:92,2,88.000002685547,0|2|4,1:0|0:0|3:0,0:0:0:0:
5,266,61667,2,0,P|28:313|14:364,1,88.000002685547,4|2,3:0|0:0,0:0:0:0:
0,381,62021,2,0,P|51:357|110:344,1,88.000002685547,4|0,3:0|0:0,0:0:0:0:
113,367,62375,1,0,1:0:0:0:
185,311,62612,2,0,L|179:256,2,44.0000013427735,4|0|4,3:0|0:0|3:0,0:0:0:0:
326,351,63084,6,0,P|405:340|424:278,1,132.00000402832,4|4,1:0|3:0,0:0:0:0:
402,265,63557,1,2,0:0:0:0:
360,129,63793,2,0,L|452:106,2,88.000002685547,4|0|2,1:0|0:0|0:0,0:0:0:0:
214,125,64501,2,0,P|164:101|119:133,1,88.000002685547,4|0,1:0|0:0,0:0:0:0:
117,93,64856,2,0,P|72:130|78:187,1,88.000002685547,4|2,3:0|0:0,0:0:0:0:
86,190,65210,1,0,1:0:0:0:
137,333,65446,2,0,L|194:320,1,44.0000013427735,4|0,3:0|0:0,0:0:0:0:
201,294,65683,2,0,L|253:304,1,44.0000013427735,4|0,3:0|0:0,0:0:0:0:
282,289,65919,6,0,L|296:168,2,88.000002685547,4|0|2,1:0|0:0|0:0,0:0:0:0:
457,341,66627,1,0,1:0:0:0:
410,259,66864,2,0,L|401:209,2,44.0000013427735,4|0|4,3:0|0:0|3:0,0:0:0:0:
251,282,67336,2,0,P|211:334|156:322,1,88.000002685547,4|0,3:0|0:0,0:0:0:0:
189,351,67690,2,0,P|124:347|100:303,1,88.000002685547,4|0,3:0|0:0,0:0:0:0:
116,304,68045,1,0,1:0:0:0:
103,189,68281,2,0,L|89:121,1,44.0000013427735,4|0,3:0|0:0,0:0:0:0:
134,141,68517,2,0,L|145:57,1,44.0000013427735,4|4,3:0|3:0,0:0:0:0:
160,64,68753,6,0,P|111:23|47:43,1,132.00000402832,4|2,1:0|0:0,0:0:0:0:
28,72,69226,1,2,0:0:0:0:
103,209,69462,2,0,P|116:270|101:303,2,88.000002685547,0|0|2,1:0|0:0|0:0,0:0:0:0:
175,66,70171,2,0,P|236:67|255:37,1,88.000002685547,4|0,3:0|0:0,0:0:0:0:
259,16,70525,1,2,0:0:0:0:
259,16,70643,1,4,3:0:0:0:
357,49,70879,1,0,1:0:0:0:
440,145,71116,1,4,3:0:0:0:
441,120,71234,1,4,3:0:0:0:
444,96,71352,1,4,3:0:0:0:
301,151,71588,6,0,B|220:142|236:233|142:235,1,176.000005371094,4|2,1:0|0:0,0:0:0:0:
197,255,72179,1,2,0:0:0:0:
197,255,72297,2,0,P|218:305|181:349,1,88.000002685547,0|2,1:0|0:0,0:0:0:0:
123,371,72769,1,4,3:0:0:0:
336,337,73005,2,0,P|407:328|442:345,1,88.000002685547,4|2,3:0|0:0,0:0:0:0:
438,302,73360,2,0,P|453:253|428:215,1,88.000002685547,4|0,3:0|0:0,0:0:0:0:
411,197,73714,1,0,1:0:0:0:
319,64,73950,2,0,L|268:79,1,44.0000013427735,4|0,3:0|0:0,0:0:0:0:
251,111,74186,2,0,L|200:98,1,44.0000013427735,4|0,3:0|0:0,0:0:0:0:
164,71,74423,6,0,P|194:179|186:225,1,132.00000402832,4|4,1:0|3:0,0:0:0:0:
197,244,74895,1,2,0:0:0:0:
94,343,75131,2,0,P|38:324|5:338,2,88.000002685547,4|0|2,1:0|0:0|0:0,0:0:0:0:
11,200,75840,2,0,P|63:163|53:116,1,88.000002685547,4|0,1:0|0:0,0:0:0:0:
73,110,76194,2,0,P|92:158|153:163,1,88.000002685547,4|0,3:0|0:0,0:0:0:0:
145,152,76549,1,0,1:0:0:0:
248,50,76785,2,0,L|302:59,1,44.0000013427735,4|0,3:0|0:0,0:0:0:0:
313,82,77021,2,0,L|361:70,1,44.0000013427735,4|0,3:0|0:0,0:0:0:0:
396,44,77257,6,0,P|432:116|411:185,1,132.00000402832,4|4,1:0|3:0,0:0:0:0:
391,195,77730,1,2,0:0:0:0:
241,241,77966,2,0,P|199:224|143:228,1,88.000002685547,0|4,1:0|3:0,0:0:0:0:
96,286,78438,1,4,3:0:0:0:
266,349,78675,2,0,L|361:334,1,88.000002685547,4|0,3:0|0:0,0:0:0:0:
379,358,79029,2,0,L|363:259,1,88.000002685547,0|0,1:0|0:0,0:0:0:0:
358,231,79383,1,0,1:0:0:0:
267,140,79620,2,0,L|208:150,1,44.0000013427735,4|0,3:0|0:0,0:0:0:0:
200,118,79856,2,0,L|147:107,1,44.0000013427735,4|4,3:0|3:0,0:0:0:0:
120,78,80092,6,0,P|139:151|133:232,1,132.00000402832,4|2,1:0|0:0,0:0:0:0:
136,378,80682,1,0,0:0:0:0:
136,378,80801,2,0,P|86:360|42:368,1,88.000002685547,0|4,1:0|3:0,0:0:0:0:
6,246,81273,2,0,L|-8:190,1,44.0000013427735,4|4,3:0|3:0,0:0:0:0:
23,173,81509,2,0,L|46:66,2,88.000002685547,4|0|4,1:0|0:0|3:0,0:0:0:0:
162,121,82218,1,0,1:0:0:0:
196,260,82454,2,0,L|245:250,1,44.0000013427735,4|0,3:0|0:0,0:0:0:0:
260,216,82690,2,0,L|315:229,1,44.0000013427735,4|0,3:0|0:0,0:0:0:0:
344,256,82927,5,4,1:0:0:0:
440,181,83163,1,0,0:0:0:0:
440,181,83281,2,0,P|406:139|347:144,1,88.000002685547,2|2,0:0|0:0,0:0:0:0:
355,106,83635,2,0,P|294:131|238:106,2,88.000002685547,0|2|4,1:0|0:0|3:0,0:0:0:0:
204,54,84344,6,0,P|152:26|98:24,1,88.000002685547,4|2,3:0|0:0,0:0:0:0:
129,45,84698,2,0,P|75:46|38:75,1,88.000002685547,2|0,0:0|0:0,0:0:0:0:
33,89,85053,1,0,1:0:0:0:
103,169,85289,1,2,0:0:0:0:
18,227,85525,1,4,3:0:0:0:
87,319,85761,6,0,P|144:301|186:309,1,88.000002685547,4|0,1:0|0:0,0:0:0:0:
173,278,86116,2,0,P|220:293|253:336,1,88.000002685547,2|2,0:0|0:0,0:0:0:0:
243,348,86470,1,0,1:0:0:0:
352,316,86706,1,2,0:0:0:0:
464,345,86942,1,4,3:0:0:0:
287,233,87179,5,4,3:0:0:0:
416,146,87415,1,4,3:0:0:0:
416,146,87533,1,4,3:0:0:0:
302,81,87769,1,4,3:0:0:0:
302,81,87887,5,4,1:0:0:0:
392,253,88123,1,4,1:0:0:0:
