osu file format v14

[General]
AudioFilename: audio.mp3
AudioLeadIn: 0
PreviewTime: -1
Countdown: 1
SampleSet: None
StackLeniency: 0.7
Mode: 1
LetterboxInBreaks: 0
WidescreenStoryboard: 1

[Editor]
Bookmarks: 86830,106030,125230,146830,166030,185230
DistanceSpacing: 0.4
BeatDivisor: 4
GridSize: 16
TimelineZoom: 1

[Metadata]
Title:File Select
TitleUnicode:File Select
Artist:GrooveCube
ArtistUnicode:GrooveCube
Creator:Lno
Version:File 1
Source:
Tags:
BeatmapID:1388261
BeatmapSetID:655037

[Difficulty]
HPDrainRate:3
CircleSize:3
OverallDifficulty:4
ApproachRate:3
SliderMultiplier:1.4
SliderTickRate:1

[Events]
//Background and Video events
0,0,"bg.jpg",0,0
//Break Periods
//Storyboard Layer 0 (Background)
//Storyboard Layer 1 (Fail)
//Storyboard Layer 2 (Pass)
//Storyboard Layer 3 (Foreground)
//Storyboard Sound Samples

[TimingPoints]
10030,300,4,1,0,100,1,0
10030,-100,4,1,0,100,0,1
28930,-100,4,1,0,100,0,0
48430,-100,4,1,0,100,0,1
67480,-100,4,1,0,100,0,0
86830,-100,4,2,0,75,0,0
106030,-100,4,1,0,100,0,1
124930,-100,4,1,0,100,0,0
146830,-100,4,1,0,100,0,1
165880,-100,4,1,0,100,0,0
185230,-100,4,1,0,100,0,1
194530,-100,4,1,0,100,0,0
194830,-100,4,2,0,75,0,0

[HitObjects]
224,224,10030,5,0,0:0:0:0:
288,224,10630,1,8,0:0:0:0:
224,224,11230,1,0,0:0:0:0:
224,224,11530,1,0,0:0:0:0:
288,224,11830,1,8,0:0:0:0:
224,224,12430,1,0,0:0:0:0:
288,224,13030,1,8,0:0:0:0:
224,224,13630,1,0,0:0:0:0:
224,224,13930,1,0,0:0:0:0:
288,224,14230,1,8,0:0:0:0:
224,224,14830,1,0,0:0:0:0:
288,224,15430,1,8,0:0:0:0:
224,224,16030,1,0,0:0:0:0:
224,224,16330,1,0,0:0:0:0:
288,224,16630,1,8,0:0:0:0:
224,224,17230,1,0,0:0:0:0:
288,224,17830,1,8,0:0:0:0:
224,224,18430,1,0,0:0:0:0:
224,224,18730,1,0,0:0:0:0:
288,224,19030,1,8,0:0:0:0:
288,224,19630,1,8,0:0:0:0:
288,224,20230,1,8,0:0:0:0:
288,224,20830,1,8,0:0:0:0:
288,224,21130,1,8,0:0:0:0:
288,224,21430,1,8,0:0:0:0:
288,224,21730,1,8,0:0:0:0:
224,224,22030,1,0,0:0:0:0:
288,224,22630,1,8,0:0:0:0:
224,224,23230,1,0,0:0:0:0:
224,224,23530,1,0,0:0:0:0:
224,224,23830,1,0,0:0:0:0:
224,224,24130,1,0,0:0:0:0:
288,224,24430,1,8,0:0:0:0:
288,224,25030,1,8,0:0:0:0:
288,224,25630,1,8,0:0:0:0:
288,224,25930,1,8,0:0:0:0:
288,224,26230,1,8,0:0:0:0:
224,224,26530,1,0,0:0:0:0:
224,224,26830,1,0,0:0:0:0:
288,224,27430,1,8,0:0:0:0:
224,224,28030,1,0,0:0:0:0:
224,224,28330,1,0,0:0:0:0:
224,224,28630,1,0,0:0:0:0:
224,224,28930,1,0,0:0:0:0:
224,224,29230,1,0,0:0:0:0:
224,224,31630,1,0,0:0:0:0:
224,224,34030,1,0,0:0:0:0:
224,224,36430,1,0,0:0:0:0:
224,224,38830,1,0,0:0:0:0:
224,224,40030,1,0,0:0:0:0:
224,224,41230,1,0,0:0:0:0:
224,224,42430,1,0,0:0:0:0:
224,224,43630,1,0,0:0:0:0:
224,224,44230,1,0,0:0:0:0:
224,224,44830,1,0,0:0:0:0:
224,224,45430,1,0,0:0:0:0:
224,224,46030,1,0,0:0:0:0:
224,224,48430,1,0,0:0:0:0:
288,224,49030,1,8,0:0:0:0:
224,224,49630,1,0,0:0:0:0:
224,224,49930,1,0,0:0:0:0:
288,224,50230,1,8,0:0:0:0:
224,224,50830,1,0,0:0:0:0:
288,224,51430,1,8,0:0:0:0:
224,224,52030,1,0,0:0:0:0:
224,224,52330,1,0,0:0:0:0:
288,224,52630,1,8,0:0:0:0:
224,224,53230,1,0,0:0:0:0:
288,224,53830,1,8,0:0:0:0:
224,224,54430,1,0,0:0:0:0:
224,224,54730,1,0,0:0:0:0:
288,224,55030,1,8,0:0:0:0:
224,224,55630,1,0,0:0:0:0:
288,224,56230,1,8,0:0:0:0:
224,224,56830,1,0,0:0:0:0:
224,224,57130,1,0,0:0:0:0:
288,224,57430,1,8,0:0:0:0:
288,224,58030,1,8,0:0:0:0:
288,224,58930,1,8,0:0:0:0:
288,224,59230,1,8,0:0:0:0:
224,224,59830,1,0,0:0:0:0:
288,224,60130,1,8,0:0:0:0:
224,224,60430,1,0,0:0:0:0:
224,224,61330,1,0,0:0:0:0:
224,224,61630,1,0,0:0:0:0:
288,224,62230,1,8,0:0:0:0:
224,224,62530,1,0,0:0:0:0:
288,224,62830,1,8,0:0:0:0:
288,224,63730,1,8,0:0:0:0:
288,224,64030,1,8,0:0:0:0:
224,224,64630,1,0,0:0:0:0:
288,224,64930,1,8,0:0:0:0:
224,224,65230,1,0,0:0:0:0:
224,224,66130,1,0,0:0:0:0:
224,224,66430,1,0,0:0:0:0:
224,224,66730,1,0,0:0:0:0:
288,224,67030,1,8,0:0:0:0:
224,224,67630,1,0,0:0:0:0:
288,224,67930,1,8,0:0:0:0:
288,224,68380,1,8,0:0:0:0:
288,224,69130,1,8,0:0:0:0:
288,224,69430,1,8,0:0:0:0:
224,224,70030,1,0,0:0:0:0:
288,224,70330,1,8,0:0:0:0:
288,224,70780,1,8,0:0:0:0:
224,224,71530,1,0,0:0:0:0:
288,224,71830,1,8,0:0:0:0:
224,224,72430,1,0,0:0:0:0:
288,224,72730,1,8,0:0:0:0:
288,224,73180,1,8,0:0:0:0:
288,224,73930,1,8,0:0:0:0:
288,224,74230,1,8,0:0:0:0:
224,224,74830,1,0,0:0:0:0:
288,224,75130,1,8,0:0:0:0:
288,224,75580,1,8,0:0:0:0:
224,224,76330,1,0,0:0:0:0:
288,224,76630,1,8,0:0:0:0:
224,160,77230,1,4,0:0:0:0:
224,160,77830,1,4,0:0:0:0:
288,224,78430,1,8,0:0:0:0:
224,224,79030,1,0,0:0:0:0:
288,224,79330,1,8,0:0:0:0:
288,160,79930,1,12,0:0:0:0:
288,160,80530,1,12,0:0:0:0:
224,224,81130,1,0,0:0:0:0:
288,224,81430,1,8,0:0:0:0:
224,160,82030,1,4,0:0:0:0:
224,160,82630,1,4,0:0:0:0:
288,224,83230,1,8,0:0:0:0:
224,224,83830,1,0,0:0:0:0:
288,224,84130,1,8,0:0:0:0:
224,224,84430,2,8,L|64:224,3,140
256,192,85630,12,0,86230,0:0:0:0:
224,224,86830,5,0,0:0:0:0:
224,224,89230,1,0,0:0:0:0:
224,224,91630,1,0,0:0:0:0:
224,224,94030,1,0,0:0:0:0:
288,224,96430,1,8,0:0:0:0:
288,224,97030,1,8,0:0:0:0:
224,224,97330,1,0,0:0:0:0:
288,224,97630,1,8,0:0:0:0:
288,224,98230,1,8,0:0:0:0:
288,224,98530,1,8,0:0:0:0:
288,224,98830,1,8,0:0:0:0:
288,224,99430,1,8,0:0:0:0:
224,224,99730,1,0,0:0:0:0:
288,224,100030,1,8,0:0:0:0:
288,224,100630,1,8,0:0:0:0:
224,224,101230,1,0,0:0:0:0:
224,224,102430,1,0,0:0:0:0:
224,224,103630,1,0,0:0:0:0:
224,224,104230,1,0,0:0:0:0:
224,224,104830,1,0,0:0:0:0:
288,224,105430,1,8,0:0:0:0:
224,224,106030,1,0,0:0:0:0:
288,224,106630,1,8,0:0:0:0:
224,224,107230,1,0,0:0:0:0:
224,224,107530,1,0,0:0:0:0:
288,224,107830,1,8,0:0:0:0:
224,224,108430,1,0,0:0:0:0:
288,224,109030,1,8,0:0:0:0:
224,224,109630,1,0,0:0:0:0:
224,224,109930,1,0,0:0:0:0:
288,224,110230,1,8,0:0:0:0:
224,224,110830,1,0,0:0:0:0:
288,224,111430,1,8,0:0:0:0:
224,224,112030,1,0,0:0:0:0:
224,224,112330,1,0,0:0:0:0:
288,224,112630,1,8,0:0:0:0:
224,224,113230,1,0,0:0:0:0:
288,224,113830,1,8,0:0:0:0:
224,224,114430,1,0,0:0:0:0:
224,224,114730,1,0,0:0:0:0:
288,224,115030,1,8,0:0:0:0:
288,224,115630,1,8,0:0:0:0:
288,224,116230,1,8,0:0:0:0:
288,224,116830,1,8,0:0:0:0:
288,224,117130,1,8,0:0:0:0:
288,224,117430,1,8,0:0:0:0:
288,224,117730,1,8,0:0:0:0:
224,224,118030,1,0,0:0:0:0:
288,224,118630,1,8,0:0:0:0:
224,224,119230,1,0,0:0:0:0:
224,224,119530,1,0,0:0:0:0:
224,224,119830,1,0,0:0:0:0:
224,224,120130,1,0,0:0:0:0:
288,224,120430,1,8,0:0:0:0:
288,224,121030,1,8,0:0:0:0:
288,224,121630,1,8,0:0:0:0:
288,224,121930,1,8,0:0:0:0:
288,224,122230,1,8,0:0:0:0:
224,224,122530,1,0,0:0:0:0:
224,224,122830,1,0,0:0:0:0:
288,224,123430,1,8,0:0:0:0:
224,224,124030,1,0,0:0:0:0:
224,224,124330,1,0,0:0:0:0:
224,224,124630,1,0,0:0:0:0:
224,224,124930,1,0,0:0:0:0:
224,224,125230,1,0,0:0:0:0:
288,224,125830,1,8,0:0:0:0:
256,192,126430,12,8,127330,0:0:0:0:
224,160,127630,5,4,0:0:0:0:
224,160,129130,1,4,0:0:0:0:
288,224,129430,1,8,0:0:0:0:
224,160,130030,1,4,0:0:0:0:
288,224,130630,1,8,0:0:0:0:
224,160,131230,1,4,0:0:0:0:
224,160,131830,1,4,0:0:0:0:
224,160,132430,1,4,0:0:0:0:
288,224,133030,1,8,0:0:0:0:
224,160,133630,1,4,0:0:0:0:
288,224,134230,1,8,0:0:0:0:
224,160,134830,1,4,0:0:0:0:
224,160,136030,1,4,0:0:0:0:
224,224,137230,1,0,0:0:0:0:
224,224,138430,1,0,0:0:0:0:
224,224,139630,1,0,0:0:0:0:
224,224,140830,1,0,0:0:0:0:
224,224,142030,1,0,0:0:0:0:
224,224,142630,1,0,0:0:0:0:
224,224,143230,1,0,0:0:0:0:
224,224,143830,1,0,0:0:0:0:
224,224,144430,1,0,0:0:0:0:
288,160,145630,1,12,0:0:0:0:
224,224,146830,1,0,0:0:0:0:
288,224,147430,1,8,0:0:0:0:
224,224,148030,1,0,0:0:0:0:
224,224,148330,1,0,0:0:0:0:
288,224,148630,1,8,0:0:0:0:
224,224,149230,1,0,0:0:0:0:
288,224,149830,1,8,0:0:0:0:
224,224,150430,1,0,0:0:0:0:
224,224,150730,1,0,0:0:0:0:
288,224,151030,1,8,0:0:0:0:
224,224,151630,1,0,0:0:0:0:
288,224,152230,1,8,0:0:0:0:
224,224,152830,1,0,0:0:0:0:
224,224,153130,1,0,0:0:0:0:
288,224,153430,1,8,0:0:0:0:
224,224,154030,1,0,0:0:0:0:
288,224,154630,1,8,0:0:0:0:
224,224,155230,1,0,0:0:0:0:
224,224,155530,1,0,0:0:0:0:
288,224,155830,1,8,0:0:0:0:
288,224,156430,1,8,0:0:0:0:
288,224,156880,1,8,0:0:0:0:
224,224,157330,1,0,0:0:0:0:
288,224,157630,1,8,0:0:0:0:
288,224,158530,1,8,0:0:0:0:
224,224,158830,1,0,0:0:0:0:
288,224,159280,1,8,0:0:0:0:
224,224,159730,1,0,0:0:0:0:
224,224,160030,1,0,0:0:0:0:
224,224,160330,1,0,0:0:0:0:
288,224,160630,1,8,0:0:0:0:
288,224,161230,1,8,0:0:0:0:
288,224,161680,1,8,0:0:0:0:
224,224,162130,1,0,0:0:0:0:
288,224,162430,1,8,0:0:0:0:
288,224,163330,1,8,0:0:0:0:
224,224,163630,1,0,0:0:0:0:
288,224,164080,1,8,0:0:0:0:
224,224,164530,1,0,0:0:0:0:
224,224,164830,1,0,0:0:0:0:
224,224,165130,1,0,0:0:0:0:
288,224,165430,1,8,0:0:0:0:
224,224,166030,1,0,0:0:0:0:
288,224,166330,1,8,0:0:0:0:
288,224,166780,1,8,0:0:0:0:
224,224,167230,1,0,0:0:0:0:
288,224,167530,2,0,L|432:224,1,140
224,224,168430,1,0,0:0:0:0:
288,224,168730,1,8,0:0:0:0:
288,224,169180,1,8,0:0:0:0:
224,224,169630,1,0,0:0:0:0:
224,224,169930,1,0,0:0:0:0:
288,224,170230,1,8,0:0:0:0:
224,224,170830,1,0,0:0:0:0:
288,224,171130,1,8,0:0:0:0:
288,224,171580,1,8,0:0:0:0:
224,224,172030,1,0,0:0:0:0:
288,224,172330,2,0,L|448:224,1,140
224,224,173230,1,0,0:0:0:0:
288,224,173530,1,8,0:0:0:0:
288,224,173980,1,8,0:0:0:0:
224,224,174430,1,0,0:0:0:0:
224,224,174730,1,0,0:0:0:0:
288,224,175030,1,8,0:0:0:0:
224,160,175630,1,4,0:0:0:0:
224,160,176230,1,4,0:0:0:0:
288,160,176830,1,12,0:0:0:0:
224,160,178030,1,4,0:0:0:0:
224,160,178630,1,4,0:0:0:0:
288,160,179230,1,12,0:0:0:0:
224,160,180430,1,4,0:0:0:0:
224,160,181030,1,4,0:0:0:0:
224,160,181630,1,4,0:0:0:0:
224,224,182230,1,0,0:0:0:0:
288,224,182530,1,8,0:0:0:0:
288,224,182830,2,8,L|432:224,3,140
256,192,184030,12,8,184630,0:0:0:0:
224,224,185230,5,0,0:0:0:0:
288,224,185830,1,8,0:0:0:0:
224,224,186430,1,0,0:0:0:0:
224,224,186730,1,0,0:0:0:0:
288,224,187030,1,8,0:0:0:0:
224,224,187630,1,0,0:0:0:0:
288,224,188230,1,8,0:0:0:0:
224,224,188830,1,0,0:0:0:0:
224,224,189130,1,0,0:0:0:0:
288,224,189430,1,8,0:0:0:0:
224,224,190030,1,0,0:0:0:0:
288,224,190630,1,8,0:0:0:0:
224,224,191230,1,0,0:0:0:0:
224,224,191530,1,0,0:0:0:0:
288,224,191830,1,8,0:0:0:0:
224,224,192430,1,0,0:0:0:0:
288,224,193030,1,8,0:0:0:0:
224,224,193630,1,0,0:0:0:0:
224,224,193930,1,0,0:0:0:0:
288,224,194230,1,8,0:0:0:0:
288,224,194830,1,8,0:0:0:0:
224,224,197230,1,0,0:0:0:0:
288,224,199630,1,8,0:0:0:0:
224,224,202030,1,0,0:0:0:0:
288,224,204430,1,8,0:0:0:0:
288,224,204880,1,8,0:0:0:0:
288,224,205330,1,8,0:0:0:0:
224,224,205630,2,8,L|64:224,4,140
256,192,207130,12,0,207730,0:0:0:0:
