osu file format v14

[General]
AudioFilename: Groove Coverage - Runaway (Nightcore Mix).mp3
AudioLeadIn: 0
PreviewTime: 24148
Countdown: 0
SampleSet: Soft
StackLeniency: 0.7
Mode: 0
LetterboxInBreaks: 0
EpilepsyWarning: 1
WidescreenStoryboard: 0

[Editor]
DistanceSpacing: 1.1
BeatDivisor: 4
GridSize: 4
TimelineZoom: 1

[Metadata]
Title:Runaway (Nightcore Mix)
TitleUnicode:Runaway (Nightcore Mix)
Artist:Groove Coverage
ArtistUnicode:Groove Coverage
Creator:MkGuh
Version:Easy
Source:
Tags:speed up remix Gero techno trance dance rave lumael
BeatmapID:861443
BeatmapSetID:395885

[Difficulty]
HPDrainRate:1.5
CircleSize:3
OverallDifficulty:2
ApproachRate:3
SliderMultiplier:0.8
SliderTickRate:1

[Events]
//Background and Video events
0,0,"Konachan.com - 211778 sample.jpg",0,0
//Break Periods
2,52694,56453
2,99263,108421
//Storyboard Layer 0 (Background)
//Storyboard Layer 1 (Fail)
//Storyboard Layer 2 (Pass)
//Storyboard Layer 3 (Foreground)
//Storyboard Sound Samples

[TimingPoints]
1183,337.457817772778,4,2,1,40,1,0
24148,337.457817772778,4,2,1,65,1,0
34946,-100,4,1,1,60,0,1
47095,-100,4,1,2,50,0,0
57893,-100,4,2,2,60,0,0
63293,-100,4,1,1,50,0,0
80841,-100,4,2,1,60,0,0
86240,-100,4,1,1,50,0,0
91639,-100,4,2,1,60,0,0
99063,337.457817772778,4,2,1,30,1,0
109861,-100,4,1,1,40,0,0
111211,-100,4,2,1,50,0,0
115260,-100,4,1,1,50,0,0
116610,-100,4,1,1,55,0,0
117960,-100,4,1,1,60,0,0
132808,-100,4,1,1,60,0,1
143607,-100,4,1,1,60,0,0
143691,-100,4,2,1,20,0,0
144872,-100,4,2,1,5,0,0

[Colours]
Combo1 : 0,140,70
Combo2 : 0,151,223
Combo3 : 166,0,83
Combo4 : 166,166,0

[HitObjects]
444,296,11981,6,0,P|436:252|448:212,1,80,2|0,0:0|0:0,0:0:0:0:
488,140,12656,2,0,P|468:64|384:32,1,160,2|2,0:0|0:0,0:0:0:0:
224,32,14006,1,2,0:0:0:0:
84,152,14681,6,0,P|72:188|84:236,1,80,2|0,0:0|0:0,0:0:0:0:
52,312,15356,2,0,P|104:268|200:284,1,160,2|2,0:0|0:0,0:0:0:0:
352,352,16706,1,2,0:0:0:0:
456,212,17380,6,0,L|448:128,1,80,2|0,0:0|0:0,0:0:0:0:
496,56,18055,2,0,B|424:20|412:80|336:48,1,160,2|2,0:0|0:0,0:0:0:0:
180,120,19405,1,2,0:0:0:0:
304,240,20080,6,0,L|396:220,2,80,2|0|2,0:0|0:0|0:0,0:0:0:0:
168,352,21430,2,0,P|128:360|80:348,1,80,2|0,0:0|0:0,0:0:0:0:
48,276,22105,2,0,P|88:268|136:280,1,80,2|0,0:0|0:0,0:0:0:0:
256,192,22780,12,4,24148,1:0:0:0:
368,188,25497,6,0,P|380:268|332:332,1,160,0|0,1:0|1:0,0:0:0:0:
256,292,26510,1,0,1:0:0:0:
176,328,26847,6,0,P|132:264|145:187,1,160,0|0,1:0|1:0,0:0:0:0:
172,104,27860,1,0,1:0:0:0:
252,68,28197,2,0,P|292:76|336:68,2,80,0|0|0,1:0|1:0|1:0,0:0:0:0:
172,104,29209,1,0,1:0:0:0:
196,188,29547,6,0,P|168:232|68:240,1,160,0|0,1:0|1:0,0:0:0:0:
20,168,30559,1,0,1:0:0:0:
108,164,30897,2,0,L|160:324,1,160,0|0,1:0|1:0,0:0:0:0:
236,356,31909,1,0,1:0:0:0:
304,300,32246,6,0,P|344:292|384:300,2,80,0|0|0,1:0|1:0|1:0,0:0:0:0:
236,356,33259,1,0,1:0:0:0:
149,340,33596,2,0,L|125:180,1,160,0|0,1:0|1:0,0:0:0:0:
84,104,34609,1,0,1:0:0:0:
152,48,34946,6,0,P|196:100|292:96,1,160,4|0,0:0|0:0,0:0:0:0:
360,56,35959,1,8,0:0:0:0:
428,112,36296,2,0,P|440:152|424:200,1,80,0|8,0:0|0:0,0:0:0:0:
352,228,36971,2,0,P|340:268|356:316,1,80,0|8,0:0|0:0,0:0:0:0:
428,348,37646,6,0,L|264:368,1,160,0|0,0:0|0:0,0:0:0:0:
188,336,38658,1,8,0:0:0:0:
108,304,38996,2,0,P|140:300|180:192,1,160,0|0,0:0|0:0,0:0:0:0:
124,128,40008,1,8,0:0:0:0:
176,56,40345,6,0,L|340:80,1,160,0|0,0:0|0:0,0:0:0:0:
412,120,41358,1,8,0:0:0:0:
472,184,41695,2,0,P|424:208|332:156,1,160,0|0,0:0|0:0,0:0:0:0:
260,116,42708,1,8,0:0:0:0:
172,112,43045,6,0,P|128:116|80:140,2,80,0|8|0,0:0|0:0|0:0,0:0:0:0:
212,196,44058,1,8,0:0:0:0:
164,272,44395,2,0,B|220:300|276:260|276:260|344:288|348:368,1,240,4|0,0:0|0:0,0:0:0:0:
256,192,45745,12,4,47095,1:0:0:0:
160,92,48444,6,0,P|144:132|152:176,2,80,0|0|0,0:0|0:0|0:0,0:0:0:0:
228,36,49457,1,0,0:0:0:0:
312,64,49794,6,0,L|480:52,1,160
380,204,51144,2,0,L|212:216,1,160,0|0,0:0|0:0,0:0:0:0:
136,236,52156,1,0,0:0:0:0:
60,196,52494,5,4,0:0:0:0:
24,52,57893,5,4,1:0:0:0:
104,88,58231,2,0,L|264:72,1,160,0|0,1:0|1:0,1:0:0:0:
336,24,59243,1,0,1:0:0:0:
352,112,59581,2,0,P|364:180|308:248,1,160,0|0,1:0|1:0,0:0:0:0:
240,196,60593,5,0,1:0:0:0:
224,284,60930,2,0,P|276:332|360:328,1,160,0|0,1:0|1:0,0:0:0:0:
428,272,61943,2,0,L|416:184,1,80,0|0,1:0|1:0,0:0:0:0:
340,152,62618,2,0,L|324:56,1,80,0|0,1:0|1:0,1:0:0:0:
256,20,63293,5,0,0:0:0:0:
184,72,63630,2,0,L|96:216,1,160,8|8,0:0|0:0,0:0:0:0:
60,288,64642,1,0,0:0:0:0:
148,304,64980,2,0,B|224:316|224:316|256:288|304:288,1,160,8|8,0:0|0:0,0:0:0:0:
372,336,65992,5,0,0:0:0:0:
448,296,66330,2,0,P|468:236|464:208,1,80,8|0,0:0|0:0,0:0:0:0:
472,132,67005,1,8,0:0:0:0:
400,84,67343,2,0,L|322:62,1,80,0|8,0:0|0:0,0:0:0:0:
236,64,68017,2,0,L|212:20,2,40,0|0|8,0:0|0:0|0:0,0:0:0:0:
216,152,68692,6,0,P|204:196|168:224,1,80,4|8,0:0|0:0,0:0:0:0:
96,192,69367,2,0,P|100:260|176:308,1,160
256,328,70379,1,8,0:0:0:0:
340,308,70717,2,0,B|364:212|332:244|344:148,1,160
360,64,71729,5,8,0:0:0:0:
276,44,72067,2,0,P|208:80|192:76,1,80,0|8,0:0|0:0,0:0:0:0:
148,16,72741,2,0,P|120:76|164:160,1,160
212,228,73754,1,8,0:0:0:0:
172,308,74091,6,0,P|216:316|260:304,1,80,4|8,0:0|0:0,0:0:0:0:
312,248,74766,1,0,0:0:0:0:
400,256,75104,1,8,0:0:0:0:
448,184,75441,2,0,L|440:100,1,80,0|8,0:0|0:0,0:0:0:0:
392,32,76116,2,0,P|352:24|312:32,1,80,0|8,0:0|0:0,0:0:0:0:
228,48,76791,5,0,0:0:0:0:
212,136,77128,2,0,L|224:296,1,160,8|8,0:0|0:0,0:0:0:0:
148,344,78141,2,0,P|52:316|32:264,1,160
16,180,79153,1,8,0:0:0:0:
36,96,79491,6,0,B|96:84|128:124|128:124|176:48|260:64,1,240,2|0,0:2|0:0,0:0:0:0:
328,20,80840,5,4,1:0:0:0:
396,76,81178,2,0,P|404:116|388:164,1,80,0|0,1:0|1:0,0:0:0:0:
376,240,81853,1,0,1:0:0:0:
312,300,82190,2,0,P|240:328|164:300,1,160,2|0,1:0|1:0,0:0:0:0:
176,212,83203,1,0,1:0:0:0:
204,128,83540,6,0,P|164:124|120:144,2,80,0|0|0,1:0|1:0|1:0,0:0:0:0:
280,172,84552,1,0,1:0:0:0:
360,208,84890,2,0,L|444:68,1,160,0|0,1:0|1:0,0:0:0:0:
372,16,85902,1,0,1:0:0:0:
288,40,86240,6,0,P|248:48|200:36,1,80,0|8,0:0|0:0,0:0:0:0:
128,72,86915,2,0,P|88:64|49:72,1,80,0|8,0:0|0:0,0:0:0:0:
88,152,87590,2,0,P|64:252|96:308,1,160
164,344,88602,1,8,0:0:0:0:
248,324,88939,6,0,P|288:316|332:324,2,80,0|8|0,0:0|0:0|0:0,0:0:0:0:
188,260,89952,1,8,0:0:0:0:
132,192,90289,2,0,P|116:116|156:28,1,160
228,12,91302,1,8,0:0:0:0:
312,36,91639,6,0,L|429:13,2,120,4|2|0,0:0|0:0|0:0,0:0:0:0:
332,120,92989,2,0,L|174:150,1,160,2|2,0:0|0:0,0:0:0:0:
36,256,94339,6,0,P|40:316|84:364,2,120,2|2|0,0:0|0:0|0:0,0:0:0:0:
64,172,95689,2,0,L|141:151,1,80,2|0,0:0|0:0,0:0:0:0:
193,80,96363,1,2,0:0:0:0:
256,192,96701,12,4,99063,0:0:0:0:
432,152,109861,6,0,B|440:232|392:268|392:268|288:340,1,240,4|0,0:0|0:0,0:0:0:0:
212,332,111211,2,0,B|120:268|120:268|72:232|80:152,1,240,0|0,1:0|1:0,0:0:0:0:
144,92,112561,6,0,P|152:48|140:8,2,80,0|0|0,1:0|1:0|1:0,0:0:0:0:
80,152,113573,1,0,1:0:0:0:
152,204,113911,2,0,P|256:152|364:216,1,240,0|0,1:0|1:0,0:0:0:0:
420,264,115260,6,0,B|464:204|416:140|416:140|400:84|444:24,1,240
348,20,116610,2,0,L|92:44,1,240
256,192,117960,12,2,120660,2:0:0:0:
120,52,122010,6,0,P|168:76|188:108,1,80,4|0,0:0|0:0,0:0:0:0:
232,168,122685,2,0,P|272:220|364:212,1,160,0|0,0:0|0:0,0:0:0:0:
316,140,123697,1,0,0:0:0:0:
400,112,124034,2,0,P|356:60|264:68,1,160,0|0,0:0|0:0,0:0:0:0:
184,88,125047,5,0,0:0:0:0:
104,128,125384,2,0,P|88:184|100:220,1,80,0|0,0:0|0:0,0:0:0:0:
176,232,126059,2,0,P|136:280|36:272,1,160
92,203,127071,1,0,0:0:0:0:
160,144,127409,6,0,L|160:56,2,80,4|8|0,0:0|0:0|0:0,0:0:0:0:
92,203,128421,1,8,0:0:0:0:
132,280,128759,2,0,P|216:280|280:340,1,160
360,340,129771,1,8,0:0:0:0:
424,280,130109,6,0,L|416:192,1,80,0|8,0:0|0:0,0:0:0:0:
344,152,130784,2,0,L|336:64,1,80,0|8,0:0|0:0,0:0:0:0:
256,44,131458,2,0,P|184:36|124:108,1,160
96,176,132471,1,8,0:0:0:0:
140,252,132808,6,0,P|168:288|180:324,2,80,4|8|0,0:0|0:0|0:0,0:0:0:0:
96,176,133821,1,8,0:0:0:0:
136,96,134158,2,0,P|224:104|280:56,1,160
360,32,135170,1,8,0:0:0:0:
436,76,135508,6,0,P|460:128|456:168,1,80,0|8,0:0|0:0,0:0:0:0:
464,236,136183,1,0,0:0:0:0:
416,308,136520,1,8,0:0:0:0:
336,348,136858,2,0,P|256:332|168:348,1,160
96,320,137870,1,8,0:0:0:0:
88,232,138208,6,0,P|163:223|193:152,1,160,4|0,0:0|0:0,0:0:0:0:
256,92,139220,1,8,0:0:0:0:
320,152,139557,2,0,P|350:223|426:231,2,160
256,92,141245,6,0,L|172:108,1,80,8|0,0:0|0:0,0:0:0:0:
96,136,141920,1,8,0:0:0:0:
16,172,142257,2,0,P|88:224|156:200,1,160
220,148,143269,1,8,0:0:0:0:
256,192,143607,8,4,144872,0:0:0:0:
