osu file format v14

[General]
AudioFilename: audio.mp3
AudioLeadIn: 0
PreviewTime: 25435
Countdown: 0
SampleSet: Soft
StackLeniency: 0.4
Mode: 0
LetterboxInBreaks: 0
SkinPreference:Default
WidescreenStoryboard: 1

[Editor]
DistanceSpacing: 0.8
BeatDivisor: 2
GridSize: 4
TimelineZoom: 1

[Metadata]
Title:Let It Be (Nightcore Mix)
TitleUnicode:Let It Be (Nightcore Mix)
Artist:Groove Coverage
ArtistUnicode:Groove Coverage
Creator:StripedGoose
Version:riffy's Normal
Source:
Tags:froskya revialink bakari riffy english edm electronic dance music speed sped up trance 21st century
BeatmapID:4036600
BeatmapSetID:1949720

[Difficulty]
HPDrainRate:4.2
CircleSize:3.5
OverallDifficulty:4.2
ApproachRate:5.5
SliderMultiplier:1.1
SliderTickRate:1

[Events]
//Background and Video events
0,0,"BG.jpg",0,0
//Break Periods
2,84446,93871
//Storyboard Layer 0 (Background)
//Storyboard Layer 1 (Fail)
//Storyboard Layer 2 (Pass)
//Storyboard Layer 3 (Foreground)
//Storyboard Layer 4 (Overlay)
//Storyboard Sound Samples

[TimingPoints]
4007,329.67032967033,4,2,1,50,1,0
4007,-125,4,2,1,50,0,0
14556,-125,4,2,1,60,0,0
26424,-100,4,2,1,70,0,1
35985,-100,4,2,1,60,0,0
36974,-100,4,2,1,70,0,1
47523,-125,4,2,1,70,0,0
47605,-125,4,2,1,40,0,0
50160,-125,4,2,1,60,0,0
60710,-100,4,2,1,70,0,1
70270,-100,4,2,1,60,0,0
71259,-100,4,2,1,70,0,1
81809,-125,4,2,1,50,0,0
81974,-125,4,2,1,5,0,0
84446,-125,4,2,1,50,0,0
94996,-125,4,2,1,60,0,0
105545,-125,4,2,1,50,0,0
117413,-125,4,2,1,55,0,0
125985,-125,4,2,1,45,0,0
129281,-100,4,2,1,70,0,1
138842,-100,4,2,1,60,0,0
139831,-100,4,2,1,70,0,1
150380,-125,4,2,1,50,0,0
155655,-125,4,2,1,5,0,0

[Colours]
Combo1 : 117,91,138
Combo2 : 243,205,143
Combo3 : 121,155,203
Combo4 : 181,87,88
SliderBorder : 255,255,255

[HitObjects]
26,252,4007,6,0,B|107:256|112:347|112:347|242:347,1,264,2|2,0:0|0:0,0:0:0:0:
320,347,5325,2,0,L|320:259,1,88,2|2,0:0|0:0,0:0:0:0:
316,82,6314,1,2,0:0:0:0:
227,82,6644,6,0,L|36:83,1,176,2|2,0:0|0:0,0:0:0:0:
51,171,7633,1,2,0:0:0:0:
51,259,7963,2,0,L|228:260,1,176,2|0,0:0|0:0,0:0:0:0:
402,259,9281,6,0,L|404:168,1,88,2|0,0:0|0:0,0:0:0:0:
403,82,9941,1,2,0:0:0:0:
315,82,10270,1,2,0:0:0:0:
315,170,10600,2,0,L|316:264,1,88,2|2,0:0|0:0,0:0:0:0:
139,257,11589,1,2,0:0:0:0:
139,168,11919,6,0,L|140:16,2,132,2|2|2,0:0|0:0|0:0,0:0:0:0:
226,168,13237,2,0,L|224:360,1,176,2|0,0:0|0:0,0:0:0:0:
47,343,14556,6,0,B|52:288|116:288|116:288,1,88,4|0,1:0|1:0,0:0:0:0:
106,244,15050,2,0,L|106:152,1,88,4|4,3:0|3:0,0:0:0:0:
108,112,15545,1,0,1:0:0:0:
108,23,15875,1,4,3:0:0:0:
195,23,16204,2,0,L|248:24,2,44,0|4|2,1:0|3:0|0:0,0:0:0:0:
195,111,16864,2,0,L|195:167,1,44,0|2,1:0|3:0,0:0:0:0:
224,186,17193,6,0,L|224:292,1,88,4|0,3:0|1:0,0:0:0:0:
286,336,17853,1,2,0:0:0:0:
348,273,18182,1,0,1:0:0:0:
410,335,18512,2,0,B|474:334|476:264|476:264|476:184,1,176,4|0,3:0|0:0,0:0:0:0:
413,135,19501,1,0,1:0:0:0:
475,72,19831,6,0,B|456:29|413:28|413:28|336:28,2,132,4|4|0,3:0|3:0|1:0,0:0:0:0:
344,192,21479,2,0,L|164:192,1,176,0|0,1:0|1:0,0:0:0:0:
164,104,22468,5,4,3:0:0:0:
256,28,22963,1,4,3:0:0:0:
348,104,23457,1,0,1:0:0:0:
352,192,23787,2,0,B|384:288|256:370|128:288|160:192,1,352,4|2,3:0|3:0,0:0:0:0:
159,82,26424,6,0,P|128:55|54:40,1,110,4|2,1:0|1:2,0:0:0:0:
24,130,27083,1,2,1:2:0:0:
103,189,27413,1,2,1:2:0:0:
45,270,27743,2,0,P|20:318|57:381,1,110,2|2,1:2|1:2,0:0:0:0:
127,323,28402,1,2,1:2:0:0:
228,324,28732,1,2,1:2:0:0:
301,384,29061,6,0,P|346:372|369:365,1,55,2|0,1:2|0:0,0:0:0:0:
402,359,29391,1,2,1:2:0:0:
375,263,29721,1,2,1:2:0:0:
347,167,30050,1,2,1:2:0:0:
347,167,30215,1,2,0:0:0:0:
454,64,30710,6,0,P|431:34|409:21,1,55,0|2,1:2|0:0,0:0:0:0:
368,33,31039,2,0,L|317:70,1,55,0|2,1:2|0:0,0:0:0:0:
275,53,31369,1,0,1:2:0:0:
184,92,31699,2,0,L|69:93,1,110,4|8,1:0|1:0,0:0:0:0:
3,163,32358,1,2,1:2:0:0:
73,233,32688,1,8,1:0:0:0:
73,331,33017,6,0,L|193:331,1,110,2|8,1:2|1:0,0:0:0:0:
282,331,33677,2,0,L|333:375,1,55,2|2,1:2|0:0,0:0:0:0:
373,366,34007,1,8,1:0:0:0:
471,366,34336,2,0,L|472:248,1,110,2|8,1:2|1:0,0:0:0:0:
471,156,34996,2,0,L|400:156,1,55,2|0,1:2|0:0,0:0:0:0:
380,191,35325,1,8,1:0:0:0:
344,155,35490,1,2,0:0:0:0:
308,119,35655,6,0,L|309:2,1,110,2|8,1:2|1:0,0:0:0:0:
212,36,36314,2,0,L|212:105,1,55,0|2,1:2|0:0,0:0:0:0:
168,68,36644,1,8,1:0:0:0:
79,23,36974,5,4,1:0:0:0:
79,23,37138,2,0,L|80:140,1,110,2|2,3:0|0:0,0:0:0:0:
36,156,37633,2,0,P|8:196|40:248,1,110,2|8,1:2|1:0,0:0:0:0:
80,260,38127,1,2,0:0:0:0:
128,248,38292,6,0,L|128:364,1,110,2|8,1:2|1:0,0:0:0:0:
213,307,38952,1,2,1:2:0:0:
213,208,39281,1,8,1:0:0:0:
297,260,39611,1,2,1:2:0:0:
297,160,39941,1,8,1:0:0:0:
382,208,40270,2,0,L|381:90,1,110,2|8,1:2|1:0,0:0:0:0:
416,62,40765,1,2,0:0:0:0:
451,97,40930,6,0,L|452:224,1,110,2|8,1:2|1:0,0:0:0:0:
451,306,41589,1,0,1:2:0:0:
401,306,41754,1,2,0:0:0:0:
351,306,41919,2,0,L|352:235,1,55,8|2,1:0|0:0,0:0:0:0:
316,215,42248,2,0,L|188:216,1,110,4|8,1:0|1:0,0:0:0:0:
135,286,42908,2,0,L|136:356,1,55,2|0,1:2|0:0,0:0:0:0:
100,376,43237,1,8,1:0:0:0:
16,321,43567,6,0,L|18:195,1,110,2|8,1:2|1:0,0:0:0:0:
17,111,44226,1,2,1:2:0:0:
116,111,44556,1,8,1:0:0:0:
186,181,44886,1,2,1:2:0:0:
284,181,45215,1,8,1:0:0:0:
352,252,45545,2,0,L|408:252,1,55,2|0,1:2|0:0,0:0:0:0:
456,252,45875,1,8,1:0:0:0:
509,169,46204,5,2,1:2:0:0:
438,98,46534,2,0,L|438:34,1,55,8|2,1:0|0:0,0:0:0:0:
402,7,46864,1,2,1:2:0:0:
367,41,47028,1,2,0:0:0:0:
331,5,47193,1,8,1:0:0:0:
256,192,47523,12,2,49171,0:0:0:0:
85,194,50160,5,10,3:0:0:0:
164,194,50490,1,2,0:0:0:0:
164,194,50655,1,2,0:0:0:0:
244,192,50985,1,2,0:0:0:0:
244,192,51149,2,0,L|304:192,1,44,2|0,0:0|0:0,0:0:0:0:
328,192,51479,2,0,L|436:192,1,88,2|2,0:0|0:0,0:0:0:0:
456,192,51974,1,2,0:0:0:0:
420,80,52468,2,0,L|372:80,1,44,2|2,0:0|0:0,0:0:0:0:
336,88,52798,6,0,L|253:141,2,88,2|2|2,0:0|0:0|0:0,0:0:0:0:
316,12,53787,2,0,L|255:10,1,44,2|0,0:0|0:0,0:0:0:0:
239,30,54116,1,2,0:0:0:0:
160,16,54446,1,2,0:0:0:0:
160,16,54611,1,2,0:0:0:0:
60,52,55105,2,0,L|16:52,1,44,2|0,0:0|0:0,0:0:0:0:
4,92,55435,6,0,P|16:128|60:148,1,88,4|2,3:0|0:0,0:0:0:0:
140,148,56094,1,2,0:0:0:0:
220,148,56424,2,0,L|268:148,1,44,2|2,0:0|0:0,0:0:0:0:
304,148,56754,1,4,3:0:0:0:
384,148,57083,1,2,0:0:0:0:
384,148,57248,1,2,0:0:0:0:
472,228,57743,1,2,0:0:0:0:
472,228,57908,1,2,0:0:0:0:
447,256,58072,6,0,L|409:297,1,44,4|2,3:0|3:0,0:0:0:0:
387,312,58402,1,4,3:0:0:0:
330,255,58732,1,4,3:0:0:0:
274,199,59061,1,4,3:0:0:0:
217,255,59391,2,0,L|160:256,1,44,4|2,3:0|3:0,0:0:0:0:
144,227,59721,2,0,L|96:228,1,44,4|2,3:0|3:0,0:0:0:0:
68,252,60050,1,4,3:0:0:0:
36,232,60215,1,2,3:0:0:0:
4,256,60380,2,0,L|4:308,1,44,4|4,3:0|3:0,0:0:0:0:
40,332,60710,5,4,1:0:0:0:
132,372,61039,1,2,1:2:0:0:
132,372,61204,2,0,L|232:324,1,110,2|2,0:0|0:0,0:0:0:0:
280,324,61699,2,0,L|332:348,1,55,2|2,1:2|3:0,0:0:0:0:
380,372,62028,1,2,1:2:0:0:
464,320,62358,1,2,1:2:0:0:
432,284,62523,2,0,L|432:172,1,110,2|2,0:0|0:0,0:0:0:0:
472,144,63017,2,0,L|472:80,1,55,2|2,1:2|0:0,0:0:0:0:
436,52,63347,5,2,1:2:0:0:
365,122,63677,1,2,1:2:0:0:
365,122,63842,2,0,L|245:122,1,110,2|2,0:0|0:0,0:0:0:0:
205,122,64336,1,2,1:2:0:0:
134,51,64666,1,2,1:2:0:0:
63,121,64996,1,0,1:2:0:0:
63,121,65160,1,2,0:0:0:0:
133,191,65490,1,2,0:0:0:0:
133,191,65655,1,2,1:2:0:0:
62,261,65985,6,0,L|62:377,1,110,4|8,1:0|1:0,0:0:0:0:
104,348,66479,1,2,0:0:0:0:
204,348,66809,1,2,0:0:0:0:
244,376,66974,2,0,L|304:376,1,55,8|2,1:0|3:0,0:0:0:0:
340,348,67303,6,0,P|376:320|392:256,1,110,2|8,1:2|1:0,0:0:0:0:
364,220,67798,1,2,0:0:0:0:
440,160,68127,1,2,0:0:0:0:
408,120,68292,2,0,L|408:52,1,55,8|2,1:0|0:0,0:0:0:0:
376,28,68622,1,2,1:2:0:0:
284,64,68952,1,8,1:0:0:0:
284,64,69116,1,2,0:0:0:0:
196,16,69446,1,2,0:0:0:0:
196,16,69611,1,8,1:0:0:0:
108,64,69941,5,2,1:2:0:0:
148,156,70270,2,0,L|148:272,1,110,8|2,1:0|1:2,0:0:0:0:
106,292,70765,1,2,0:0:0:0:
64,320,70930,2,0,P|72:356|108:376,1,55,8|2,1:0|3:0,0:0:0:0:
132,376,71259,6,0,L|244:376,1,110,4|8,1:0|1:0,0:0:0:0:
292,376,71754,2,0,L|408:376,1,110,2|2,0:0|0:0,0:0:0:0:
436,340,72248,1,8,1:0:0:0:
380,257,72578,1,2,1:2:0:0:
450,186,72908,1,8,1:0:0:0:
450,186,73072,2,0,L|450:70,1,110,2|2,0:0|0:0,0:0:0:0:
416,40,73567,1,8,1:0:0:0:
336,100,73897,6,0,L|336:220,1,110,2|8,1:2|1:0,0:0:0:0:
380,236,74391,2,0,L|380:352,1,110,2|2,0:0|0:0,0:0:0:0:
344,380,74886,1,8,1:0:0:0:
274,310,75215,1,2,1:2:0:0:
204,379,75545,1,8,1:0:0:0:
204,379,75710,1,2,0:0:0:0:
134,309,76039,1,2,0:0:0:0:
98,344,76204,2,0,L|39:344,1,55,8|2,1:0|3:0,0:0:0:0:
7,308,76534,6,0,L|8:192,1,110,4|8,1:0|1:0,0:0:0:0:
42,162,77028,1,2,0:0:0:0:
42,62,77358,1,2,0:0:0:0:
42,62,77523,2,0,L|122:62,1,55,8|2,1:0|3:0,0:0:0:0:
127,20,77853,1,2,1:2:0:0:
196,89,78182,1,8,1:0:0:0:
196,89,78347,1,2,0:0:0:0:
266,18,78677,1,2,0:0:0:0:
266,18,78842,2,0,L|330:18,1,55,8|2,1:0|0:0,0:0:0:0:
356,53,79171,5,2,1:2:0:0:
285,123,79501,1,8,1:0:0:0:
285,123,79666,1,2,0:0:0:0:
355,193,79996,1,2,0:0:0:0:
355,193,80160,1,8,1:0:0:0:
284,263,80490,2,0,L|284:376,1,110,2|8,1:2|1:0,0:0:0:0:
333,373,80985,1,2,0:0:0:0:
384,376,81149,2,0,L|384:316,1,55,2|2,1:2|0:0,0:0:0:0:
388,272,81479,2,0,L|452:272,1,55,8|2,1:0|3:0,0:0:0:0:
256,192,81809,12,2,83787,0:0:0:0:
112,192,94996,6,0,L|208:192,1,88,4|8,1:0|1:0,0:0:0:0:
258,138,95655,1,2,1:2:0:0:
313,194,95985,1,8,1:0:0:0:
258,251,96314,2,0,P|233:293|242:336,2,88,2|8|2,1:2|1:0|1:2,0:0:0:0:
329,286,97303,1,8,1:0:0:0:
399,249,97633,6,0,L|487:249,1,88,2|8,1:2|1:0,0:0:0:0:
471,169,98292,2,0,L|383:169,1,88,2|8,1:2|1:0,0:0:0:0:
360,92,98952,2,0,L|452:92,2,88,2|8|2,1:2|1:0|1:2,0:0:0:0:
336,16,99941,1,8,1:0:0:0:
264,52,100270,6,0,L|264:192,1,132,2|2,1:2|0:0,0:0:0:0:
236,212,100930,2,0,L|236:300,1,88,0|8,1:2|1:0,0:0:0:0:
292,356,101589,2,0,B|328:332|328:332|392:332,2,88,2|8|2,1:2|1:0|1:2,0:0:0:0:
216,380,102578,1,8,1:0:0:0:
144,348,102908,6,0,L|144:240,2,88,2|8|2,1:2|1:0|1:2,0:0:0:0:
67,369,103897,1,8,1:0:0:0:
24,304,104226,2,0,L|24:124,2,176,2|2|4,1:2|1:2|1:0,0:0:0:0:
176,192,106864,5,2,0:0:0:0:
256,56,107523,2,0,L|352:56,1,88,2|2,0:0|0:0,0:0:0:0:
423,56,108182,1,2,0:0:0:0:
360,200,108842,2,0,L|272:200,1,88,2|2,0:0|0:0,0:0:0:0:
200,236,109501,2,0,P|188:276|200:324,1,88,2|2,0:0|0:0,0:0:0:0:
254,376,110160,1,2,0:0:0:0:
310,319,110490,2,0,L|366:319,1,44,2|2,0:0|0:0,0:0:0:0:
400,168,111314,6,0,L|400:112,1,44,2|0,0:0|0:0,0:0:0:0:
352,60,111809,1,2,0:0:0:0:
288,108,112138,2,0,L|288:208,1,88,2|0,0:0|0:0,0:0:0:0:
231,252,112798,1,2,0:0:0:0:
175,196,113127,1,2,0:0:0:0:
118,252,113457,2,0,L|24:252,1,88,2|0,0:0|0:0,0:0:0:0:
30,331,114116,1,2,0:0:0:0:
109,331,114446,1,2,0:0:0:0:
188,332,114776,6,0,L|284:332,1,88,2|2,0:0|0:0,0:0:0:0:
355,332,115435,2,0,L|404:332,1,44,2|0,0:0|0:0,0:0:0:0:
440,332,115765,2,0,L|496:332,1,44,2|2,0:0|0:0,0:0:0:0:
444,220,116424,2,0,L|352:220,2,88,2|2|2,0:0|0:0|0:0,0:0:0:0:
500,164,117413,6,0,L|500:60,1,88,10|8,0:0|0:0,0:0:0:0:
444,20,118072,2,0,L|336:20,1,88,10|10,0:0|0:0,0:0:0:0:
327,48,118567,1,8,0:0:0:0:
298,76,118732,2,0,L|202:76,1,88,10|8,0:0|0:0,0:0:0:0:
130,76,119391,1,10,0:0:0:0:
50,76,119721,1,10,0:0:0:0:
50,155,120050,6,0,L|50:251,1,88,10|8,0:0|0:0,0:0:0:0:
50,322,120710,2,0,L|146:322,1,88,10|10,0:0|0:0,0:0:0:0:
166,293,121204,1,8,0:0:0:0:
194,264,121369,1,8,0:0:0:0:
273,264,121699,1,10,0:0:0:0:
352,264,122028,1,10,0:0:0:0:
431,264,122358,1,10,0:0:0:0:
431,184,122688,6,0,L|432:92,1,88,10|8,0:0|0:0,0:0:0:0:
352,96,123347,2,0,L|352:148,1,44,10|0,0:0|0:0,0:0:0:0:
352,180,123677,2,0,L|304:180,1,44,10|8,0:0|0:0,0:0:0:0:
268,180,124007,2,0,B|212:180|212:120|212:120,1,88,8|8,0:0|0:0,0:0:0:0:
148,76,124666,2,0,B|148:80|148:20|92:20,1,88,10|10,0:0|0:0,0:0:0:0:
256,192,125325,12,2,127962,0:0:0:0:
0,248,129281,5,4,1:0:0:0:
76,316,129610,1,2,1:2:0:0:
76,316,129775,2,0,L|124:216,1,110,2|2,0:0|0:0,0:0:0:0:
124,168,130270,2,0,L|100:116,1,55,2|2,1:2|3:0,0:0:0:0:
76,68,130599,1,2,1:2:0:0:
156,8,130929,1,2,1:2:0:0:
156,8,131094,2,0,L|268:8,1,110,2|2,0:0|0:0,0:0:0:0:
303,40,131588,2,0,L|367:40,1,55,2|2,1:2|0:0,0:0:0:0:
400,12,131918,5,2,1:2:0:0:
484,72,132248,1,2,1:2:0:0:
484,72,132413,2,0,L|484:192,1,110,2|2,0:0|0:0,0:0:0:0:
448,216,132907,1,2,1:2:0:0:
484,308,133237,1,2,1:2:0:0:
400,360,133567,1,2,1:2:0:0:
400,360,133731,1,2,0:0:0:0:
360,276,134061,1,2,0:0:0:0:
360,276,134226,1,2,1:2:0:0:
268,312,134556,6,0,L|152:312,1,110,4|8,1:0|1:0,0:0:0:0:
120,344,135050,1,2,0:0:0:0:
64,264,135380,1,2,0:0:0:0:
36,224,135545,2,0,L|36:164,1,55,8|2,1:0|3:0,0:0:0:0:
8,128,135874,6,0,P|36:92|100:76,1,110,2|8,1:2|1:0,0:0:0:0:
132,112,136369,1,2,0:0:0:0:
200,44,136698,1,2,0:0:0:0:
235,79,136863,2,0,L|303:79,1,55,8|2,1:0|0:0,0:0:0:0:
325,114,137193,1,2,1:2:0:0:
395,43,137523,1,8,1:0:0:0:
395,43,137687,1,2,0:0:0:0:
468,116,138017,1,2,0:0:0:0:
468,116,138182,1,8,1:0:0:0:
397,186,138512,5,2,1:2:0:0:
472,252,138841,2,0,L|472:362,1,110,8|2,1:0|1:2,0:0:0:0:
424,364,139336,1,2,0:0:0:0:
376,360,139501,2,0,P|368:324|332:304,1,55,8|2,1:0|3:0,0:0:0:0:
306,312,139830,6,0,L|196:312,1,110,4|8,1:0|1:0,0:0:0:0:
146,312,140325,2,0,L|146:196,1,110,2|2,0:0|0:0,0:0:0:0:
144,152,140819,1,8,1:0:0:0:
44,152,141149,1,2,1:2:0:0:
44,255,141479,1,8,1:0:0:0:
44,255,141643,2,0,L|44:371,1,110,2|2,0:0|0:0,0:0:0:0:
93,365,142138,1,8,1:0:0:0:
192,365,142468,6,0,L|192:245,1,110,2|8,1:2|1:0,0:0:0:0:
235,231,142963,2,0,L|235:115,1,110,2|2,0:0|0:0,0:0:0:0:
270,85,143457,1,8,1:0:0:0:
339,154,143786,1,2,1:2:0:0:
409,83,144116,1,8,1:0:0:0:
409,83,144281,1,2,0:0:0:0:
478,152,144611,1,2,0:0:0:0:
459,197,144775,2,0,L|459:256,1,55,8|2,1:0|3:0,0:0:0:0:
488,292,145105,6,0,L|372:293,1,110,4|8,1:0|1:0,0:0:0:0:
344,256,145599,1,2,0:0:0:0:
256,300,145929,1,2,0:0:0:0:
256,300,146094,2,0,L|201:300,1,55,8|2,1:0|3:0,0:0:0:0:
168,340,146424,1,2,1:2:0:0:
83,299,146753,1,8,1:0:0:0:
83,299,146918,1,2,0:0:0:0:
140,220,147248,1,2,0:0:0:0:
140,220,147413,2,0,L|140:156,1,55,8|2,1:0|0:0,0:0:0:0:
104,132,147742,5,2,1:2:0:0:
172,60,148072,1,8,1:0:0:0:
172,60,148237,1,2,0:0:0:0:
252,124,148567,1,2,0:0:0:0:
252,124,148731,1,8,1:0:0:0:
328,60,149061,2,0,L|441:60,1,110,2|8,1:2|1:0,0:0:0:0:
488,60,149556,1,2,0:0:0:0:
488,109,149720,2,0,L|488:169,1,55,2|2,1:2|0:0,0:0:0:0:
488,213,150050,2,0,L|424:213,1,55,8|2,1:0|3:0,0:0:0:0:
404,241,150380,5,4,1:0:0:0:
404,320,150710,1,2,0:0:0:0:
404,320,150875,1,2,0:0:0:0:
336,360,151204,2,0,L|288:360,1,44,2|2,0:0|0:0,0:0:0:0:
212,360,151699,2,0,L|122:359,1,88,2|2,0:0|0:0,0:0:0:0:
92,336,152193,2,0,L|92:236,1,88,2|2,0:0|0:0,0:0:0:0:
68,216,152688,1,2,0:0:0:0:
136,172,153017,6,0,L|232:172,1,88,2|2,0:0|0:0,0:0:0:0:
252,144,153512,1,2,0:0:0:0:
212,76,153842,1,2,0:0:0:0:
212,76,154007,1,2,0:0:0:0:
256,192,154336,12,2,156974,0:0:0:0:
