osu file format v14

[General]
AudioFilename: audio.mp3
AudioLeadIn: 0
PreviewTime: 25435
Countdown: 0
SampleSet: Soft
StackLeniency: 0.4
Mode: 0
LetterboxInBreaks: 0
SkinPreference:Default
WidescreenStoryboard: 1

[Editor]
DistanceSpacing: 1.5
BeatDivisor: 4
GridSize: 4
TimelineZoom: 1.5

[Metadata]
Title:Let It Be (Nightcore Mix)
TitleUnicode:Let It Be (Nightcore Mix)
Artist:Groove Coverage
ArtistUnicode:Groove Coverage
Creator:StripedGoose
Version:Sing With Me
Source:
Tags:froskya revialink bakari riffy english edm electronic dance music speed sped up trance 21st century
BeatmapID:4036601
BeatmapSetID:1949720

[Difficulty]
HPDrainRate:6
CircleSize:4.5
OverallDifficulty:8.5
ApproachRate:9
SliderMultiplier:2
SliderTickRate:2

[Events]
//Background and Video events
0,0,"BG.jpg",0,0
//Break Periods
2,50360,54835
2,106864,115824
//Storyboard Layer 0 (Background)
//Storyboard Layer 1 (Fail)
//Storyboard Layer 2 (Pass)
//Storyboard Layer 3 (Foreground)
//Storyboard Layer 4 (Overlay)
//Storyboard Sound Samples

[TimingPoints]
4007,329.67032967033,4,2,1,50,1,0
4007,-200,4,2,1,50,0,0
14556,-142.857142857143,4,2,1,60,0,0
25435,-111.111111111111,4,2,1,60,0,0
26424,-100,4,2,1,70,0,1
35985,-100,4,2,1,60,0,0
36974,-100,4,2,1,70,0,1
47523,-166.666666666667,4,2,1,70,0,1
47605,-166.666666666667,4,2,1,40,0,0
50160,-125,4,2,1,60,0,0
60710,-100,4,2,1,70,0,1
70270,-100,4,2,1,60,0,0
71259,-100,4,2,1,70,0,1
81809,-166.666666666667,4,2,1,50,0,0
84446,-142.857142857143,4,2,1,50,0,0
94996,-111.111111111111,4,2,1,60,0,0
105545,-125,4,2,1,50,0,0
117413,-142.857142857143,4,2,1,55,0,0
125985,-142.857142857143,4,2,1,45,0,0
129281,-100,4,2,1,70,0,1
138842,-100,4,2,1,60,0,0
139831,-100,4,2,1,70,0,1
150380,-142.857142857143,4,2,1,50,0,0
155655,-142.857142857143,4,2,1,5,0,0

[Colours]
Combo1 : 117,91,138
Combo2 : 243,205,143
Combo3 : 121,155,203
Combo4 : 181,87,88
SliderBorder : 255,255,255

[HitObjects]
51,191,3677,5,2,0:0:0:0:
51,191,4007,2,0,P|124:208|196:191,2,150,2|2|2,0:0|0:0|0:0,0:0:0:0:
208,112,5325,1,2,0:0:0:0:
208,112,5655,2,0,B|256:126|256:126|304:112,1,100,2|0,0:0|0:0,0:0:0:0:
460,192,6314,5,2,0:0:0:0:
460,192,6644,2,0,P|388:175|316:192,1,150,2|2,0:0|0:0,0:0:0:0:
256,364,7633,2,0,L|256:314,1,50,2|0,0:0|0:0,0:0:0:0:
176,296,7963,2,0,P|256:246|335:297,1,200,2|0,0:0|0:0,0:0:0:0:
256,176,8952,5,2,0:0:0:0:
112,136,9281,2,0,B|80:121|51:121|51:121|27:141|36:151,1,100,2|0,0:0|0:0,0:0:0:0:
36,232,9776,2,0,B|27:242|51:262|51:262|80:262|112:248,1,100,2|0,0:0|0:0,0:0:0:0:
180,192,10270,1,2,0:0:0:0:
332,192,10600,1,2,0:0:0:0:
200,79,10930,2,0,P|256:122|312:79,1,150,2|0,0:0|0:0,0:0:0:0:
256,192,11589,5,2,0:0:0:0:
199,304,11919,2,0,P|255:261|311:304,2,150,2|2|2,0:0|0:0|0:0,0:0:0:0:
300,192,13237,2,0,B|356:220|396:200|396:184|436:164|492:192,1,200,2|0,0:0|0:0,0:0:0:0:
400,76,14226,5,2,0:0:0:0:
191,151,14556,2,0,B|152:160|152:160|92:160|60:128,1,139.999995727539,4|0,1:0|1:0,0:0:0:0:
60,24,15050,2,0,B|92:-8|152:-8|152:-8|191:1,1,139.999995727539,4|4,3:0|3:0,0:0:0:0:
259,74,15545,1,0,1:0:0:0:
380,192,15792,1,2,3:0:0:0:
380,192,15875,2,0,B|380:284,1,69.9999978637696,4|0,3:0|0:0,0:0:0:0:
468,344,16204,2,0,L|468:272,1,69.9999978637696,0|4,1:0|3:0,0:0:0:0:
256,192,16699,1,4,3:0:0:0:
256,304,16864,2,0,L|256:374,1,69.9999978637696,0|2,1:0|3:0,0:0:0:0:
163,259,17193,6,0,P|164:190|197:130,1,139.999995727539,4|0,3:0|1:0,0:0:0:0:
314,130,17688,2,0,P|347:190|348:259,1,139.999995727539,4|4,3:0|3:0,0:0:0:0:
256,280,18182,1,0,1:0:0:0:
256,80,18430,1,2,3:0:0:0:
256,80,18512,2,0,L|256:10,1,69.9999978637696,4|2,3:0|3:0,0:0:0:0:
112,64,18842,1,0,1:0:0:0:
176,156,19007,2,0,B|112:184|112:184|48:156,1,139.999995727539,4|4,3:0|3:0,0:0:0:0:
48,268,19501,5,0,1:0:0:0:
128,360,19666,1,2,3:0:0:0:
128,360,19748,1,2,3:0:0:0:
128,360,19831,2,0,B|172:324|172:324|256:324,1,139.999995727539,4|0,3:0|1:0,0:0:0:0:
256,212,20325,1,4,3:0:0:0:
312,24,20655,1,4,3:0:0:0:
200,24,20820,1,0,1:0:0:0:
332,152,21067,5,2,3:0:0:0:
332,152,21149,2,0,B|364:139|364:139|396:152,1,69.9999978637696,4|2,3:0|3:0,0:0:0:0:
464,268,21479,1,0,1:0:0:0:
384,360,21644,2,0,B|340:324|340:324|256:324,1,139.999995727539,4|4,3:0|3:0,0:0:0:0:
176,228,22138,6,0,B|144:241|144:241|112:228,1,69.9999978637696,0|2,1:0|3:0,0:0:0:0:
60,128,22468,2,0,P|127:122|167:67,1,139.999995727539,4|0,3:0|1:0,0:0:0:0:
256,172,22963,1,4,3:0:0:0:
452,64,23292,1,4,3:0:0:0:
340,64,23457,1,0,1:0:0:0:
460,192,23704,5,2,3:0:0:0:
460,192,23787,2,0,B|408:192|396:172|396:172|384:192|332:192,1,139.999995727539,4|0,3:0|1:0,0:0:0:0:
332,304,24281,2,0,B|384:304|396:324|396:324|408:304|460:304,1,139.999995727539,4|4,3:0|3:0,0:0:0:0:
256,248,24776,1,0,1:0:0:0:
180,304,24941,1,2,3:0:0:0:
180,304,25023,1,2,3:0:0:0:
180,304,25105,1,2,3:0:0:0:
256,108,25435,5,2,0:0:0:0:
324,224,25600,1,2,0:0:0:0:
256,88,25765,5,2,0:0:0:0:
188,224,25930,1,2,0:0:0:0:
344,140,26094,5,2,0:0:0:0:
168,140,26259,1,2,0:0:0:0:
256,68,26424,6,0,L|256:268,1,200,4|2,1:0|1:2,0:0:0:0:
372,140,27083,2,0,P|359:91|370:43,1,100,2|0,1:2|0:0,0:0:0:0:
492,44,27413,2,0,P|502:92|490:140,1,100,2|0,1:2|0:0,0:0:0:0:
473,299,27743,6,0,B|405:317|405:317|389:247|323:223,1,200,2|2,1:2|1:2,0:0:0:0:
44,140,28402,1,2,1:2:0:0:
72,268,28567,1,2,0:0:0:0:
212,140,28732,1,2,1:2:0:0:
184,268,28897,1,2,0:0:0:0:
124,120,29061,2,0,P|150:78|196:51,1,100,2|0,1:2|0:0,0:0:0:0:
388,120,29391,2,0,P|361:78|315:51,1,100,2|0,1:2|0:0,0:0:0:0:
256,192,29721,6,0,B|248:224|248:224|264:256|264:256|256:288,1,100,2|0,1:2|0:0,0:0:0:0:
388,192,30050,1,2,1:2:0:0:
340,332,30215,2,0,P|256:378|172:332,1,200,2|0,0:0|0:0,0:0:0:0:
36,192,30710,5,0,1:2:0:0:
184,127,30875,1,2,0:0:0:0:
184,256,31039,1,0,1:2:0:0:
62,116,31205,1,2,0:0:0:0:
208,191,31370,1,0,1:2:0:0:
62,266,31534,1,2,0:0:0:0:
168,128,31699,6,0,B|240:112|256:86|256:86|272:112|344:128,1,200,4|8,1:0|1:0,0:0:0:0:
416,379,32358,2,0,B|372:379|372:379|320:351,1,100,2|0,1:2|0:0,0:0:0:0:
324,223,32688,2,0,B|368:223|368:223|420:251,1,100,8|0,1:0|0:0,0:0:0:0:
188,223,33017,6,0,B|123:247|106:317|106:317|39:299,1,200,2|8,1:2|1:0,0:0:0:0:
328,116,33677,1,2,1:2:0:0:
328,268,33842,1,2,0:0:0:0:
392,152,34007,1,8,1:0:0:0:
264,232,34171,1,2,0:0:0:0:
463,232,34336,2,0,P|501:264|510:313,1,100,2|0,1:2|0:0,0:0:0:0:
463,152,34666,2,0,P|501:120|510:71,1,100,8|0,1:0|0:0,0:0:0:0:
336,192,34996,6,0,B|236:192,1,100,2|0,1:2|0:0,0:0:0:0:
256,344,35325,1,8,1:0:0:0:
120,272,35490,2,0,B|72:240|66:192|66:192|72:144|120:112,1,200,2|0,0:0|0:0,0:0:0:0:
304,112,35985,5,8,1:0:0:0:
432,108,36149,1,2,0:0:0:0:
280,112,36314,1,0,1:2:0:0:
371,220,36479,1,2,0:0:0:0:
456,108,36644,1,8,1:0:0:0:
372,244,36809,1,2,0:0:0:0:
228,164,36974,5,4,1:0:0:0:
220,152,37056,1,2,3:0:0:0:
208,140,37138,1,2,3:0:0:0:
11,71,37303,2,0,P|35:115|77:141,1,100,8|0,1:0|0:0,0:0:0:0:
40,308,37633,1,2,1:2:0:0:
164,192,37798,1,2,0:0:0:0:
136,308,37963,1,8,1:0:0:0:
12,192,38127,1,2,0:0:0:0:
88,376,38292,6,0,B|168:376|168:376|196:344|196:344|273:344,1,200,2|8,1:2|1:0,0:0:0:0:
452,332,38787,1,2,3:0:0:0:
452,332,38869,1,2,3:0:0:0:
452,332,38952,2,0,B|417:312|414:300|414:300|403:304|368:284,1,100,2|0,1:2|0:0,0:0:0:0:
368,164,39281,2,0,B|402:184|405:195|405:195|416:192|451:212,1,100,8|0,1:0|0:0,0:0:0:0:
332,72,39611,5,2,1:2:0:0:
180,72,39776,1,2,0:0:0:0:
348,72,39941,1,8,1:0:0:0:
160,72,40105,1,2,0:0:0:0:
256,192,40270,2,0,B|256:232|256:232|216:280,1,100,2|0,1:2|0:0,0:0:0:0:
88,356,40600,2,0,B|88:316|88:316|128:268,1,100,8|0,1:0|0:0,0:0:0:0:
20,192,40930,1,2,1:2:0:0:
36,192,41012,1,2,3:0:0:0:
52,192,41094,1,2,3:0:0:0:
196,152,41259,5,8,1:0:0:0:
76,104,41424,1,2,0:0:0:0:
216,152,41589,1,0,1:2:0:0:
177,25,41754,1,2,0:0:0:0:
56,104,41919,1,8,1:0:0:0:
196,25,42083,1,2,0:0:0:0:
304,140,42248,5,4,1:0:0:0:
292,152,42330,1,2,3:0:0:0:
284,164,42412,1,2,3:0:0:0:
435,140,42578,2,0,P|477:114|501:71,1,100,8|0,1:0|0:0,0:0:0:0:
348,192,42908,2,0,B|379:223|379:223|393:225|393:225|422:255,1,100,2|0,1:2|0:0,0:0:0:0:
256,356,43237,2,0,B|285:326|285:326|299:323|299:323|330:292,1,100,8|0,1:0|0:0,0:0:0:0:
164,192,43567,6,0,B|92:152|32:192|32:192|56:248,1,200,2|8,1:2|1:0,0:0:0:0:
188,288,44062,1,2,0:0:0:0:
213,119,44227,2,0,B|193:84|193:84|187:82|187:82|194:78|194:78|189:77|189:77|168:42,1,100,2|0,1:2|0:0,0:0:0:0:
52,20,44556,2,0,B|72:54|72:54|77:56|77:56|70:60|70:60|76:61|76:61|96:96,1,100,8|0,1:0|0:0,0:0:0:0:
256,184,44886,5,2,1:2:0:0:
188,316,45051,1,2,0:0:0:0:
256,172,45215,1,8,1:0:0:0:
324,316,45380,1,2,0:0:0:0:
348,148,45545,2,0,B|373:51,1,100,2|0,1:2|0:0,0:0:0:0:
138,51,45875,2,0,B|164:148,1,100,8|0,1:0|0:0,0:0:0:0:
256,300,46205,1,2,1:2:0:0:
256,284,46287,1,2,3:0:0:0:
256,268,46369,1,2,3:0:0:0:
420,224,46534,5,8,1:0:0:0:
449,333,46699,1,2,0:0:0:0:
380,293,46864,1,2,1:2:0:0:
489,264,47028,1,2,0:0:0:0:
352,192,47193,2,0,B|324:180|304:188|304:196|284:204|256:192,1,100,8|2,1:0|3:0,0:0:0:0:
236,192,47441,1,2,3:0:0:0:
216,192,47523,5,4,1:0:0:0:
256,192,47605,12,10,50160,3:0:0:0:
304,340,55435,6,0,P|335:363|374:358,1,80,4|0,3:0|0:0,0:0:0:0:
484,308,55765,1,2,0:0:0:0:
452,192,55930,2,0,B|419:145|391:147|383:160|354:162|321:116,1,160,2|2,0:0|0:0,0:0:0:0:
256,216,56424,1,2,0:0:0:0:
256,208,56507,1,2,0:0:0:0:
256,200,56589,1,2,0:0:0:0:
208,340,56754,6,0,P|178:363|139:358,1,80,4|0,3:0|0:0,0:0:0:0:
28,308,57084,1,2,0:0:0:0:
60,192,57249,2,0,B|94:145|122:147|130:160|159:162|192:116,1,160,2|2,0:0|0:0,0:0:0:0:
256,8,57743,1,2,0:0:0:0:
256,16,57826,1,2,0:0:0:0:
256,24,57908,1,2,0:0:0:0:
372,84,58072,5,4,3:0:0:0:
372,84,58154,1,2,3:0:0:0:
372,84,58237,2,0,L|407:104,1,40,2|2,3:0|3:0,0:0:0:0:
340,192,58402,5,4,3:0:0:0:
340,192,58484,1,2,3:0:0:0:
340,192,58567,2,0,L|306:212,1,40,2|2,3:0|3:0,0:0:0:0:
172,192,58732,5,4,3:0:0:0:
172,192,58814,1,2,3:0:0:0:
172,192,58897,2,0,L|206:212,1,40,2|2,3:0|3:0,0:0:0:0:
140,84,59061,5,4,3:0:0:0:
140,84,59143,1,2,3:0:0:0:
140,84,59226,2,0,L|105:104,1,40,2|2,3:0|3:0,0:0:0:0:
300,80,59391,5,4,3:0:0:0:
216,100,59556,1,2,3:0:0:0:
312,116,59721,1,4,3:0:0:0:
208,136,59886,1,2,3:0:0:0:
320,152,60050,1,4,3:0:0:0:
204,176,60215,1,2,3:0:0:0:
324,236,60380,2,0,L|358:256,1,40,4|0,3:0|0:0,0:0:0:0:
196,268,60545,2,0,L|162:288,1,40,4|0,3:0|0:0,0:0:0:0:
148,372,60710,6,0,P|82:332|112:228,1,200,4|2,1:0|1:2,0:0:0:0:
148,12,61204,2,0,P|82:52|112:156,1,200,2|2,0:0|0:0,0:0:0:0:
256,192,61699,1,2,1:2:0:0:
244,192,61782,1,2,3:0:0:0:
232,192,61864,1,2,3:0:0:0:
340,100,62028,6,0,B|368:164|352:196|328:196|316:228|340:292,1,200,2|2,1:2|1:2,0:0:0:0:
492,292,62523,2,0,B|516:228|504:196|480:196|464:164|492:100,1,200,2|2,0:0|0:0,0:0:0:0:
416,244,63017,1,2,1:2:0:0:
356,360,63182,1,2,0:0:0:0:
256,192,63347,6,0,B|232:236|232:236|256:280,1,100,2|0,1:2|0:0,0:0:0:0:
156,360,63677,1,2,1:2:0:0:
96,244,63842,2,0,B|24:208|24:208|4:72,1,200,2|2,0:0|0:0,0:0:0:0:
156,24,64336,1,2,1:2:0:0:
96,140,64501,1,2,0:0:0:0:
256,192,64666,6,0,B|280:148|280:148|256:104,1,100,2|0,1:2|0:0,0:0:0:0:
356,24,64996,1,0,1:2:0:0:
416,140,65160,2,0,B|488:176|488:176|505:294,1,200,2|2,0:0|0:0,0:0:0:0:
356,276,65655,1,2,1:2:0:0:
360,268,65737,1,2,3:0:0:0:
364,260,65820,1,2,3:0:0:0:
448,136,65985,6,0,B|399:108|391:57|391:57|344:76|295:48,1,200,4|8,1:0|1:0,0:0:0:0:
64,136,66479,2,0,B|112:108|120:57|120:57|167:76|216:48,1,200,2|2,0:0|0:0,0:0:0:0:
256,192,66974,1,8,1:0:0:0:
256,180,67057,1,2,3:0:0:0:
256,168,67139,1,2,3:0:0:0:
144,264,67303,6,0,L|171:368,1,100,2|0,1:2|0:0,0:0:0:0:
256,280,67633,1,8,1:0:0:0:
342,360,67798,2,0,L|368:264,1,100,2|0,0:0|1:0,0:0:0:0:
257,259,68127,1,2,0:0:0:0:
344,140,68292,1,8,1:0:0:0:
168,140,68457,1,2,0:0:0:0:
256,8,68622,6,0,B|276:60|276:60|236:136|236:136|256:192,1,200,2|8,1:2|1:0,0:0:0:0:
376,307,69116,2,0,P|407:269|412:220,1,100,2|2,0:0|1:2,0:0:0:0:
256,124,69446,1,2,0:0:0:0:
168,244,69611,1,8,1:0:0:0:
344,244,69776,1,2,0:0:0:0:
256,376,69941,6,0,L|256:276,1,100,2|0,1:2|0:0,0:0:0:0:
128,192,70271,1,8,1:0:0:0:
68,244,70435,1,2,0:0:0:0:
8,192,70600,1,2,1:2:0:0:
68,140,70765,1,2,0:0:0:0:
144,268,70930,1,8,1:0:0:0:
144,284,71012,1,2,3:0:0:0:
144,300,71095,1,2,3:0:0:0:
256,364,71259,6,0,B|266:325|260:315|260:315|270:309|280:270,1,100,4|0,1:0|0:0,0:0:0:0:
384,192,71589,1,8,1:0:0:0:
384,192,71754,1,2,0:0:0:0:
280,113,71919,2,0,B|270:74|260:68|260:68|266:58|256:20,1,100,2|0,1:2|0:0,0:0:0:0:
419,24,72248,1,8,1:0:0:0:
404,20,72331,1,2,3:0:0:0:
388,15,72413,1,2,3:0:0:0:
476,116,72578,6,0,B|500:200|500:200|510:192|510:192|500:184|500:184|476:268,1,200,2|8,1:2|1:0,0:0:0:0:
384,192,73072,1,2,0:0:0:0:
300,292,73237,1,2,1:2:0:0:
300,292,73402,1,2,0:0:0:0:
128,192,73567,1,8,1:0:0:0:
212,292,73732,1,2,0:0:0:0:
312,180,73897,6,0,B|315:149|332:136|339:140|356:127|360:96,1,100,2|0,1:2|0:0,0:0:0:0:
256,20,74226,1,8,1:0:0:0:
256,20,74391,1,2,0:0:0:0:
151,96,74556,2,0,B|155:127|172:140|179:136|196:149|200:180,1,100,2|0,1:2|0:0,0:0:0:0:
256,320,74886,1,8,1:0:0:0:
132,352,75050,1,2,0:0:0:0:
33,266,75215,6,0,B|9:182|9:182|-1:190|-1:190|9:198|9:198|33:114,1,200,2|8,1:2|1:0,0:0:0:0:
140,192,75710,1,2,0:0:0:0:
200,60,75875,2,0,L|222:157,1,100,2|0,1:2|0:0,0:0:0:0:
368,116,76204,1,8,1:0:0:0:
368,100,76286,1,2,3:0:0:0:
368,84,76369,1,2,3:0:0:0:
432,232,76534,6,0,B|384:348|384:348|312:380,1,200,4|8,1:0|1:0,0:0:0:0:
80,232,77028,2,0,B|128:348|128:348|196:378,1,200,2|2,0:0|0:0,0:0:0:0:
296,264,77523,1,8,1:0:0:0:
312,259,77605,1,2,3:0:0:0:
328,253,77688,1,2,3:0:0:0:
228,144,77853,6,0,B|185:132|185:132|171:137|171:137|131:126,1,100,2|0,1:2|0:0,0:0:0:0:
20,192,78182,1,8,1:0:0:0:
131,257,78347,2,0,B|171:246|171:246|185:251|185:251|228:240,1,100,2|2,0:0|1:2,0:0:0:0:
356,240,78677,1,2,0:0:0:0:
416,104,78841,1,8,1:0:0:0:
476,240,79007,1,2,0:0:0:0:
336,164,79171,6,0,B|288:120|256:178|256:178|224:120|176:164,1,200,2|8,1:2|1:0,0:0:0:0:
256,348,79666,2,0,B|256:308|256:308|244:292|244:292|244:252,1,100,2|2,0:0|1:2,0:0:0:0:
36,240,79996,1,2,0:0:0:0:
96,104,80161,1,8,1:0:0:0:
156,240,80325,1,2,0:0:0:0:
244,131,80490,6,0,B|244:91|244:91|256:75|256:75|256:35,1,100,2|2,1:2|0:0,0:0:0:0:
396,36,80820,1,8,1:0:0:0:
476,36,80985,1,2,0:0:0:0:
504,110,81149,1,2,1:2:0:0:
453,171,81314,1,2,0:0:0:0:
374,157,81479,1,8,1:0:0:0:
374,157,81561,1,2,3:0:0:0:
374,157,81644,1,2,3:0:0:0:
256,192,81809,5,4,1:0:0:0:
256,192,81891,12,2,84116,0:0:0:0:
44,260,84446,6,0,B|28:220|40:192|48:192|60:164|44:124,1,139.999995727539,4|0,1:0|1:0,0:0:0:0:
148,124,84941,2,0,B|132:164|144:192|152:192|164:220|148:260,1,139.999995727539,4|4,3:0|3:0,0:0:0:0:
96,352,85435,1,0,1:0:0:0:
256,328,85682,1,2,3:0:0:0:
255,327,85765,2,0,P|290:335|324:327,1,69.9999978637696,4|0,3:0|0:0,0:0:0:0:
424,360,86094,2,0,P|431:325|423:291,1,69.9999978637696,0|4,1:0|3:0,0:0:0:0:
367,112,86589,1,4,3:0:0:0:
256,192,86754,2,0,L|186:192,1,69.9999978637696,0|0,1:0|0:0,0:0:0:0:
144,112,87083,6,0,B|120:57|156:13|204:13,1,139.999995727539,4|0,3:0|1:0,0:0:0:0:
307,13,87578,2,0,B|355:13|391:57|368:112,1,139.999995727539,4|4,3:0|3:0,0:0:0:0:
256,112,88072,1,0,1:0:0:0:
256,272,88320,1,2,3:0:0:0:
256,272,88402,2,0,L|256:342,1,69.9999978637696,4|0,3:0|0:0,0:0:0:0:
112,288,88732,1,0,1:0:0:0:
156,192,88897,2,0,B|116:148|116:148|35:148,1,139.999995727539,4|4,3:0|3:0,0:0:0:0:
36,44,89391,6,0,L|112:44,1,69.9999978637696,0|2,1:0|3:0,0:0:0:0:
140,48,89638,1,2,3:0:0:0:
140,48,89721,2,0,B|176:48|192:84|192:84|192:76|192:76|256:76,1,139.999995727539,4|0,3:0|1:0,0:0:0:0:
256,180,90215,1,4,3:0:0:0:
432,296,90545,1,4,3:0:0:0:
359,370,90710,1,0,1:0:0:0:
360,212,90957,1,2,3:0:0:0:
360,212,91039,2,0,B|390:212|390:212|400:208|400:208|429:208,1,69.9999978637696,4|0,3:0|0:0,0:0:0:0:
456,108,91369,1,0,1:0:0:0:
372,48,91534,2,0,B|336:48|320:84|320:84|320:76|320:76|256:76,1,139.999995727539,4|4,3:0|3:0,0:0:0:0:
152,172,92028,6,0,B|122:172|122:172|112:176|112:176|82:176,1,69.9999978637696,0|0,1:0|0:0,0:0:0:0:
20,260,92358,2,0,B|60:260|60:260|64:316|120:332,1,139.999995727539,4|0,3:0|1:0,0:0:0:0:
200,264,92853,1,4,3:0:0:0:
369,149,93182,1,4,3:0:0:0:
296,76,93347,1,0,1:0:0:0:
312,264,93594,1,2,3:0:0:0:
312,264,93677,2,0,B|348:288|348:288|320:380,1,139.999995727539,4|0,3:0|1:0,0:0:0:0:
192,380,94171,2,0,B|164:288|164:288|200:264,1,139.999995727539,4|4,3:0|3:0,0:0:0:0:
120,192,94666,2,0,P|92:172|87:138,1,69.9999978637696,0|0,1:0|0:0,0:0:0:0:
184,40,94996,6,0,B|240:56|256:7|256:7|272:56|328:40,1,179.999994506836,4|8,1:0|1:0,0:0:0:0:
256,152,95490,1,2,0:0:0:0:
368,236,95655,2,0,B|368:200|376:192|376:192|368:184|368:148,1,89.9999972534181,2|0,1:2|0:0,0:0:0:0:
500,36,95985,2,0,B|500:72|492:80|492:80|500:88|500:124,1,89.9999972534181,8|0,1:0|0:0,0:0:0:0:
499,261,96314,2,0,B|499:296|491:304|491:304|499:312|499:348,1,89.9999972534181,2|0,1:2|0:0,0:0:0:0:
402,192,96644,2,0,B|340:192|340:192|328:180|328:180|328:204|328:204|316:192|316:192|256:192,1,179.999994506836,8|2,1:0|1:2,0:0:0:0:
12,192,97303,6,0,L|102:192,1,89.9999972534181,8|0,1:0|0:0,0:0:0:0:
84,328,97633,2,0,B|157:349|157:349|221:338|220:279,1,179.999994506836,2|8,1:2|1:0,0:0:0:0:
220,104,98127,2,0,B|221:45|157:34|157:34|84:56,1,179.999994506836,2|2,0:0|0:0,0:0:0:0:
256,192,98622,2,0,L|345:191,1,89.9999972534181,8|0,1:0|0:0,0:0:0:0:
291,19,98952,2,0,B|305:59|305:59|289:103,1,89.9999972534181,2|0,1:2|0:0,0:0:0:0:
418,103,99281,2,0,B|403:62|403:62|419:18,1,89.9999972534181,8|0,1:0|0:0,0:0:0:0:
345,191,99611,1,2,1:2:0:0:
256,356,99941,5,8,1:0:0:0:
426,191,100270,2,0,B|390:239|424:288|424:288|348:288,1,179.999994506836,2|8,1:2|1:0,0:0:0:0:
164,288,100765,2,0,B|88:288|88:288|122:239|86:191,1,179.999994506836,2|2,0:0|0:0,0:0:0:0:
256,192,101259,1,8,1:0:0:0:
440,24,101589,2,0,P|400:7|360:24,1,89.9999972534181,2|0,1:2|0:0,0:0:0:0:
320,156,101919,2,0,P|399:190|479:155,1,179.999994506836,8|2,1:0|1:2,0:0:0:0:
256,192,102578,5,8,1:0:0:0:
48,20,102908,2,0,B|79:61|122:67|126:60|168:66|200:108,1,179.999994506836,2|8,1:2|1:0,0:0:0:0:
200,276,103402,2,0,B|168:317|126:323|122:316|79:322|48:364,1,179.999994506836,2|2,0:0|0:0,0:0:0:0:
104,192,103897,1,8,1:0:0:0:
256,40,104226,2,0,B|256:72|245:82|245:82|256:92|256:124,1,89.9999972534181,2|0,1:2|0:0,0:0:0:0:
408,192,104556,2,0,B|376:192|366:181|366:181|356:192|323:192,1,89.9999972534181,8|0,1:0|0:0,0:0:0:0:
256,344,104886,2,0,B|256:312|267:302|267:302|256:292|256:259,1,89.9999972534181,2|0,1:2|0:0,0:0:0:0:
104,192,105215,1,8,1:0:0:0:
256,192,105545,5,4,1:0:0:0:
332,28,116424,6,0,L|294:107,1,80,2|0,0:0|0:0,0:0:0:0:
215,100,116754,2,0,L|182:28,1,80,2|0,0:0|0:0,0:0:0:0:
104,60,117083,1,2,0:0:0:0:
104,60,117248,1,2,0:0:0:0:
44,120,117413,5,10,0:0:0:0:
44,120,117743,1,8,0:0:0:0:
128,232,118072,2,0,L|144:300,1,69.9999978637696,10|0,0:0|0:0,0:0:0:0:
255,300,118402,2,0,L|271:232,1,69.9999978637696,10|8,0:0|0:0,0:0:0:0:
200,148,118732,1,10,0:0:0:0:
200,148,119061,1,8,0:0:0:0:
344,36,119391,6,0,P|377:28|411:36,1,69.9999978637696,10|0,0:0|0:0,0:0:0:0:
412,150,119721,2,0,P|378:158|344:150,1,69.9999978637696,10|8,0:0|0:0,0:0:0:0:
256,93,120050,1,10,0:0:0:0:
256,93,120380,1,8,0:0:0:0:
256,291,120710,1,10,0:0:0:0:
157,192,121039,1,10,0:0:0:0:
112,120,121204,1,8,0:0:0:0:
68,192,121369,1,8,0:0:0:0:
256,80,121699,5,10,0:0:0:0:
256,80,121864,1,2,0:0:0:0:
256,80,122028,2,0,L|256:152,1,69.9999978637696,10|0,0:0|0:0,0:0:0:0:
355,192,122358,1,10,0:0:0:0:
400,120,122523,1,8,0:0:0:0:
444,192,122688,2,0,B|444:244|444:244|424:272|424:272|424:325,1,139.999995727539,10|8,0:0|0:0,0:0:0:0:
216,364,123347,6,0,P|187:346|168:316,1,69.9999978637696,10|0,0:0|0:0,0:0:0:0:
295,364,123677,2,0,P|325:345|343:316,2,69.9999978637696,10|8|8,0:0|0:0|0:0,0:0:0:0:
256,192,124336,1,8,0:0:0:0:
296,20,124666,6,0,P|324:37|343:67,1,69.9999978637696,10|0,0:0|0:0,0:0:0:0:
216,19,124996,2,0,P|186:38|168:67,1,69.9999978637696,10|8,0:0|0:0,0:0:0:0:
256,124,125325,1,8,0:0:0:0:
88,192,125655,2,0,B|54:200|54:200|20:192,1,69.9999978637696,8|0,0:0|0:0,0:0:0:0:
28,312,125985,5,10,3:0:0:0:
55,304,126067,1,10,3:0:0:0:
82,297,126149,1,10,3:0:0:0:
109,290,126232,1,10,3:0:0:0:
130,309,126314,1,10,3:0:0:0:
157,302,126396,1,10,3:0:0:0:
184,294,126478,1,10,3:0:0:0:
211,287,126561,1,10,3:0:0:0:
238,280,126644,6,8,L|254:275,6,17.4999994659424,8|8|8|8|8|8|8,3:0|3:0|3:0|3:0|3:0|3:0|3:0,3:0:0:0:
272,192,126974,2,8,L|288:196,6,17.4999994659424,8|8|8|8|8|8|8,3:0|3:0|3:0|3:0|3:0|3:0|3:0,3:0:0:0:
345,132,127303,2,8,L|357:144,6,17.4999994659424,8|8|8|8|8|8|8,3:0|3:0|3:0|3:0|3:0|3:0|3:0,3:0:0:0:
438,116,127633,2,8,L|442:132,6,17.4999994659424,8|8|8|8|8|8|8,3:0|3:0|3:0|3:0|3:0|3:0|3:0,3:0:0:0:
256,192,127963,12,2,129116,0:0:0:0:
304,24,129281,6,0,P|337:114|428:148,1,200,4|2,1:0|1:2,0:0:0:0:
304,360,129776,2,0,P|337:269|428:235,1,200,2|2,0:0|0:0,0:0:0:0:
280,192,130270,1,2,1:2:0:0:
268,192,130353,1,2,3:0:0:0:
256,192,130435,1,2,3:0:0:0:
116,72,130600,6,0,B|216:72|216:72|152:148,1,200,2|2,1:2|1:2,0:0:0:0:
116,312,131094,2,0,B|216:312|216:312|152:236,1,200,2|2,0:0|0:0,0:0:0:0:
32,148,131588,1,2,1:2:0:0:
76,4,131753,1,2,0:0:0:0:
208,76,131918,6,0,B|244:76|244:76|256:84|256:84|268:76|268:76|304:76,1,100,2|0,1:2|0:0,0:0:0:0:
480,148,132248,1,2,1:2:0:0:
436,4,132413,2,0,B|405:88|405:88|415:84|415:84|413:74|413:74|356:142,1,200,2|2,0:0|0:0,0:0:0:0:
480,236,132908,1,2,1:2:0:0:
436,380,133073,1,2,0:0:0:0:
304,308,133238,6,0,B|268:308|268:308|256:300|256:300|244:308|244:308|208:308,1,100,2|0,1:2|0:0,0:0:0:0:
32,236,133568,1,2,1:2:0:0:
76,380,133732,2,0,B|106:295|106:295|96:299|96:299|98:309|98:309|155:241,1,200,2|2,0:0|0:0,0:0:0:0:
256,132,134226,1,2,1:2:0:0:
256,152,134308,1,2,3:0:0:0:
256,172,134391,1,2,3:0:0:0:
112,136,134556,6,0,B|184:136|184:136|152:64|216:24,1,200,4|8,1:0|1:0,0:0:0:0:
400,136,135050,2,0,B|328:136|328:136|360:64|296:24,1,200,2|2,0:0|0:0,0:0:0:0:
232,192,135545,1,8,1:0:0:0:
244,192,135628,1,2,3:0:0:0:
256,192,135710,1,2,3:0:0:0:
440,282,135874,6,0,B|396:282|396:282|344:259,1,100,2|0,1:2|0:0,0:0:0:0:
420,192,136204,1,8,1:0:0:0:
344,124,136369,2,0,B|395:101|395:101|439:101,1,100,2|2,0:0|1:2,0:0:0:0:
392,192,136698,1,2,0:0:0:0:
256,116,136863,1,8,1:0:0:0:
256,269,137028,1,2,0:0:0:0:
256,84,137193,6,0,P|180:29|104:84,1,200,2|8,1:2|1:0,0:0:0:0:
0,192,137687,2,0,L|0:92,1,100,2|2,0:0|1:2,0:0:0:0:
120,192,138017,1,2,0:0:0:0:
256,268,138182,1,8,1:0:0:0:
256,115,138347,1,2,0:0:0:0:
256,300,138512,6,0,B|296:300|296:300|312:316|312:316|349:316,1,100,2|0,1:2|0:0,0:0:0:0:
428,192,138842,1,8,1:0:0:0:
508,272,139007,1,2,0:0:0:0:
508,192,139171,1,2,1:2:0:0:
428,272,139336,1,2,0:0:0:0:
376,132,139501,1,8,1:0:0:0:
368,124,139583,1,2,3:0:0:0:
360,116,139666,1,2,3:0:0:0:
220,44,139831,6,0,B|195:58|195:58|182:75|182:75|161:78|161:78|136:92,1,100,4|0,1:0|0:0,0:0:0:0:
220,192,140161,1,8,1:0:0:0:
220,192,140326,1,2,0:0:0:0:
136,292,140490,2,0,B|160:306|160:306|173:323|173:323|194:326|194:326|219:340,1,100,2|0,1:2|0:0,0:0:0:0:
368,312,140820,1,8,1:0:0:0:
354,326,140903,1,2,3:0:0:0:
340,340,140985,1,2,3:0:0:0:
308,192,141149,6,0,B|356:176|356:176|448:208|448:208|500:192,1,200,2|8,1:2|1:0,0:0:0:0:
391,116,141644,1,2,0:0:0:0:
316,16,141809,1,2,1:2:0:0:
316,16,141974,1,2,0:0:0:0:
176,116,142139,1,8,1:0:0:0:
100,16,142304,1,2,0:0:0:0:
255,48,142469,6,0,P|262:96|301:125,1,100,2|0,1:2|0:0,0:0:0:0:
364,244,142798,1,8,1:0:0:0:
364,244,142963,1,2,0:0:0:0:
256,335,143127,2,0,P|249:287|210:258,1,100,2|0,1:2|0:0,0:0:0:0:
88,304,143458,1,8,1:0:0:0:
24,192,143622,1,2,0:0:0:0:
40,364,143787,6,0,B|88:388|136:368|136:356|184:336|232:364,1,200,2|8,1:2|1:0,0:0:0:0:
256,236,144281,1,2,0:0:0:0:
388,308,144447,2,0,L|288:308,1,100,2|0,1:2|0:0,0:0:0:0:
172,212,144776,1,8,1:0:0:0:
172,192,144859,1,2,3:0:0:0:
172,172,144941,1,2,3:0:0:0:
304,104,145106,6,0,B|338:69|338:69|406:69|406:69|462:69|462:115,1,200,4|8,1:0|1:0,0:0:0:0:
462,269,145600,2,0,B|427:303|427:303|359:303|359:303|303:303|303:257,1,200,2|2,0:0|0:0,0:0:0:0:
168,324,146095,1,8,1:0:0:0:
151,340,146177,1,2,3:0:0:0:
134,357,146260,1,2,3:0:0:0:
40,240,146425,6,0,B|27:192|27:192|40:144,1,100,2|0,1:2|0:0,0:0:0:0:
116,36,146754,1,8,1:0:0:0:
192,144,146919,2,0,B|205:192|205:192|192:240,1,100,2|2,0:0|1:2,0:0:0:0:
324,120,147248,1,2,0:0:0:0:
476,192,147413,1,8,1:0:0:0:
324,264,147578,1,2,0:0:0:0:
460,108,147743,6,0,B|459:128|511:192|511:192|459:256|459:280,1,200,2|8,1:2|1:0,0:0:0:0:
312,332,148237,2,0,P|360:327|388:288,1,100,2|2,0:0|1:2,0:0:0:0:
188,264,148567,1,2,0:0:0:0:
36,192,148732,1,8,1:0:0:0:
188,120,148897,1,2,0:0:0:0:
52,276,149061,6,0,L|77:372,1,100,2|0,1:2|0:0,0:0:0:0:
212,328,149392,1,8,1:0:0:0:
268,272,149556,1,2,0:0:0:0:
268,192,149721,1,2,1:2:0:0:
212,136,149886,1,2,0:0:0:0:
132,136,150050,1,8,1:0:0:0:
132,136,150133,1,2,3:0:0:0:
132,136,150215,1,2,3:0:0:0:
68,28,150380,6,0,P|135:23|170:80,1,139.999995727539,4|2,1:0|0:0,0:0:0:0:
172,192,150875,1,2,0:0:0:0:
172,192,151204,1,2,0:0:0:0:
256,144,151369,1,2,3:0:0:0:
256,144,151452,1,2,3:0:0:0:
256,144,151534,1,2,3:0:0:0:
342,79,151699,6,0,P|377:22|444:28,1,139.999995727539,2|2,0:0|0:0,0:0:0:0:
504,120,152193,1,2,0:0:0:0:
504,120,152523,1,2,0:0:0:0:
408,159,152688,2,0,P|419:193|441:219,1,69.9999978637696,2|2,0:0|0:0,0:0:0:0:
445,351,153017,6,0,P|400:299|347:253,1,139.999995727539,2|2,0:0|0:0,0:0:0:0:
256,192,153512,1,2,0:0:0:0:
256,192,153842,1,2,0:0:0:0:
105,159,154007,2,0,P|94:193|72:219,1,69.9999978637696,2|2,0:0|0:0,0:0:0:0:
68,351,154336,6,0,P|113:299|166:253,1,139.999995727539,2|2,0:0|0:0,0:0:0:0:
256,308,154831,2,0,B|272:272|264:240|248:240|240:212|256:172,1,139.999995727539,2|2,0:0|0:0,0:0:0:0:
256,68,155325,2,0,L|256:32,2,34.9999989318848,2|2|2,3:0|3:0|3:0,0:0:0:0:
256,192,155655,12,2,160930,0:0:0:0:
