osu file format v14

[General]
AudioFilename: audio.mp3
AudioLeadIn: 0
PreviewTime: 25435
Countdown: 0
SampleSet: Soft
StackLeniency: 0.4
Mode: 0
LetterboxInBreaks: 0
SkinPreference:Default
WidescreenStoryboard: 1

[Editor]
DistanceSpacing: 1
BeatDivisor: 2
GridSize: 4
TimelineZoom: 1

[Metadata]
Title:Let It Be (Nightcore Mix)
TitleUnicode:Let It Be (Nightcore Mix)
Artist:Groove Coverage
ArtistUnicode:Groove Coverage
Creator:StripedGoose
Version:Easy
Source:
Tags:froskya revialink bakari riffy english edm electronic dance music speed sped up trance 21st century
BeatmapID:4036598
BeatmapSetID:1949720

[Difficulty]
HPDrainRate:2
CircleSize:3
OverallDifficulty:2
ApproachRate:4
SliderMultiplier:0.899999999999999
SliderTickRate:1

[Events]
//Background and Video events
0,0,"BG.jpg",0,0
//Break Periods
2,50360,54115
2,82009,83126
2,106864,116093
//Storyboard Layer 0 (Background)
//Storyboard Layer 1 (Fail)
//Storyboard Layer 2 (Pass)
//Storyboard Layer 3 (Foreground)
//Storyboard Layer 4 (Overlay)
//Storyboard Sound Samples

[TimingPoints]
4007,329.67032967033,4,2,1,50,1,0
4007,-111.111111111111,4,2,1,50,0,0
14556,-100,4,2,1,60,0,0
26424,-100,4,2,1,70,0,1
35985,-100,4,2,1,60,0,0
36974,-100,4,2,1,70,0,1
47523,-100,4,2,1,70,0,0
47605,-100,4,2,1,40,0,0
50160,-100,4,2,1,60,0,0
60710,-100,4,2,1,70,0,1
70270,-100,4,2,1,60,0,0
71259,-100,4,2,1,70,0,1
81809,-100,4,2,1,50,0,0
84446,-100,4,2,1,50,0,0
94996,-100,4,2,1,60,0,0
105545,-100,4,2,1,50,0,0
117413,-100,4,2,1,55,0,0
125985,-100,4,2,1,45,0,0
129281,-100,4,2,1,70,0,1
138842,-100,4,2,1,60,0,0
139831,-100,4,2,1,70,0,1
150380,-100,4,2,1,50,0,0
155655,-100,4,2,1,5,0,0

[Colours]
Combo1 : 117,91,138
Combo2 : 243,205,143
Combo3 : 121,155,203
Combo4 : 181,87,88
SliderBorder : 255,255,255

[HitObjects]
292,40,4007,6,0,L|413:40,2,121.499996292114,2|2|2,0:0|0:0|0:0,0:0:0:0:
220,80,5325,2,0,L|220:161,1,80.9999975280762,2|2,0:0|0:0,0:0:0:0:
292,304,6314,1,2,0:0:0:0:
220,344,6644,2,0,L|98:344,1,121.499996292114,2|2,0:0|0:0,0:0:0:0:
24,248,7633,1,2,0:0:0:0:
84,192,7963,2,0,B|126:212|162:200|162:184|202:172|241:192,1,161.999995056152,2|0,0:0|0:0,0:0:0:0:
304,244,8952,1,2,0:0:0:0:
388,248,9281,6,0,P|408:192|388:136,2,121.499996292114,2|2|2,0:0|0:0|0:0,0:0:0:0:
340,316,10600,2,0,P|301:327|263:316,1,80.9999975280762,2|2,0:0|0:0,0:0:0:0:
104,328,11589,1,2,0:0:0:0:
124,248,11919,2,0,P|103:192|124:136,1,121.499996292114,2|2,0:0|0:0,0:0:0:0:
216,56,12908,1,2,0:0:0:0:
256,128,13237,2,0,B|296:160|304:192|304:192|296:224|256:256,1,161.999995056152,2|0,0:0|0:0,0:0:0:0:
256,340,14226,1,2,0:0:0:0:
340,348,14556,6,0,B|384:348|384:348|420:320|420:320|465:320,1,135,4|4,1:0|3:0,0:0:0:0:
508,192,15545,1,0,1:0:0:0:
452,120,15875,2,0,L|475:33,2,89.9999999999999,4|0|2,3:0|1:0|0:0,0:0:0:0:
396,192,16864,1,0,1:0:0:0:
452,264,17193,2,0,P|434:330|388:376,2,135,4|4|0,3:0|3:0|1:0,0:0:0:0:
364,280,18512,2,0,B|339:232|358:192|366:191|385:159|361:106,1,180,4|2,3:0|0:0,0:0:0:0:
284,152,19501,5,0,1:0:0:0:
256,240,19831,2,0,B|240:312|240:312|178:312,1,135,4|4,3:0|3:0,0:0:0:0:
116,192,20820,1,0,1:0:0:0:
60,120,21150,2,0,L|83:33,2,89.9999999999999,4|0|2,3:0|1:0|0:0,0:0:0:0:
4,192,22138,1,0,1:0:0:0:
60,264,22468,2,0,P|78:330|124:376,2,135,4|4|0,3:0|3:0|1:0,0:0:0:0:
120,192,23787,2,0,B|216:216|256:104|256:104|296:216|388:192,1,360,4|2,3:0|3:0,0:0:0:0:
256,16,26424,6,0,L|256:106,1,89.9999999999999,4|2,1:0|1:2,0:0:0:0:
192,168,27083,2,0,P|190:212|209:252,1,89.9999999999999,2|2,1:2|1:2,0:0:0:0:
302,252,27743,2,0,P|321:212|320:168,1,89.9999999999999,2|2,1:2|1:2,0:0:0:0:
384,104,28402,1,2,1:2:0:0:
464,148,28732,2,0,P|492:116|504:68,2,89.9999999999999,2|2|2,1:2|1:2|1:2,0:0:0:0:
464,236,29721,1,2,1:2:0:0:
384,344,30215,1,2,0:0:0:0:
255,304,30710,6,0,P|233:342|196:367,2,89.9999999999999,0|0|0,1:2|1:2|1:2,0:0:0:0:
256,212,31699,2,0,P|233:173|196:148,1,89.9999999999999,4|8,1:0|1:0,0:0:0:0:
112,112,32358,2,0,B|56:124|56:124|32:147,1,89.9999999999999,2|8,1:2|1:0,0:0:0:0:
32,236,33017,2,0,B|56:260|56:260|112:272,1,89.9999999999999,2|8,1:2|1:0,0:0:0:0:
196,308,33677,1,2,1:2:0:0:
256,240,34007,2,0,L|256:150,2,89.9999999999999,8|2|8,1:0|1:2|1:0,0:0:0:0:
315,307,34996,2,0,P|358:358|423:369,1,135,2|2,1:2|0:0,0:0:0:0:
508,264,35985,6,0,B|454:192|454:192|508:120,1,180,8|8,1:0|1:0,0:0:0:0:
432,68,36974,2,0,L|378:140,1,89.9999999999999,4|8,1:0|1:0,0:0:0:0:
300,192,37633,1,2,1:2:0:0:
212,192,37963,1,8,1:0:0:0:
133,140,38292,2,0,L|80:68,1,89.9999999999999,2|8,1:2|1:0,0:0:0:0:
36,148,38952,2,0,P|27:192|35:236,1,89.9999999999999,2|8,1:2|1:0,0:0:0:0:
80,316,39611,2,0,L|133:243,2,89.9999999999999,2|8|2,1:2|1:0|1:2,0:0:0:0:
208,360,40765,1,2,0:0:0:0:
316,280,41259,6,0,B|317:250|317:250|304:224|304:224|304:193,1,89.9999999999999,8|0,1:0|1:2,0:0:0:0:
372,136,41919,1,8,1:0:0:0:
440,193,42248,2,0,B|440:224|440:224|427:250|427:250|428:280,1,89.9999999999999,4|8,1:0|1:0,0:0:0:0:
388,360,42908,2,0,L|298:360,1,89.9999999999999,2|8,1:2|1:0,0:0:0:0:
214,360,43567,2,0,L|124:360,1,89.9999999999999,2|8,1:2|1:0,0:0:0:0:
104,272,44226,5,2,1:2:0:0:
148,192,44556,1,8,1:0:0:0:
104,112,44886,2,0,P|94:68|104:24,1,89.9999999999999,2|8,1:2|1:0,0:0:0:0:
192,40,45545,2,0,P|256:20|320:39,1,135,2|2,1:2|0:0,0:0:0:0:
256,159,46534,2,0,L|256:249,2,89.9999999999999,8|2|8,1:0|1:2|1:0,0:0:0:0:
256,192,47523,12,10,50160,3:0:0:0:
256,192,55435,12,4,59391,3:0:0:0:
300,44,60710,6,0,B|336:16|336:16|436:16,2,135,4|2|2,1:0|0:0|1:2,0:0:0:0:
212,44,62028,2,0,B|176:16|176:16|76:16,2,135,2|2|2,1:2|0:0|1:2,0:0:0:0:
144,103,63347,2,0,P|92:143|90:208,1,135,2|2,1:2|0:0,0:0:0:0:
212,268,64336,1,2,1:2:0:0:
300,268,64666,1,2,1:2:0:0:
421,208,65160,2,0,P|419:143|367:103,1,135,2|2,0:0|1:2,0:0:0:0:
300,44,65985,6,0,B|332:84|332:84|304:124|304:124|304:158,2,135,4|2|8,1:0|0:0|1:0,0:0:0:0:
212,44,67303,2,0,B|180:84|180:84|208:124|208:124|208:158,2,135,2|2|8,1:2|0:0|1:0,0:0:0:0:
128,8,68622,1,2,1:2:0:0:
28,100,69116,1,2,0:0:0:0:
128,192,69611,1,8,1:0:0:0:
192,256,69941,1,2,1:2:0:0:
128,320,70270,2,0,L|44:368,2,89.9999999999999,8|2|8,1:0|1:2|1:0,0:0:0:0:
208,364,71259,5,4,1:0:0:0:
328,300,71754,2,0,P|393:289|437:239,1,135,2|8,0:0|1:0,0:0:0:0:
437,144,72578,2,0,P|393:94|328:84,1,135,2|2,1:2|0:0,0:0:0:0:
208,20,73567,1,8,1:0:0:0:
148,88,73897,2,0,B|111:72|83:84|83:92|59:104|13:88,2,135,2|2|8,1:2|0:0|1:0,0:0:0:0:
148,180,75215,2,0,B|111:196|83:184|83:176|59:164|13:180,2,135,2|2|8,1:2|0:0|1:0,0:0:0:0:
228,136,76534,6,0,B|272:136|272:136|350:89,1,135,4|2,1:0|0:0,0:0:0:0:
440,192,77523,1,8,1:0:0:0:
440,284,77853,1,2,1:2:0:0:
349,295,78182,2,0,B|264:252|264:252|180:252,1,180,8|8,1:0|1:0,0:0:0:0:
104,304,79171,5,2,1:2:0:0:
32,188,79666,1,2,0:0:0:0:
104,80,80160,1,8,1:0:0:0:
180,132,80490,1,2,1:2:0:0:
256,80,80820,2,0,B|256:24|256:24|283:3,2,89.9999999999999,8|2|8,1:0|1:2|1:0,0:0:0:0:
332,132,81809,5,4,1:0:0:0:
212,344,84446,6,0,L|60:344,2,135,4|4|0,1:0|3:0|1:0,0:0:0:0:
300,344,85765,2,0,L|392:344,1,89.9999999999999,4|0,3:0|1:0,0:0:0:0:
488,192,86754,1,0,1:0:0:0:
432,124,87083,2,0,P|464:68|432:12,2,135,4|4|0,3:0|3:0|1:0,0:0:0:0:
372,192,88402,2,0,B|328:160|288:180|288:204|240:224|204:192,1,180,4|0,3:0|0:0,0:0:0:0:
116,208,89391,5,0,1:0:0:0:
80,124,89721,2,0,P|48:68|80:12,1,135,4|4,3:0|3:0,0:0:0:0:
212,44,90710,1,0,1:0:0:0:
300,44,91039,2,0,B|336:44|336:44|352:56|352:56|386:56,1,89.9999999999999,4|0,3:0|1:0,0:0:0:0:
488,192,92028,1,0,1:0:0:0:
432,260,92358,2,0,P|464:316|432:372,1,135,4|4,3:0|3:0,0:0:0:0:
300,340,93347,1,0,1:0:0:0:
212,340,93677,2,0,P|139:293|145:208,1,180,4|0,3:0|0:0,0:0:0:0:
256,68,94996,6,0,B|256:144|256:144|260:152|260:152|252:152|252:152|256:160|256:160|256:238,1,180,4|2,1:0|1:2,0:0:0:0:
212,316,95985,1,8,1:0:0:0:
124,316,96314,2,0,B|88:316|88:316|40:341,2,89.9999999999999,2|8|2,1:2|1:0|1:2,0:0:0:0:
168,240,97303,1,8,1:0:0:0:
168,148,97633,2,0,B|104:174|104:174|44:148,2,135,2|2|8,1:2|0:0|1:0,0:0:0:0:
256,156,98952,2,0,B|256:96|256:96|376:48,1,180,2|2,1:2|1:2,0:0:0:0:
456,52,99941,5,8,1:0:0:0:
469,147,100270,2,0,B|409:173|409:173|345:147,1,135,2|2,1:2|0:0,0:0:0:0:
332,280,101260,1,8,1:0:0:0:
408,324,101589,2,0,B|444:324|444:324|491:349,2,89.9999999999999,2|8|2,1:2|1:0|1:2,0:0:0:0:
332,372,102578,1,8,1:0:0:0:
256,328,102908,6,0,B|206:328|190:336|190:336|174:328|120:328,2,135,2|2|8,1:2|0:0|1:0,0:0:0:0:
255,236,104227,2,0,P|238:83|407:60,1,360,2|4,1:2|1:0,0:0:0:0:
48,320,117413,6,0,L|138:320,1,89.9999999999999,10|8,0:0|0:0,0:0:0:0:
212,268,118072,1,10,0:0:0:0:
211,175,118402,2,0,P|178:146|164:104,2,89.9999999999999,10|10|8,0:0|0:0|0:0,0:0:0:0:
300,175,119391,2,0,P|333:146|347:104,2,89.9999999999999,10|10|10,0:0|0:0|0:0,0:0:0:0:
300,268,120380,1,8,0:0:0:0:
373,319,120710,2,0,P|430:351|490:326,1,135,10|8,0:0|0:0,0:0:0:0:
508,192,121699,6,0,P|501:137|460:112,1,89.9999999999999,10|10,0:0|0:0,0:0:0:0:
388,96,122358,2,0,L|360:8,2,89.9999999999999,10|10|8,0:0|0:0|0:0,0:0:0:0:
300,80,123347,1,10,0:0:0:0:
212,80,123677,1,10,0:0:0:0:
151,10,124007,2,0,L|124:96,1,89.9999999999999,8|8,0:0|0:0,0:0:0:0:
35,116,124666,6,0,P|4:148|4:192,2,89.9999999999999,10|10|8,0:0|0:0|0:0,0:0:0:0:
96,184,125655,1,8,0:0:0:0:
96,276,125985,2,0,P|123:336|183:363,1,135,10|10,3:0|3:0,0:0:0:0:
292,280,126974,1,8,3:0:0:0:
328,363,127303,2,8,P|388:336|415:276,1,135,8|8,3:0|3:0,3:0:0:0:
180,148,129281,6,0,B|116:128|116:128|52:148,2,135,4|2|2,1:0|0:0|1:2,0:0:0:0:
180,236,130600,2,0,B|116:256|116:256|52:236,2,135,2|2|2,1:2|0:0|1:2,0:0:0:0:
256,284,131918,2,0,B|300:284|300:284|344:304|344:304|386:304,1,135,2|2,1:2|0:0,0:0:0:0:
504,236,132907,1,2,1:2:0:0:
504,148,133237,1,2,1:2:0:0:
386,80,133732,2,0,B|344:80|344:80|300:100|300:100|256:100,1,135,2|2,0:0|1:2,0:0:0:0:
212,180,134556,6,0,L|144:297,2,135,4|2|8,1:0|0:0|1:0,0:0:0:0:
300,180,135875,2,0,L|368:297,2,135,2|2|8,1:2|0:0|1:0,0:0:0:0:
256,260,137193,1,2,1:2:0:0:
324,376,137687,1,2,0:0:0:0:
188,376,138182,1,8,1:0:0:0:
108,332,138512,1,2,1:2:0:0:
68,252,138841,2,0,B|28:212|28:212|19:179,2,89.9999999999999,8|2|8,1:0|1:2|1:0,0:0:0:0:
148,208,139830,5,4,1:0:0:0:
88,88,140325,2,0,P|145:54|211:54,1,135,2|8,0:0|1:0,0:0:0:0:
300,54,141149,2,0,P|367:53|425:88,1,135,2|2,1:2|0:0,0:0:0:0:
364,208,142138,1,8,1:0:0:0:
300,272,142468,2,0,B|344:292|344:292|392:292|392:292|406:327,2,135,2|2|8,1:2|0:0|1:0,0:0:0:0:
212,272,143787,2,0,B|168:292|168:292|120:292|120:292|105:327,2,135,2|2|8,1:2|0:0|1:0,0:0:0:0:
148,208,145105,6,0,P|105:158|128:96,1,135,4|2,1:0|0:0,0:0:0:0:
256,64,146094,1,8,1:0:0:0:
336,24,146424,1,2,1:2:0:0:
386,98,146754,2,0,P|412:184|372:272,1,180,8|8,1:0|1:0,0:0:0:0:
324,336,147742,5,2,1:2:0:0:
188,336,148237,1,2,0:0:0:0:
256,220,148731,1,8,1:0:0:0:
192,156,149061,1,2,1:2:0:0:
256,92,149391,2,0,B|256:2,2,89.9999999999999,8|2|8,1:0|1:2|1:0,0:0:0:0:
320,156,150380,5,4,1:0:0:0:
256,192,150545,12,0,156974,0:0:0:0:
