osu file format v14

[General]
AudioFilename: audio.mp3
AudioLeadIn: 0
PreviewTime: 38631
Countdown: 0
SampleSet: Soft
StackLeniency: 0.4
Mode: 0
LetterboxInBreaks: 0
SkinPreference:Default
WidescreenStoryboard: 0

[Editor]
DistanceSpacing: 1.2
BeatDivisor: 4
GridSize: 8
TimelineZoom: 2.3

[Metadata]
Title:Holy Virgin (Nightcore Mix)
TitleUnicode:Holy Virgin (Nightcore Mix)
Artist:Groove Coverage
ArtistUnicode:Groove Coverage
Creator:LeomineXD
Version:Hard
Source:
Tags:appetible appe bloxi animestyle electronic trance electrodance english Axel Konrad DJ Novus Melanie Munch 21st century remix full radio edit
BeatmapID:3326989
BeatmapSetID:1629782

[Difficulty]
HPDrainRate:5
CircleSize:4
OverallDifficulty:5.5
ApproachRate:7.5
SliderMultiplier:1.4
SliderTickRate:1

[Events]
//Background and Video events
0,0,"innocent BG.jpg",0,0
//Break Periods
2,62625,66785
2,117440,127526
//Storyboard Layer 0 (Background)
//Storyboard Layer 1 (Fail)
//Storyboard Layer 2 (Pass)
//Storyboard Layer 3 (Foreground)
//Storyboard Layer 4 (Overlay)
//Storyboard Sound Samples

[TimingPoints]
204,370.37037037037,4,2,1,60,1,0
1685,370.37037037037,4,2,1,60,1,0
1685,-125,4,2,1,60,0,0
13536,-125,4,2,1,65,0,0
25018,-125,4,2,2,65,0,0
25388,-117.647058823529,4,2,1,75,0,0
37240,-117.647058823529,4,2,1,70,0,0
38722,370.37037037037,4,2,2,85,1,0
38722,-105.263157894737,4,2,2,85,0,1
47610,-125,4,2,1,70,0,0
50573,-105.263157894737,4,2,2,85,0,1
59462,-125,4,2,1,70,0,0
62425,-125,4,2,1,60,0,0
68351,-125,4,2,1,65,0,0
79833,-125,4,2,2,65,0,0
80203,-117.647058823529,4,2,1,75,0,0
92055,-117.647058823529,4,2,1,70,0,0
93536,370.37037037037,4,2,2,85,1,0
93536,-105.263157894737,4,2,2,85,0,1
102424,-125,4,2,1,70,0,0
105387,-105.263157894737,4,2,2,85,0,1
114276,-125,4,2,1,70,0,0
117240,-133.333333333333,4,2,1,55,0,0
127610,-133.333333333333,4,2,1,60,0,0
128722,-133.333333333333,4,2,2,65,0,0
129092,-117.647058823529,4,2,1,75,0,0
140944,-117.647058823529,4,2,1,70,0,0
142424,370.37037037037,4,2,2,85,1,0
142424,-105.263157894737,4,2,2,85,0,1
151312,-125,4,2,1,70,0,0
154275,-105.263157894737,4,2,2,85,0,1
163164,-117.647058823529,4,2,2,70,0,0
164645,-117.647058823529,4,2,2,55,0,0
164831,-117.647058823529,4,2,2,59,0,0
165016,-117.647058823529,4,2,2,63,0,0
165201,-117.647058823529,4,2,2,67,0,0
165386,-117.647058823529,4,2,2,71,0,0
165571,-117.647058823529,4,2,2,75,0,0
165757,-117.647058823529,4,2,2,79,0,0
165942,-117.647058823529,4,2,2,83,0,0
166127,-105.263157894737,4,2,2,85,0,1
177609,-105.263157894737,4,2,2,85,0,0
177979,-105.263157894737,4,2,2,85,0,1
183905,-125,4,2,1,70,0,0

[Colours]
Combo1 : 255,159,64
Combo2 : 0,255,0
Combo3 : 128,255,255
Combo4 : 255,128,255

[HitObjects]
99,342,12796,6,0,P|103:315|109:288,1,56,2|2,2:2|2:2,0:0:0:0:
36,232,13166,2,0,P|31:204|25:177,1,56,2|2,2:2|2:2,0:0:0:0:
86,93,13536,6,0,B|151:78|138:124|198:111,1,112,4|2,0:3|2:2,0:0:0:0:
353,20,14277,2,0,L|407:30,1,56,2|2,2:2|2:2,0:0:0:0:
477,88,14647,1,2,2:2:0:0:
418,160,14833,1,4,0:3:0:0:
418,160,15018,6,0,P|453:201|450:255,1,112,4|2,0:3|2:2,0:0:0:0:
315,364,15759,2,0,L|260:353,1,56,2|2,2:2|2:2,0:0:0:0:
192,295,16129,1,2,2:2:0:0:
118,340,16314,1,2,2:2:0:0:
47,281,16499,6,0,P|41:226|65:176,1,112,4|2,0:3|2:2,0:0:0:0:
135,119,17055,1,2,2:2:0:0:
67,70,17240,2,0,P|39:75|12:82,2,56,2|2|2,2:2|2:2|2:2,0:0:0:0:
132,0,17796,1,4,0:3:0:0:
132,0,17981,6,0,P|186:13|241:24,1,112,4|0,0:3|0:0,0:0:0:0:
404,0,18722,2,0,L|458:12,1,56,2|2,2:2|2:2,0:0:0:0:
512,87,19092,2,0,L|499:141,1,56,2|2,2:2|2:2,0:0:0:0:
423,207,19462,6,0,P|377:175|322:179,1,112,4|2,0:3|2:2,0:0:0:0:
171,264,20203,2,0,L|183:318,1,56,2|2,2:2|2:2,0:0:0:0:
253,379,20573,1,2,2:2:0:0:
323,314,20759,1,4,0:3:0:0:
323,314,20944,6,0,P|378:324|432:338,1,112,4|2,0:3|2:2,0:0:0:0:
475,164,21684,2,0,L|420:151,1,56,2|2,2:2|2:2,0:0:0:0:
341,187,22055,1,2,2:2:0:0:
282,120,22240,1,2,2:2:0:0:
202,166,22425,6,0,P|230:118|224:63,1,112,4|2,0:3|2:2,0:0:0:0:
57,78,23166,2,0,L|110:93,2,56,2|2|2,2:2|2:2|2:2,0:0:0:0:
0,148,23722,1,4,0:3:0:0:
0,148,23907,6,0,L|24:257,1,112,4|0,0:3|0:0,0:0:0:0:
157,359,24647,2,0,B|193:338|193:338|234:342,1,84,8|0,2:2|0:0,0:0:0:0:
258,354,25018,1,2,3:2:0:0:
337,306,25203,1,2,3:2:0:0:
418,366,25388,6,0,L|437:248,1,119.000002269745,4|10,1:3|2:2,0:0:0:0:
498,178,25944,1,0,0:0:0:0:
433,113,26129,2,0,P|450:89|475:73,2,59.5000011348725,2|2|10,2:2|1:2|2:2,0:0:0:0:
352,173,26684,1,4,0:3:0:0:
352,173,26870,6,0,P|325:159|296:157,1,59.5000011348725,4|2,1:3|2:2,0:0:0:0:
227,96,27240,2,0,P|200:109|171:111,1,59.5000011348725,10|2,2:2|2:2,0:0:0:0:
74,94,27610,2,0,P|86:152|97:210,1,119.000002269745,2|8,2:2|2:2,0:0:0:0:
203,348,28351,6,0,P|255:325|265:268,1,119.000002269745,4|8,1:3|2:2,0:0:0:0:
221,187,28907,1,2,2:2:0:0:
291,123,29092,2,0,L|348:136,1,59.5000011348725,2|2,2:2|1:2,0:0:0:0:
415,196,29462,1,10,2:2:0:0:
490,133,29647,1,4,0:3:0:0:
490,133,29833,6,0,L|476:75,1,59.5000011348725,4|2,1:3|2:2,0:0:0:0:
397,17,30203,2,0,B|331:41|344:-2|280:15,1,119.000002269745,10|0,2:2|0:0,0:0:0:0:
153,130,30944,2,0,L|95:116,1,59.5000011348725,10|2,2:2|2:2,0:0:0:0:
23,45,31314,6,0,P|-7:94|0:152,1,119.000002269745,4|10,1:3|2:2,0:0:0:0:
56,234,31870,1,0,0:0:0:0:
56,234,32055,2,0,L|171:206,1,119.000002269745,2|10,2:2|2:2,0:0:0:0:
252,145,32610,1,4,0:3:0:0:
252,145,32796,6,0,P|281:150|310:157,1,59.5000011348725,4|2,1:3|2:2,0:0:0:0:
375,223,33166,1,10,2:2:0:0:
324,300,33351,1,2,2:2:0:0:
394,364,33536,2,0,P|451:363|490:319,1,119.000002269745,2|8,2:2|2:2,0:0:0:0:
425,130,34277,6,0,L|309:157,1,119.000002269745,4|10,1:3|2:2,0:0:0:0:
175,266,35018,2,0,P|187:293|191:322,2,59.5000011348725,2|2|10,2:2|1:2|2:2,0:0:0:0:
101,211,35573,1,4,0:3:0:0:
101,211,35759,6,0,P|109:183|114:153,1,59.5000011348725,4|0,1:3|0:0,0:0:0:0:
71,75,36129,2,0,B|112:64|112:64|146:69|146:69|186:58,1,119.000002269745,10|0,2:2|0:0,0:0:0:0:
264,14,36684,1,0,1:1:0:0:
264,14,36870,1,8,2:2:0:0:
406,132,37240,6,0,L|466:114,2,59.5000011348725,4|2|2,0:3|2:2|2:2,0:0:0:0:
350,213,37796,1,2,2:2:0:0:
350,213,37981,2,0,L|289:195,2,59.5000011348725,2|2|2,2:2|2:2|2:2,0:0:0:0:
413,296,38536,1,2,2:2:0:0:
413,296,38722,6,0,P|360:334|295:328,1,132.999996448517,4|0,1:2|1:1,0:0:0:0:
224,263,39277,1,0,0:0:0:0:
149,323,39462,2,0,L|84:306,1,66.4999982242585,2|2,1:2|2:2,0:0:0:0:
20,230,39833,2,0,L|39:164,1,66.4999982242585,2|0,1:2|0:0,0:0:0:0:
113,105,40203,5,2,1:2:0:0:
113,105,40388,1,2,2:2:0:0:
194,157,40573,2,0,P|226:155|254:137,1,66.4999982242585,2|2,1:2|2:2,0:0:0:0:
314,61,40944,1,2,1:2:0:0:
314,61,41129,1,0,0:0:0:0:
396,112,41314,2,0,P|423:94|456:92,1,66.4999982242585,2|0,1:2|0:0,0:0:0:0:
512,171,41684,6,0,L|493:234,1,66.4999982242585,0|0,1:1|0:0,0:0:0:0:
419,297,42055,1,10,2:2:0:0:
341,241,42240,1,2,2:2:0:0:
284,323,42425,2,0,P|251:313|219:305,1,66.4999982242585,2|0,1:2|0:0,0:0:0:0:
126,330,42796,2,0,P|101:308|91:277,1,66.4999982242585,10|0,2:2|0:0,0:0:0:0:
138,193,43166,5,2,1:2:0:0:
138,193,43351,1,2,2:2:0:0:
62,129,43536,2,0,P|69:96|79:64,1,66.4999982242585,10|2,2:2|2:2,0:0:0:0:
163,16,43907,2,0,P|206:63|270:58,1,132.999996448517,2|8,1:2|2:2,0:0:0:0:
353,3,44462,1,2,0:0:0:0:
353,3,44555,1,2,0:0:0:0:
353,3,44647,6,0,B|369:47|369:47|359:81|359:81|377:139,1,132.999996448517,4|8,1:2|2:2,0:0:0:0:
452,188,45203,1,0,0:0:0:0:
420,279,45388,2,0,L|356:293,1,66.4999982242585,2|2,1:2|2:2,0:0:0:0:
270,247,45759,1,10,2:2:0:0:
270,247,45944,1,0,0:0:0:0:
202,320,46129,6,0,P|208:352|216:384,2,66.4999982242585,2|2|10,1:2|2:2|2:2,0:0:0:0:
133,253,46684,1,2,2:2:0:0:
194,178,46870,2,0,L|179:113,1,66.4999982242585,2|0,1:2|0:0,0:0:0:0:
113,44,47240,2,0,P|156:20|205:20,1,99.7499973363877,10|0,2:2|0:0,0:0:0:0:
231,33,47610,5,4,1:3:0:0:
309,1,47796,1,0,0:0:0:0:
365,66,47981,2,0,P|354:91|346:118,1,56,10|2,2:2|2:2,0:0:0:0:
282,176,48351,2,0,P|270:229|304:271,1,112,2|10,2:2|2:2,0:0:0:0:
359,343,48907,1,4,0:3:0:0:
359,343,49092,6,0,B|303:353|303:353|299:350|299:350|239:362,1,112,4|8,1:3|2:2,0:0:0:0:
94,315,49833,2,0,L|77:368,2,56,2|2|10,2:2|1:2|2:2,0:0:0:0:
168,255,50388,1,2,2:2:0:0:
168,255,50481,1,0,0:0:0:0:
168,255,50573,6,0,P|177:191|132:145,1,132.999996448517,4|8,1:2|2:2,0:0:0:0:
49,96,51129,1,0,0:0:0:0:
112,19,51314,2,0,B|145:18|145:18|174:35,1,66.4999982242585,2|2,1:2|2:2,0:0:0:0:
248,96,51684,2,0,B|281:98|281:98|310:83,1,66.4999982242585,10|0,2:2|0:0,0:0:0:0:
381,16,52055,5,2,1:2:0:0:
381,16,52240,1,2,2:2:0:0:
457,80,52425,2,0,L|442:145,1,66.4999982242585,10|2,2:2|2:2,0:0:0:0:
366,205,52796,1,2,1:2:0:0:
366,205,52981,1,0,0:0:0:0:
445,271,53166,2,0,L|430:336,1,66.4999982242585,10|0,2:2|0:0,0:0:0:0:
346,383,53536,6,0,P|318:365|285:360,1,66.4999982242585,0|0,1:1|0:0,0:0:0:0:
192,384,53907,1,10,2:2:0:0:
143,301,54092,1,2,2:2:0:0:
209,226,54277,2,0,P|201:193|192:161,1,66.4999982242585,2|0,1:2|0:0,0:0:0:0:
111,111,54647,2,0,P|118:78|126:46,1,66.4999982242585,10|0,2:2|0:0,0:0:0:0:
211,0,55018,5,2,1:2:0:0:
211,0,55203,1,2,2:2:0:0:
286,66,55388,2,0,P|318:58|350:50,1,66.4999982242585,10|2,2:2|2:2,0:0:0:0:
435,3,55759,2,0,P|491:31|500:94,1,132.999996448517,2|8,1:2|2:2,0:0:0:0:
458,186,56314,1,2,0:0:0:0:
458,186,56407,1,2,0:0:0:0:
458,186,56499,6,0,P|394:167|329:152,1,132.999996448517,4|8,1:2|2:2,0:0:0:0:
286,66,57055,1,0,0:0:0:0:
196,100,57240,2,0,P|186:131|178:164,1,66.4999982242585,2|2,1:2|2:2,0:0:0:0:
224,249,57610,1,10,2:2:0:0:
224,249,57796,1,0,0:0:0:0:
147,312,57981,6,0,P|121:293|89:287,2,66.4999982242585,2|2|10,1:2|2:2|2:2,0:0:0:0:
218,379,58536,1,2,2:2:0:0:
294,319,58722,2,0,L|358:334,1,66.4999982242585,2|0,1:2|0:0,0:0:0:0:
456,356,59092,2,0,P|432:312|438:264,1,99.7499973363877,10|0,2:2|0:0,0:0:0:0:
455,241,59462,5,4,1:3:0:0:
410,170,59647,1,0,0:0:0:0:
481,119,59833,2,0,L|468:61,1,56,8|0,2:2|0:0,0:0:0:0:
400,17,60203,2,0,P|372:17|346:28,1,56,0|0,0:0|1:1,0:0:0:0:
298,97,60573,1,8,2:2:0:0:
229,35,60759,1,4,0:3:0:0:
229,35,60944,6,0,B|186:44|186:44|164:34|164:34|118:44,1,112,4|8,1:3|2:2,0:0:0:0:
62,103,61499,1,0,0:0:0:0:
116,171,61684,2,0,P|86:216|93:271,1,112,2|10,2:2|2:2,0:0:0:0:
167,323,62240,1,0,0:0:0:0:
167,323,62425,5,4,0:3:0:0:
350,320,67610,6,0,L|404:334,1,56,2|2,2:2|2:2,0:0:0:0:
431,242,67981,2,0,L|376:227,1,56,2|2,2:2|2:2,0:0:0:0:
275,249,68351,6,0,B|212:238|246:205|180:196,1,112,4|2,0:3|2:2,0:0:0:0:
10,250,69092,2,0,P|6:222|0:195,1,56,2|2,2:2|2:2,0:0:0:0:
42,113,69462,1,2,2:2:0:0:
129,135,69647,1,4,0:3:0:0:
129,135,69833,6,0,L|238:113,1,112,4|2,0:3|2:2,0:0:0:0:
310,55,70388,1,2,2:2:0:0:
384,105,70573,2,0,P|376:131|371:159,1,56,2|2,2:2|2:2,0:0:0:0:
306,222,70944,1,2,2:2:0:0:
360,297,71129,1,2,2:2:0:0:
290,357,71314,6,0,P|236:340|181:329,1,112,4|2,0:3|2:2,0:0:0:0:
117,267,71870,1,2,2:2:0:0:
40,313,72055,2,0,P|43:340|51:367,2,56,2|2|2,2:2|2:2|2:2,0:0:0:0:
0,227,72610,1,4,0:3:0:0:
0,227,72796,6,0,L|27:118,1,112,4|0,0:3|0:0,0:0:0:0:
176,41,73536,2,0,P|203:45|230:53,1,56,2|2,2:2|2:2,0:0:0:0:
286,121,73907,2,0,P|313:116|340:109,1,56,2|2,2:2|2:2,0:0:0:0:
402,36,74277,6,0,B|434:80|434:80|431:136,1,112,4|2,0:3|2:2,0:0:0:0:
338,270,75018,2,0,P|311:262|284:258,1,56,2|2,2:2|2:2,0:0:0:0:
213,203,75388,1,2,2:2:0:0:
153,273,75573,1,4,0:3:0:0:
153,273,75759,6,0,P|98:276|55:243,1,112,4|2,0:3|2:2,0:0:0:0:
26,77,76499,2,0,P|52:68|80:63,1,56,2|2,2:2|2:2,0:0:0:0:
161,103,76870,1,2,2:2:0:0:
216,29,77055,1,2,2:2:0:0:
294,83,77240,6,0,B|358:86|330:46|398:47,1,112,4|2,0:3|2:2,0:0:0:0:
500,180,77981,2,0,P|507:207|511:234,2,56,2|2|2,2:2|2:2|2:2,0:0:0:0:
411,170,78536,1,4,0:3:0:0:
411,170,78722,6,0,P|369:205|314:201,1,112,4|0,0:3|0:0,0:0:0:0:
200,79,79462,2,0,L|117:96,1,84,8|0,2:2|0:0,0:0:0:0:
93,103,79833,1,2,3:2:0:0:
8,75,80018,1,2,3:2:0:0:
21,175,80203,6,0,P|37:232|52:289,1,119.000002269745,4|10,1:3|2:2,0:0:0:0:
130,335,80759,1,0,0:0:0:0:
193,268,80944,2,0,L|181:209,2,59.5000011348725,2|2|10,2:2|1:2|2:2,0:0:0:0:
271,332,81499,1,4,0:3:0:0:
271,332,81684,6,0,P|298:319|326:316,1,59.5000011348725,4|2,1:3|2:2,0:0:0:0:
408,355,82055,2,0,L|420:296,1,59.5000011348725,10|2,2:2|2:2,0:0:0:0:
481,228,82425,2,0,L|457:111,1,119.000002269745,2|8,2:2|2:2,0:0:0:0:
320,17,83166,6,0,P|275:54|217:50,1,119.000002269745,4|8,1:3|2:2,0:0:0:0:
140,5,83722,1,2,2:2:0:0:
89,78,83907,2,0,P|97:106|104:135,1,59.5000011348725,2|2,2:2|1:2,0:0:0:0:
175,194,84277,1,10,2:2:0:0:
140,276,84462,1,4,0:3:0:0:
140,276,84647,6,0,P|112:282|83:290,1,59.5000011348725,4|2,1:3|2:2,0:0:0:0:
175,194,85018,2,0,P|233:206|290:222,1,119.000002269745,10|0,2:2|0:0,0:0:0:0:
420,337,85759,2,0,P|448:330|477:322,1,59.5000011348725,10|2,2:2|2:2,0:0:0:0:
512,230,86129,6,0,B|481:169|460:214|428:147,1,119.000002269745,4|10,1:3|2:2,0:0:0:0:
354,92,86684,1,0,0:0:0:0:
354,92,86870,2,0,P|308:127|251:120,1,119.000002269745,2|10,2:2|2:2,0:0:0:0:
178,55,87425,1,4,0:3:0:0:
178,55,87610,6,0,L|120:71,1,59.5000011348725,4|2,1:3|2:2,0:0:0:0:
64,140,87981,1,10,2:2:0:0:
120,213,88166,1,2,2:2:0:0:
56,283,88351,2,0,P|43:339|82:381,1,119.000002269745,2|8,2:2|2:2,0:0:0:0:
222,235,89092,6,0,P|279:249|337:264,1,119.000002269745,4|10,1:3|2:2,0:0:0:0:
504,278,89833,2,0,P|503:307|492:335,2,59.5000011348725,2|2|10,2:2|1:2|2:2,0:0:0:0:
445,200,90388,1,4,0:3:0:0:
445,200,90573,6,0,P|452:171|459:142,1,59.5000011348725,4|0,1:3|0:0,0:0:0:0:
512,66,90944,2,0,P|456:49|401:69,1,119.000002269745,10|0,2:2|0:0,0:0:0:0:
354,149,91499,1,0,1:1:0:0:
354,149,91684,1,8,2:2:0:0:
189,67,92055,6,0,L|204:9,2,59.5000011348725,4|2|2,0:3|2:2|2:2,0:0:0:0:
114,125,92610,1,2,2:2:0:0:
114,125,92796,2,0,P|89:108|60:102,2,59.5000011348725,2|2|2,2:2|2:2|2:2,0:0:0:0:
185,201,93351,1,2,2:2:0:0:
185,201,93536,6,0,B|232:189|232:189|256:197|256:197|319:182,1,132.999996448517,4|0,1:2|1:1,0:0:0:0:
390,124,94092,1,0,0:0:0:0:
476,161,94277,2,0,P|478:193|466:224,1,66.4999982242585,2|2,1:2|2:2,0:0:0:0:
405,299,94647,2,0,P|372:290|340:282,1,66.4999982242585,2|0,1:2|0:0,0:0:0:0:
266,215,95018,5,2,1:2:0:0:
266,215,95203,1,2,2:2:0:0:
206,290,95388,2,0,P|177:273|144:270,1,66.4999982242585,2|2,1:2|2:2,0:0:0:0:
67,329,95759,1,2,1:2:0:0:
67,329,95944,1,0,0:0:0:0:
1,254,96129,2,0,P|8:221|17:189,1,66.4999982242585,2|0,1:2|0:0,0:0:0:0:
87,128,96499,6,0,P|116:142|149:145,1,66.4999982242585,0|0,1:1|0:0,0:0:0:0:
222,81,96870,1,10,2:2:0:0:
307,126,97055,1,2,2:2:0:0:
365,45,97240,2,0,P|398:53|430:61,1,66.4999982242585,2|0,1:2|0:0,0:0:0:0:
490,137,97610,2,0,P|491:169|475:199,1,66.4999982242585,10|0,2:2|0:0,0:0:0:0:
403,263,97981,5,2,1:2:0:0:
403,263,98166,1,2,2:2:0:0:
320,208,98351,2,0,P|287:216|255:224,1,66.4999982242585,10|2,2:2|2:2,0:0:0:0:
188,294,98722,2,0,P|125:274|60:258,1,132.999996448517,2|8,1:2|2:2,0:0:0:0:
8,173,99277,1,2,0:0:0:0:
8,173,99370,1,2,0:0:0:0:
8,173,99462,6,0,P|17:110|78:94,1,132.999996448517,4|8,1:2|2:2,0:0:0:0:
160,146,100018,1,0,0:0:0:0:
225,75,100203,2,0,P|257:82|288:94,1,66.4999982242585,2|2,1:2|2:2,0:0:0:0:
356,167,100573,1,10,2:2:0:0:
356,167,100759,1,0,0:0:0:0:
437,109,100944,6,0,P|429:76|417:45,2,66.4999982242585,2|2|10,1:2|2:2|2:2,0:0:0:0:
509,173,101499,1,2,2:2:0:0:
468,260,101684,2,0,L|406:282,1,66.4999982242585,2|0,1:2|0:0,0:0:0:0:
316,237,102055,2,0,P|267:234|231:266,1,99.7499973363877,10|0,2:2|0:0,0:0:0:0:
218,291,102425,5,4,1:3:0:0:
142,257,102610,1,0,0:0:0:0:
81,319,102796,2,0,L|95:373,1,56,10|2,2:2|2:2,0:0:0:0:
142,257,103166,2,0,L|113:148,1,112,2|10,2:2|2:2,0:0:0:0:
57,75,103722,1,4,0:3:0:0:
57,75,103907,6,0,L|165:46,1,112,4|8,1:3|2:2,0:0:0:0:
322,107,104647,2,0,P|310:132|309:160,2,56,2|2|10,2:2|1:2|2:2,0:0:0:0:
401,53,105203,1,2,2:2:0:0:
401,53,105296,1,0,0:0:0:0:
401,53,105388,6,0,P|463:62|490:121,1,132.999996448517,4|8,1:2|2:2,0:0:0:0:
434,200,105944,1,0,0:0:0:0:
478,286,106129,2,0,P|479:318|462:346,1,66.4999982242585,2|2,1:2|2:2,0:0:0:0:
373,383,106499,2,0,P|341:374|308:366,1,66.4999982242585,10|0,2:2|0:0,0:0:0:0:
239,294,106870,5,2,1:2:0:0:
239,294,107055,1,2,2:2:0:0:
305,224,107240,2,0,P|306:191|289:163,1,66.4999982242585,10|2,2:2|2:2,0:0:0:0:
206,115,107610,1,2,1:2:0:0:
206,115,107796,1,0,0:0:0:0:
111,144,107981,2,0,P|78:136|46:126,1,66.4999982242585,10|0,2:2|0:0,0:0:0:0:
71,30,108351,6,0,P|102:39|135:47,1,66.4999982242585,0|0,1:1|0:0,0:0:0:0:
206,115,108722,1,10,2:2:0:0:
269,42,108907,1,2,2:2:0:0:
354,88,109092,2,0,P|383:72|416:69,1,66.4999982242585,2|0,1:2|0:0,0:0:0:0:
498,126,109462,2,0,P|488:158|480:190,1,66.4999982242585,10|0,2:2|0:0,0:0:0:0:
404,249,109833,5,2,1:2:0:0:
404,249,110018,1,2,2:2:0:0:
334,183,110203,2,0,P|301:191|269:200,1,66.4999982242585,10|2,2:2|2:2,0:0:0:0:
198,264,110573,2,0,B|125:247|175:205|95:186,1,132.999996448517,2|8,1:2|2:2,0:0:0:0:
0,209,111129,1,2,0:0:0:0:
0,209,111222,1,2,0:0:0:0:
0,209,111314,6,0,P|15:144|33:80,1,132.999996448517,4|8,1:2|2:2,0:0:0:0:
114,26,111870,1,0,0:0:0:0:
176,100,112055,2,0,P|207:89|240:87,1,66.4999982242585,2|2,1:2|2:2,0:0:0:0:
307,18,112425,1,10,2:2:0:0:
307,18,112610,1,0,0:0:0:0:
397,62,112796,6,0,B|425:45|425:45|458:44,2,66.4999982242585,2|2|10,1:2|2:2|2:2,0:0:0:0:
345,143,113351,1,2,2:2:0:0:
412,212,113536,2,0,L|396:276,1,66.4999982242585,2|0,1:2|0:0,0:0:0:0:
319,341,113907,2,0,P|270:345|229:318,1,99.7499973363877,10|0,2:2|0:0,0:0:0:0:
215,294,114277,5,4,0:3:0:0:
299,52,115573,1,4,0:3:0:0:
299,52,115759,5,4,0:3:0:0:
101,178,116499,2,0,L|46:163,1,56,2|2,2:2|2:2,0:0:0:0:
23,245,116870,2,0,L|77:259,1,56,2|2,2:2|2:2,0:0:0:0:
139,320,117240,5,4,0:3:0:0:
139,320,128351,6,0,P|157:285|154:246,1,78.7500030040742,8|0,2:2|0:0,0:0:0:0:
142,226,128722,1,2,3:2:0:0:
80,162,128907,1,2,3:2:0:0:
132,76,129092,6,0,P|190:92|248:103,1,119.000002269745,4|10,1:3|2:2,0:0:0:0:
322,51,129647,1,0,0:0:0:0:
403,89,129833,6,0,P|410:60|416:31,2,59.5000011348725,2|2|10,2:2|1:2|2:2,0:0:0:0:
336,165,130388,1,4,0:3:0:0:
336,165,130573,6,0,L|350:222,1,59.5000011348725,4|2,1:3|2:2,0:0:0:0:
417,283,130944,2,0,L|404:340,1,59.5000011348725,10|2,2:2|2:2,0:0:0:0:
322,384,131314,2,0,B|301:382|279:375|279:375|258:355|258:355|236:346|209:344,1,119.000002269745,2|8,2:2|2:2,0:0:0:0:
37,372,132055,6,0,P|49:313|64:256,1,119.000002269745,4|8,1:3|2:2,0:0:0:0:
133,200,132610,1,2,2:2:0:0:
203,261,132796,2,0,P|232:253|261:245,1,59.5000011348725,2|2,2:2|1:2,0:0:0:0:
327,182,133166,1,10,2:2:0:0:
395,253,133351,1,4,0:3:0:0:
395,253,133536,6,0,P|421:266|450:269,1,59.5000011348725,4|2,1:3|2:2,0:0:0:0:
512,204,133907,2,0,P|522:146|492:97,1,119.000002269745,10|0,2:2|0:0,0:0:0:0:
327,187,134647,2,0,P|299:179|269:173,1,59.5000011348725,10|2,2:2|2:2,0:0:0:0:
199,108,135018,6,0,P|141:102|96:139,1,119.000002269745,4|10,1:3|2:2,0:0:0:0:
39,211,135573,1,0,0:0:0:0:
39,211,135759,2,0,P|57:268|71:325,1,119.000002269745,2|10,2:2|2:2,0:0:0:0:
159,369,136314,1,4,0:3:0:0:
159,369,136499,6,0,L|216:352,1,59.5000011348725,4|2,1:3|2:2,0:0:0:0:
270,277,136870,1,10,2:2:0:0:
207,214,137055,1,2,2:2:0:0:
262,144,137240,2,0,B|303:157|303:157|319:187|319:187|362:201,1,119.000002269745,2|8,2:2|2:2,0:0:0:0:
508,73,137981,6,0,P|491:18|436:5,1,119.000002269745,4|10,1:3|2:2,0:0:0:0:
276,68,138722,2,0,L|218:51,2,59.5000011348725,2|2|10,2:2|1:2|2:2,0:0:0:0:
331,149,139277,1,4,0:3:0:0:
331,149,139462,6,0,P|330:178|316:204,1,59.5000011348725,4|2,1:3|2:2,0:0:0:0:
242,259,139833,2,0,L|127:224,1,119.000002269745,10|0,2:2|0:0,0:0:0:0:
74,154,140388,1,0,1:1:0:0:
74,154,140573,2,0,P|75:124|89:98,1,59.5000011348725,10|2,2:2|2:2,0:0:0:0:
173,51,140944,5,4,0:3:0:0:
173,51,142424,6,0,P|220:95|284:91,1,132.999996448517,4|0,1:2|1:1,0:0:0:0:
359,29,142979,1,0,0:0:0:0:
447,76,143164,2,0,P|450:108|435:137,1,66.4999982242585,2|2,1:2|2:2,0:0:0:0:
345,169,143534,2,0,P|333:199|340:231,1,66.4999982242585,2|0,1:2|0:0,0:0:0:0:
414,294,143905,5,2,1:2:0:0:
414,294,144090,1,2,2:2:0:0:
347,363,144275,2,0,L|284:345,1,66.4999982242585,2|2,1:2|2:2,0:0:0:0:
229,265,144645,1,2,1:2:0:0:
229,265,144830,1,0,0:0:0:0:
154,331,145016,2,0,P|121:329|94:310,1,66.4999982242585,2|0,1:2|0:0,0:0:0:0:
29,239,145386,6,0,L|48:175,1,66.4999982242585,0|0,1:1|0:0,0:0:0:0:
124,115,145757,1,10,2:2:0:0:
203,170,145942,1,2,2:2:0:0:
265,92,146127,2,0,L|329:110,1,66.4999982242585,2|0,1:2|0:0,0:0:0:0:
421,138,146497,2,0,P|446:116|458:85,1,66.4999982242585,10|0,2:2|0:0,0:0:0:0:
403,6,146868,5,2,1:2:0:0:
403,6,147053,1,2,2:2:0:0:
311,45,147238,2,0,L|329:109,1,66.4999982242585,10|2,2:2|2:2,0:0:0:0:
376,197,147608,2,0,B|363:248|363:248|373:276|373:276|362:330,1,132.999996448517,2|8,1:2|2:2,0:0:0:0:
273,376,148164,1,2,0:0:0:0:
273,376,148257,1,2,0:0:0:0:
273,376,148349,6,0,P|215:348|210:284,1,132.999996448517,4|8,1:2|2:2,0:0:0:0:
271,209,148905,1,0,0:0:0:0:
203,141,149090,2,0,P|201:108|218:79,1,66.4999982242585,2|2,1:2|2:2,0:0:0:0:
303,34,149460,1,10,2:2:0:0:
303,34,149645,1,0,0:0:0:0:
381,97,149831,6,0,P|413:86|445:78,2,66.4999982242585,2|2|10,1:2|2:2|2:2,0:0:0:0:
340,184,150386,1,2,2:2:0:0:
418,241,150571,2,0,P|407:273|399:305,1,66.4999982242585,2|0,1:2|0:0,0:0:0:0:
316,360,150942,2,0,B|258:347|286:322|230:309,1,99.7499973363877,10|0,2:2|0:0,0:0:0:0:
205,315,151312,5,4,1:3:0:0:
144,257,151498,1,0,0:0:0:0:
182,178,151682,2,0,P|208:170|236:165,1,56,10|2,2:2|2:2,0:0:0:0:
213,81,152053,2,0,P|158:91|104:107,1,112,2|10,2:2|2:2,0:0:0:0:
33,166,152608,1,4,0:3:0:0:
33,166,152794,6,0,P|62:211|55:266,1,112,4|8,1:3|2:2,0:0:0:0:
205,330,153535,2,0,P|197:357|191:384,2,56,2|2|10,2:2|1:2|2:2,0:0:0:0:
282,273,154091,1,2,2:2:0:0:
282,273,154183,1,0,0:0:0:0:
282,273,154275,6,0,P|266:208|249:144,1,132.999996448517,4|8,1:2|2:2,0:0:0:0:
181,76,154831,1,0,0:0:0:0:
243,2,155016,2,0,P|275:1|305:14,1,66.4999982242585,2|2,1:2|2:2,0:0:0:0:
402,13,155386,2,0,P|416:42|416:75,1,66.4999982242585,10|0,2:2|0:0,0:0:0:0:
363,156,155757,5,2,1:2:0:0:
363,156,155942,1,2,2:2:0:0:
274,111,156127,2,0,P|241:113|212:130,1,66.4999982242585,10|2,2:2|2:2,0:0:0:0:
159,210,156497,1,2,1:2:0:0:
159,210,156682,1,0,0:0:0:0:
75,156,156868,2,0,P|82:123|92:92,1,66.4999982242585,10|0,2:2|0:0,0:0:0:0:
157,20,157238,6,0,P|187:35|220:36,1,66.4999982242585,0|0,1:1|0:0,0:0:0:0:
309,0,157608,1,10,2:2:0:0:
352,87,157794,1,2,2:2:0:0:
263,123,157979,2,0,P|272:155|281:187,1,66.4999982242585,2|0,1:2|0:0,0:0:0:0:
368,235,158349,2,0,P|357:266|349:298,1,66.4999982242585,10|0,2:2|0:0,0:0:0:0:
268,352,158720,5,2,1:2:0:0:
268,352,158905,1,2,2:2:0:0:
196,283,159090,2,0,P|163:291|132:301,1,66.4999982242585,10|2,2:2|2:2,0:0:0:0:
35,325,159460,2,0,P|63:266|54:201,1,132.999996448517,2|8,1:2|2:2,0:0:0:0:
0,117,160016,1,2,0:0:0:0:
0,117,160108,1,2,0:0:0:0:
0,117,160201,6,0,L|128:84,1,132.999996448517,4|8,1:2|2:2,0:0:0:0:
201,19,160757,1,0,0:0:0:0:
277,78,160942,2,0,L|263:144,1,66.4999982242585,2|2,1:2|2:2,0:0:0:0:
194,215,161312,1,10,2:2:0:0:
194,215,161497,1,0,0:0:0:0:
262,283,161682,6,0,P|288:263|321:257,2,66.4999982242585,2|2|10,1:2|2:2|2:2,0:0:0:0:
203,360,162238,1,2,2:2:0:0:
131,296,162423,2,0,L|65:312,1,66.4999982242585,2|0,1:2|0:0,0:0:0:0:
0,237,162794,2,0,P|31:199|29:150,1,99.7499973363877,10|0,2:2|0:0,0:0:0:0:
15,127,163164,5,4,1:2:0:0:
410,316,164646,2,0,L|398:374,1,59.5000011348725,0|0,3:3|3:3,0:0:0:0:
308,356,165016,2,0,L|319:297,1,59.5000011348725,2|0,3:2|3:3,0:0:0:0:
381,225,165386,1,10,2:2:0:0:
381,225,165572,1,8,2:2:0:0:
316,147,165757,1,10,2:2:0:0:
316,147,165942,1,8,2:2:0:0:
231,216,166127,6,0,P|166:224|115:185,1,132.999996448517,4|8,1:2|2:2,0:0:0:0:
72,99,166682,1,0,0:0:0:0:
129,21,166868,2,0,P|161:27|193:37,1,66.4999982242585,2|2,1:2|2:2,0:0:0:0:
283,72,167238,2,0,P|315:65|347:55,1,66.4999982242585,10|0,2:2|0:0,0:0:0:0:
426,0,167608,5,2,1:2:0:0:
426,0,167794,1,2,2:2:0:0:
488,78,167979,2,0,P|478:109|470:142,1,66.4999982242585,10|2,2:2|2:2,0:0:0:0:
398,206,168349,1,2,1:2:0:0:
398,206,168534,1,0,0:0:0:0:
312,154,168720,2,0,P|279:156|249:170,1,66.4999982242585,10|0,2:2|0:0,0:0:0:0:
176,238,169090,6,0,L|193:302,1,66.4999982242585,0|0,1:1|0:0,0:0:0:0:
270,360,169460,1,10,2:2:0:0:
342,296,169645,1,2,2:2:0:0:
433,329,169831,2,0,P|465:320|497:315,1,66.4999982242585,2|0,1:2|0:0,0:0:0:0:
479,217,170201,2,0,P|446:221|414:230,1,66.4999982242585,10|0,2:2|0:0,0:0:0:0:
342,296,170571,5,2,1:2:0:0:
342,296,170757,1,2,2:2:0:0:
265,238,170942,2,0,P|269:205|278:173,1,66.4999982242585,10|2,2:2|2:2,0:0:0:0:
351,110,171312,2,0,P|377:129|410:133,2,66.4999982242585,2|2|10,1:2|0:0|2:2,0:0:0:0:
289,27,171868,1,2,0:0:0:0:
289,27,171960,1,2,0:0:0:0:
289,27,172053,6,0,L|160:60,1,132.999996448517,4|8,1:2|2:2,0:0:0:0:
72,21,172608,1,0,0:0:0:0:
8,94,172794,2,0,P|18:126|26:158,1,66.4999982242585,2|2,1:2|2:2,0:0:0:0:
118,198,173164,1,10,2:2:0:0:
118,198,173349,1,0,0:0:0:0:
178,123,173534,6,0,L|160:59,2,66.4999982242585,2|2|10,1:2|2:2|2:2,0:0:0:0:
260,175,174090,1,2,2:2:0:0:
211,258,174275,2,0,P|202:289|209:322,1,66.4999982242585,2|0,1:2|0:0,0:0:0:0:
284,383,174645,2,0,P|316:374|348:366,1,66.4999982242585,10|0,2:2|0:0,0:0:0:0:
445,368,175016,6,0,P|430:338|431:305,1,66.4999982242585,0|0,1:1|0:0,0:0:0:0:
481,223,175386,1,10,2:2:0:0:
409,159,175571,1,2,2:2:0:0:
448,70,175757,2,0,P|480:78|512:87,1,66.4999982242585,2|0,1:2|0:0,0:0:0:0:
409,159,176127,2,0,P|376:149|344:141,1,66.4999982242585,10|0,2:2|0:0,0:0:0:0:
284,67,176497,5,2,1:2:0:0:
284,67,176682,1,2,2:2:0:0:
206,124,176868,1,10,2:2:0:0:
206,124,177053,1,2,2:2:0:0:
268,198,177238,2,0,P|273:262|231:312,1,132.999996448517,2|8,1:2|2:2,0:0:0:0:
149,374,177794,1,2,0:0:0:0:
149,374,177886,1,2,0:0:0:0:
149,374,177979,6,0,P|84:356|20:341,1,132.999996448517,4|8,1:2|2:2,0:0:0:0:
0,247,178534,1,0,0:0:0:0:
52,165,178720,2,0,P|84:173|116:182,1,66.4999982242585,2|2,1:2|2:2,0:0:0:0:
180,254,179090,2,0,P|212:246|244:237,1,66.4999982242585,10|0,2:2|0:0,0:0:0:0:
310,162,179460,5,2,1:2:0:0:
310,162,179645,1,2,2:2:0:0:
391,215,179831,2,0,P|381:247|373:279,1,66.4999982242585,10|2,2:2|2:2,0:0:0:0:
306,352,180201,1,2,1:2:0:0:
306,352,180386,1,0,0:0:0:0:
215,321,180571,2,0,P|182:329|150:338,1,66.4999982242585,10|0,2:2|0:0,0:0:0:0:
65,383,180942,6,0,P|56:350|47:318,1,66.4999982242585,0|0,1:1|0:0,0:0:0:0:
0,235,181312,1,10,2:2:0:0:
70,169,181497,1,2,2:2:0:0:
4,99,181682,2,0,P|0:66|15:36,1,66.4999982242585,2|0,1:2|0:0,0:0:0:0:
105,0,182053,2,0,L|168:19,1,66.4999982242585,10|0,2:2|0:0,0:0:0:0:
237,87,182423,5,2,1:2:0:0:
237,87,182608,1,2,2:2:0:0:
321,33,182794,2,0,P|350:18|383:18,1,66.4999982242585,10|2,2:2|2:2,0:0:0:0:
468,71,183164,2,0,P|450:136|434:200,1,132.999996448517,2|8,1:2|2:2,0:0:0:0:
355,266,183720,1,0,0:0:0:0:
355,266,183812,1,0,0:0:0:0:
355,266,183905,6,0,B|291:249|331:217|265:202,1,112,4|0,0:3|0:0,0:0:0:0:
183,231,184460,1,0,0:0:0:0:
183,231,184645,2,0,P|191:258|198:285,1,56,2|0,2:2|0:0,0:0:0:0:
265,349,185016,2,0,P|291:341|318:334,1,56,2|0,2:2|0:0,0:0:0:0:
389,283,185386,6,0,P|413:296|441:301,2,56,2|2|2,2:2|2:2|2:2,0:0:0:0:
348,203,185942,1,0,0:0:0:0:
348,203,186127,2,0,P|356:175|363:148,1,56,2|0,2:2|0:0,0:0:0:0:
428,92,186497,1,2,2:2:0:0:
