osu file format v14

[General]
AudioFilename: audio.mp3
AudioLeadIn: 0
PreviewTime: 155607
Countdown: 0
SampleSet: Soft
StackLeniency: 0.5
Mode: 0
LetterboxInBreaks: 0
WidescreenStoryboard: 1

[Editor]
Bookmarks: 33,11384,11587,11789,11992,12195,12397,12600,12803,13005,24357,24560,24762,24965,25168,25370,25573,25776,25978,30843,31046,31249,31451,31654,31857,32060,32262,32465,37330,37532,37735,37938,38141,38343,38546,38749,38951,50303,50505,50708,50911,51114,51316,51519,51722,51924,56789,56992,57195,57397,57600,57803,58005,58208,58411,63276,63478,63681,63884,64087,64289,64492,64695,64897,69762,69965,70168,70370,70573,70776,70978,71181,71384,76249,76451,76654,76857,77060,77262,77465,77668,77870,82735,82938,83141,83343,83546,83749,83951,84154,84357,89222,89424,89627,89830,90032,90235,90438,90641,90843,95708,95911,96114,96316,96519,96722,96924,97127,97330,102195,102397,102600,102803,103005,103208,103411,103614,103816,108681,108884,109087,109289,109492,109695,109897,110100,110303,115168,115370,115573,115776,115978,116181,116384,116587,116789,121654,121857,122060,122262,122465,122668,122870,123073,123276,128141,128343,128546,128749,128951,129154,129357,129560,129762,147600,147803,148005,148208,148411,148614,148816,149019,149222,154087,154289,154492,154695,154897,155100,155303,155505,155708,160573,160776,160978,161181,161384,161587,161789,161992,162195,167060,167262,167465,167668,167870,168073,168276,168478,168681,181654,186519,186722,186924,187127,187330,187532,187735,187938,188141,193005,193208,193411,193614,193816,194019,194222,194424,194627,199492,199695,199897,200100,200303,200505,200708,200911,201114,205978,206181,206384,206587,206789,206992,207195,207397,207600,220573
DistanceSpacing: 1.4
BeatDivisor: 4
GridSize: 32
TimelineZoom: 1.5

[Metadata]
Title:Delicate Weapon
TitleUnicode:Delicate Weapon
Artist:Grimes, Lizzy Wizzy
ArtistUnicode:Grimes, Lizzy Wizzy
Creator:Elinor
Version:Regret
Source:Cyberpunk 2077
Tags:eli [_eli_] pepekcz english pop female vocalist original soundtrack ost radio vol. 2 video game
BeatmapID:2788899
BeatmapSetID:1346710

[Difficulty]
HPDrainRate:5
CircleSize:4
OverallDifficulty:8
ApproachRate:8.8
SliderMultiplier:1.8
SliderTickRate:1

[Events]
//Background and Video events
0,0,"bg.jpg",0,0
//Break Periods
//Storyboard Layer 0 (Background)
//Storyboard Layer 1 (Fail)
//Storyboard Layer 2 (Pass)
//Storyboard Layer 3 (Foreground)
//Storyboard Layer 4 (Overlay)
//Storyboard Sound Samples

[TimingPoints]
33,405.405405405405,4,2,1,100,1,0
11384,-100,4,2,1,60,0,0
13005,-100,4,2,1,60,0,0
13310,-100,4,2,1,5,0,0
13411,-125,4,2,1,60,0,0
25978,-100,4,2,1,60,0,0
26282,-100,4,2,1,5,0,0
26384,-125,4,2,1,60,0,0
32060,-125,4,2,3,60,0,0
32465,-125,4,2,1,60,0,0
36012,-125,4,2,1,5,0,0
36114,-125,4,2,1,60,0,0
38951,-250,4,2,1,40,0,0
40573,-200,4,2,1,40,0,0
41992,-200,4,2,1,5,0,0
42195,-200,4,2,1,40,0,0
43005,-200,4,2,1,40,0,0
43816,-125,4,2,1,40,0,0
43918,-125,4,2,1,5,0,0
44019,-125,4,2,1,40,0,0
44526,-125,4,2,1,5,0,0
44627,-125,4,2,1,40,0,0
45337,-125,4,2,1,5,0,0
45438,-125,4,2,2,50,0,0
45742,-125,4,2,2,5,0,0
45843,-125,4,2,2,50,0,0
51823,-125,4,2,2,5,0,0
51924,-111.111111111111,4,2,2,60,0,0
52228,-111.111111111111,4,2,2,5,0,0
52330,-111.111111111111,4,2,2,60,0,0
58310,-111.111111111111,4,2,2,5,0,0
58411,-111.111111111111,4,2,2,70,0,0
58715,-111.111111111111,4,2,2,5,0,0
58816,-111.111111111111,4,2,2,70,0,0
60337,-111.111111111111,4,2,2,5,0,0
60438,-111.111111111111,4,2,2,70,0,0
61958,-111.111111111111,4,2,2,5,0,0
62060,-111.111111111111,4,2,2,70,0,0
63276,-111.111111111111,4,2,1,70,0,0
64492,-142.857142857143,4,2,3,80,0,0
64796,-142.857142857143,4,2,3,5,0,0
64897,-83.3333333333333,4,2,1,90,0,1
65201,-100,4,2,1,5,0,1
65303,-100,4,2,1,90,0,1
66823,-100,4,2,1,5,0,1
66924,-100,4,2,1,90,0,1
67228,-100,4,2,1,5,0,1
67330,-100,4,2,1,90,0,1
67634,-100,4,2,1,5,0,1
67735,-100,4,2,1,90,0,1
68445,-100,4,2,1,5,0,1
68546,-100,4,2,1,90,0,1
68850,-100,4,2,1,5,0,1
68951,-100,4,2,1,90,0,1
69255,-100,4,2,1,5,0,1
69357,-100,4,2,1,90,0,1
70978,-100,4,2,3,90,0,1
71384,-83.3333333333333,4,2,1,90,0,1
71688,-100,4,2,1,5,0,1
71789,-100,4,2,1,90,0,1
73310,-100,4,2,1,5,0,1
73411,-100,4,2,1,90,0,1
73715,-100,4,2,1,5,0,1
73816,-100,4,2,1,90,0,1
75337,-100,4,2,1,5,0,1
75438,-100,4,2,1,90,0,1
77465,-100,4,2,3,90,0,0
77870,-83.3333333333333,4,2,1,90,0,1
78174,-100,4,2,1,5,0,1
78276,-100,4,2,1,90,0,1
79796,-100,4,2,1,5,0,1
79897,-100,4,2,1,90,0,1
80201,-100,4,2,1,5,0,1
80303,-100,4,2,1,90,0,1
80810,-100,4,2,1,5,0,1
80911,-100,4,2,1,90,0,1
81418,-100,4,2,1,5,0,1
81519,-100,4,2,1,90,0,1
81823,-100,4,2,1,5,0,1
81924,-100,4,2,1,90,0,1
82228,-100,4,2,1,5,0,1
82330,-100,4,2,1,90,0,1
83951,-100,4,2,3,90,0,1
84357,-83.3333333333333,4,2,1,90,0,1
84661,-100,4,2,1,5,0,1
84762,-100,4,2,1,90,0,1
85674,-100,4,2,1,5,0,1
85776,-100,4,2,1,90,0,1
86688,-100,4,2,1,5,0,1
86789,-100,4,2,1,90,0,1
87296,-100,4,2,1,5,0,1
87397,-100,4,2,1,90,0,1
87904,-100,4,2,1,5,0,1
88005,-100,4,2,1,90,0,1
90438,-100,4,2,1,90,0,0
90843,-83.3333333333333,4,2,1,90,0,1
91147,-100,4,2,1,5,0,1
91249,-100,4,2,1,90,0,1
92972,-100,4,2,1,5,0,1
93073,-100,4,2,1,80,0,1
94087,-100,4,2,1,90,0,1
94391,-100,4,2,1,5,0,1
94492,-100,4,2,1,90,0,1
96823,-100,4,2,1,5,0,1
96924,-100,4,2,1,90,0,1
97634,-100,4,2,1,5,0,1
97735,-100,4,2,1,90,0,1
99458,-100,4,2,1,5,0,1
99560,-100,4,2,1,90,0,1
101080,-100,4,2,1,5,0,1
101181,-100,4,2,1,90,0,1
102093,-100,4,2,1,5,0,1
102195,-100,4,2,1,90,0,1
103816,-105.263157894737,4,2,1,80,0,0
104931,-105.263157894737,4,2,1,5,0,0
105032,-105.263157894737,4,2,1,80,0,0
105337,-105.263157894737,4,2,1,5,0,0
105438,-105.263157894737,4,2,1,80,0,0
105742,-105.263157894737,4,2,1,5,0,0
105843,-105.263157894737,4,2,1,80,0,0
106147,-105.263157894737,4,2,1,5,0,0
106249,-105.263157894737,4,2,1,80,0,0
107364,-105.263157894737,4,2,1,5,0,0
107465,-105.263157894737,4,2,1,80,0,0
111418,-105.263157894737,4,2,1,5,0,0
111519,-105.263157894737,4,2,1,80,0,0
111823,-105.263157894737,4,2,1,5,0,0
111924,-105.263157894737,4,2,1,80,0,0
112228,-105.263157894737,4,2,1,5,0,0
112330,-105.263157894737,4,2,1,80,0,0
113850,-105.263157894737,4,2,1,5,0,0
113951,-105.263157894737,4,2,1,80,0,0
114255,-105.263157894737,4,2,1,5,0,0
114357,-105.263157894737,4,2,1,80,0,0
114661,-105.263157894737,4,2,1,5,0,0
114762,-105.263157894737,4,2,1,80,0,0
116688,-105.263157894737,4,2,1,5,0,0
116789,-105.263157894737,4,2,1,80,0,0
117904,-105.263157894737,4,2,1,5,0,0
118005,-105.263157894737,4,2,1,80,0,0
118310,-105.263157894737,4,2,1,5,0,0
118411,-105.263157894737,4,2,1,80,0,0
118715,-105.263157894737,4,2,1,5,0,0
118816,-105.263157894737,4,2,1,80,0,0
119120,-105.263157894737,4,2,1,5,0,0
119222,-105.263157894737,4,2,1,80,0,0
119526,-105.263157894737,4,2,1,5,0,0
119627,-105.263157894737,4,2,1,80,0,0
120337,-105.263157894737,4,2,1,5,0,0
120438,-105.263157894737,4,2,1,80,0,0
121147,-105.263157894737,4,2,1,5,0,0
121249,-105.263157894737,4,2,1,80,0,0
121654,-105.263157894737,4,2,1,80,0,0
122870,-105.263157894737,4,2,3,80,0,0
123276,-105.263157894737,4,2,1,80,0,0
129357,-105.263157894737,4,2,3,80,0,0
129762,-250,4,2,1,80,0,0
129864,-250,4,2,1,40,0,0
131181,-250,4,2,1,5,0,0
131384,-250,4,2,1,40,0,0
132803,-250,4,2,1,5,0,0
133005,-250,4,2,1,40,0,0
134424,-250,4,2,1,5,0,0
134627,-125,4,2,1,40,0,0
134728,-125,4,2,1,5,0,0
134830,-125,4,2,1,40,0,0
135337,-125,4,2,1,5,0,0
135438,-125,4,2,1,40,0,0
135843,-125,4,2,3,40,0,0
136249,-250,4,2,1,40,0,0
137668,-250,4,2,1,5,0,0
137870,-250,4,2,1,40,0,0
139289,-250,4,2,1,5,0,0
139492,-250,4,2,1,40,0,0
141114,-125,4,2,1,40,0,0
141215,-125,4,2,1,5,0,0
141316,-125,4,2,1,40,0,0
141823,-125,4,2,1,5,0,0
141924,-125,4,2,1,40,0,0
142735,-125,4,2,1,60,0,0
144255,-125,4,2,1,5,0,0
144357,-125,4,2,1,60,0,0
144661,-125,4,2,1,5,0,0
144762,-125,4,2,1,60,0,0
145066,-125,4,2,1,5,0,0
145168,-125,4,2,1,60,0,0
146282,-125,4,2,1,5,0,0
146384,-125,4,2,1,60,0,0
146688,-125,4,2,1,5,0,0
146789,-125,4,2,1,60,0,0
147499,-125,4,2,1,5,0,0
147600,-125,4,2,1,60,0,0
150742,-125,4,2,1,5,0,0
150843,-125,4,2,1,60,0,0
151147,-125,4,2,1,5,0,0
151249,-125,4,2,1,60,0,0
151553,-125,4,2,1,5,0,0
151654,-125,4,2,1,60,0,0
151958,-125,4,3,1,5,0,0
152060,-125,4,2,1,60,0,0
152769,-125,4,2,1,5,0,0
152870,-125,4,2,1,60,0,0
153174,-125,4,2,1,5,0,0
153276,-125,4,2,1,60,0,0
153580,-125,4,2,1,5,0,0
153681,-125,4,2,1,60,0,0
155708,-83.3333333333333,4,2,1,90,0,1
156012,-83.3333333333333,4,2,1,5,0,1
156114,-100,4,2,1,90,0,1
157634,-100,4,2,1,5,0,1
157735,-100,4,2,1,90,0,1
158039,-100,4,2,1,5,0,1
158141,-100,4,2,1,90,0,1
158445,-100,4,2,1,5,0,1
158546,-100,4,2,1,90,0,1
159255,-100,4,2,1,5,0,1
159357,-100,4,2,1,90,0,1
159661,-100,4,2,1,5,0,1
159762,-100,4,2,1,90,0,1
160066,-100,4,2,1,5,0,1
160168,-100,4,2,1,90,0,1
162195,-83.3333333333333,4,2,1,90,0,1
162499,-83.3333333333333,4,2,1,5,0,1
162600,-100,4,2,1,90,0,1
164120,-100,4,2,1,5,0,1
164222,-100,4,2,1,90,0,1
164526,-100,4,2,1,5,0,1
164627,-100,4,2,1,90,0,1
166147,-100,4,2,1,5,0,1
166249,-100,4,2,1,90,0,1
168681,-250,4,2,1,60,0,0
170100,-250,4,2,1,5,0,0
170303,-250,4,2,1,60,0,0
174965,-250,4,2,1,5,0,0
175168,-250,4,2,1,60,0,0
181350,-250,4,2,1,5,0,0
181451,-250,4,2,1,70,0,0
181654,-100,4,2,1,80,0,1
181958,-100,4,2,1,5,0,1
182060,-100,4,2,1,80,0,1
183782,-100,4,2,1,5,0,1
183884,-100,4,2,1,80,0,1
185201,-100,4,2,1,5,0,1
185303,-100,4,2,1,80,0,1
187634,-100,4,2,1,5,0,1
187735,-100,4,2,1,80,0,1
188445,-100,4,2,1,5,0,1
188546,-100,4,2,1,80,0,1
190269,-100,4,2,1,5,0,1
190370,-100,4,2,1,80,0,1
191688,-100,4,2,1,5,0,1
191789,-100,4,2,1,80,0,1
192904,-100,4,2,1,5,0,1
193005,-100,4,2,1,80,0,1
194627,-105.263157894737,4,2,1,80,0,0
194931,-105.263157894737,4,2,1,5,0,0
195032,-105.263157894737,4,2,1,80,0,0
202634,-105.263157894737,4,2,1,5,0,0
202735,-105.263157894737,4,2,1,80,0,0
203039,-105.263157894737,4,2,1,5,0,0
203141,-105.263157894737,4,2,1,80,0,0
203445,-105.263157894737,4,2,1,5,0,0
203546,-105.263157894737,4,2,1,80,0,0
207195,-117.64705882353,4,2,1,80,0,0
207600,-250,4,2,1,40,0,0
209019,-250,4,2,1,5,0,0
209222,-250,4,2,1,40,0,0
210641,-250,4,2,1,5,0,0
210843,-250,4,2,1,40,0,0
220370,-250,4,2,1,5,0,0
220573,-250,4,2,1,30,0,0
221181,-285.714285714286,4,2,1,25,0,0
221789,-333.333333333333,4,2,1,20,0,0

[Colours]
Combo1 : 207,103,142
Combo2 : 255,179,132
Combo3 : 78,173,190
Combo4 : 255,213,100

[HitObjects]
200,237,11384,5,8,0:3:0:0:
356,161,11587,1,4,3:3:0:0:
216,77,11789,1,0,1:0:0:0:
256,165,11992,5,4,3:3:0:0:
360,33,12195,1,8,0:2:0:0:
455,115,12397,1,0,1:0:0:0:
340,185,12600,5,8,0:1:0:0:
380,53,12803,1,2,0:2:0:0:
512,208,13005,6,0,B|484:200|452:220|472:252|436:276|404:268,1,135,4|0,1:2|0:0,0:0:0:0:
378,261,13411,1,2,0:0:0:0:
241,179,13614,1,2,0:0:0:0:
165,333,13816,6,0,P|140:324|93:313,1,72,10|0,0:0|0:0,0:0:0:0:
152,200,14222,1,2,0:3:0:0:
233,272,14424,1,2,1:2:0:0:
52,232,14627,2,0,P|32:168|84:116,1,144,0|2,1:2|1:3,0:0:0:0:
304,36,15438,5,10,0:0:0:0:
304,36,15641,2,0,P|344:52|372:60,1,72,2|2,0:0|0:3,0:0:0:0:
436,104,16046,1,2,0:0:0:0:
256,116,16249,6,0,P|228:152|256:240,1,144,0|2,1:2|0:3,0:0:0:0:
254,238,16857,1,0,0:0:0:0:
360,344,17060,2,0,B|440:336|404:276|476:268,1,144,8|2,0:0|0:3,0:0:0:0:
474,268,17668,1,0,1:2:0:0:
320,244,17870,6,0,P|308:208|316:176,1,72,2|0,0:3|0:0,0:0:0:0:
452,112,18276,2,0,P|415:103|380:92,1,72,2|0,1:3|0:0,0:0:0:0:
272,24,18681,2,0,B|238:6|212:29|212:29|191:71|151:74,1,144,8|2,0:0|0:3,0:0:0:0:
151,73,19289,1,2,0:0:0:0:
12,16,19492,6,0,P|19:45|28:88,1,72,2|2,1:2|0:0,0:0:0:0:
56,208,19897,1,2,0:3:0:0:
148,164,20100,1,2,0:0:0:0:
244,320,20303,6,0,P|208:320|180:296,1,72,10|0,0:0|0:0,0:0:0:0:
264,172,20708,1,2,0:3:0:0:
348,220,20911,1,0,1:2:0:0:
456,104,21114,2,0,B|388:112|420:176|344:184,1,144,0|2,1:2|1:3,0:0:0:0:
159,127,21924,6,0,P|188:139|233:153,1,72,10|0,0:0|0:0,0:0:0:0:
374,262,22330,2,0,P|338:272|305:285,1,72,2|0,0:3|0:0,0:0:0:0:
210,346,22735,6,0,P|174:278|110:278,1,144,2|2,1:2|0:3,0:0:0:0:
18,324,23343,1,2,0:0:0:0:
38,215,23546,2,0,B|114:207|78:143|150:135,1,144,8|2,0:0|0:3,0:0:0:0:
480,192,24357,5,8,0:3:0:0:
376,148,24560,1,4,3:3:0:0:
384,44,24762,1,2,1:3:0:0:
480,80,24965,5,4,3:3:0:0:
364,168,25168,1,8,0:2:0:0:
272,68,25370,1,0,1:0:0:0:
204,124,25573,5,8,0:1:0:0:
512,216,25978,6,0,B|440:226|480:281|408:293,1,135,4|2,1:2|0:3,0:0:0:0:
385,284,26384,1,2,0:0:0:0:
488,352,26587,1,2,0:0:0:0:
317,247,26789,2,0,P|305:283|316:316,1,72,10|0,0:0|0:0,0:0:0:0:
216,232,27195,5,2,0:3:0:0:
376,184,27397,1,0,1:2:0:0:
216,232,27600,2,0,P|181:241|145:253,1,72,0|0,1:2|0:0,0:0:0:0:
250,91,28005,2,0,P|285:103|320:112,1,72,2|0,1:3|0:0,0:0:0:0:
131,37,28411,6,0,B|91:89|91:89|131:157,1,144,10|2,0:0|0:3,0:0:0:0:
130,156,29019,1,0,0:0:0:0:
320,76,29222,6,0,B|228:48|228:48|256:44|276:40,1,144,2|2,1:2|0:3,0:0:0:0:
275,40,29830,1,0,0:0:0:0:
468,180,30032,6,0,P|440:160|404:160,1,72,10|0,0:0|0:0,0:0:0:0:
316,332,30438,2,0,P|352:332|376:308,1,72,2|0,0:3|1:2,0:0:0:0:
200,160,30843,5,10,0:3:0:0:
180,317,31046,1,4,3:3:0:0:
320,248,31249,1,2,1:3:0:0:
232,244,31451,5,4,3:3:0:0:
96,352,31654,1,8,0:0:0:0:
8,264,31857,1,0,1:0:0:0:
112,148,32060,5,8,0:1:0:0:
240,260,32262,1,8,0:1:0:0:
360,100,32465,6,0,P|336:76|300:76,1,72,2|0,1:2|0:0,0:0:0:0:
212,180,32870,1,2,0:3:0:0:
324,260,33073,1,2,0:0:0:0:
180,352,33276,2,0,L|160:280,1,72,10|2,0:0|0:0,0:0:0:0:
300,140,33681,5,2,0:3:0:0:
408,204,33884,1,2,1:2:0:0:
504,64,34087,5,2,1:2:0:0:
388,112,34289,1,2,0:0:0:0:
312,228,34492,5,2,1:3:0:0:
192,172,34694,1,2,0:0:0:0:
68,124,34897,5,10,0:0:0:0:
192,64,35100,1,2,0:0:0:0:
252,280,35303,6,0,L|184:252,1,72,2|2,0:3|0:0,0:0:0:0:
296,48,35708,6,0,B|352:56|328:96|384:104,1,108,0|0,1:0|0:0,0:0:0:0:
456,132,36114,1,2,0:3:0:0:
336,204,36316,1,2,0:0:0:0:
452,348,36519,6,0,P|458:312|468:278,1,72,8|2,0:0|0:0,0:0:0:0:
296,180,36924,2,0,P|306:214|314:248,1,72,2|0,0:3|0:0,0:0:0:0:
236,344,37330,5,8,0:3:0:0:
88,288,37532,1,4,3:3:0:0:
204,176,37735,1,2,1:2:0:0:
148,344,37937,5,4,3:3:0:0:
104,188,38141,1,10,0:0:0:0:
272,240,38343,1,0,1:0:0:0:
272,72,38546,6,0,P|235:62|203:51,1,72,8|0,0:1|0:0,0:0:0:0:
32,160,38951,6,0,B|68:108|48:40|48:40|68:108|144:118,1,252,0|0,1:0|1:0,0:0:0:0:
276,188,40573,6,0,B|280:148|320:112|320:112|207:121|255:236|136:228,1,315,0|0,1:0|0:0,0:0:0:0:
36,280,42195,6,0,B|92:289|92:289|128:340|128:340|188:350,1,180,0|8,1:0|0:1,0:0:0:0:
412,172,43816,6,0,L|448:164,1,36,4|0,0:3|0:0,0:0:0:0:
472,156,44019,1,8,0:3:0:0:
335,69,44424,6,0,L|299:61,1,36,8|0,0:3|0:0,0:0:0:0:
272,56,44627,1,4,0:3:0:0:
128,216,45032,6,0,B|200:196|200:196|164:188,1,108,2|0,0:2|0:0,0:0:0:0:
48,100,45438,6,0,P|40:168|32:208,1,108,2|0,1:2|0:0,0:0:0:0:
64,276,45843,1,10,0:0:0:0:
196,348,46046,1,2,0:3:0:0:
211,349,46147,1,2,0:3:0:0:
227,348,46248,1,2,0:3:0:0:
241,340,46350,1,2,0:3:0:0:
253,329,46451,1,0,3:0:0:0:
280,208,46654,2,0,P|248:200|208:188,1,72,8|2,0:2|0:2,0:0:0:0:
400,348,47060,6,0,P|420:320|416:280,1,72,0|2,1:2|0:3,0:0:0:0:
364,224,47465,1,10,0:0:0:0:
392,76,47668,1,2,0:3:0:0:
401,90,47769,1,2,0:3:0:0:
416,99,47870,1,2,0:3:0:0:
435,103,47972,1,2,0:3:0:0:
452,99,48073,1,0,3:0:0:0:
272,8,48276,2,0,P|264:48|256:80,1,72,10|0,0:0|0:0,0:0:0:0:
160,232,48681,6,0,P|152:192|144:160,1,72,2|2,1:2|0:3,0:0:0:0:
79,116,49087,1,10,0:0:0:0:
224,284,49289,1,2,0:3:0:0:
210,301,49390,1,2,0:3:0:0:
191,312,49491,1,2,0:3:0:0:
169,317,49593,1,2,0:3:0:0:
148,312,49694,1,0,3:0:0:0:
280,172,49897,2,0,P|312:184|347:196,1,72,8|2,0:0|0:3,0:0:0:0:
440,256,50303,5,4,0:3:0:0:
342,339,50505,1,4,0:3:0:0:
502,203,50708,1,8,0:0:0:0:
339,120,50911,5,4,0:3:0:0:
488,44,51114,1,8,0:3:0:0:
425,172,51316,5,8,0:0:0:0:
407,163,51519,1,8,0:0:0:0:
237,39,51722,6,0,L|272:28,1,36,2|0,0:3|0:0,0:0:0:0:
260,204,51924,22,0,P|211:205|174:147,1,121.499996292114,2|0,1:2|0:0,0:0:0:0:
112,98,52330,1,8,0:0:0:0:
271,28,52532,1,2,0:3:0:0:
265,48,52633,1,2,0:3:0:0:
261,69,52734,1,8,0:1:0:0:
257,90,52836,1,2,0:3:0:0:
254,111,52937,1,0,3:0:0:0:
136,239,53141,1,8,0:2:0:0:
23,203,53343,2,0,L|62:194,1,40.4999987640381,0|0,1:0|0:0,0:0:0:0:
241,342,53546,6,0,L|164:320,1,80.9999975280763,2|2,1:2|0:3,0:0:0:0:
293,193,53951,1,8,0:2:0:0:
370,341,54154,1,2,0:3:0:0:
399,347,54255,1,2,0:3:0:0:
428,340,54356,1,8,0:1:0:0:
450,319,54458,1,2,0:3:0:0:
460,291,54559,1,0,3:0:0:0:
413,144,54762,2,0,P|403:181|395:224,1,80.9999975280763,10|0,0:2|0:0,0:0:0:0:
246,114,55168,6,0,P|239:74|229:35,1,80.9999975280763,0|2,1:0|0:3,0:0:0:0:
367,68,55573,1,8,0:0:0:0:
258,236,55776,1,2,0:3:0:0:
228,240,55877,1,2,0:3:0:0:
199,233,55978,1,8,0:1:0:0:
175,214,56080,1,2,0:3:0:0:
160,188,56181,1,0,3:0:0:0:
56,28,56384,2,0,P|97:41|133:52,1,80.9999975280763,8|0,0:0|1:0,0:0:0:0:
316,176,56789,5,8,0:3:0:0:
199,233,56992,1,4,3:3:0:0:
204,104,57195,1,8,0:0:0:0:
280,260,57397,5,4,0:3:0:0:
296,96,57600,1,8,0:1:0:0:
136,168,57803,1,10,0:0:0:0:
292,284,58005,5,2,0:0:0:0:
400,352,58208,2,0,P|420:344|442:338,1,40.4999987640381,2|0,0:3|0:0,0:0:0:0:
493,240,58411,6,0,B|481:211|486:180|486:180|471:207|440:218,1,121.499996292114,2|0,1:2|0:0,0:0:0:0:
368,225,58816,1,10,0:0:0:0:
371,43,59019,1,2,0:3:0:0:
398,55,59120,1,2,0:3:0:0:
417,78,59221,1,8,0:1:0:0:
422,108,59323,1,2,0:3:0:0:
414,136,59424,1,0,3:0:0:0:
209,60,59627,2,0,P|246:51|290:38,1,80.9999975280763,8|0,0:0|1:0,0:0:0:0:
271,240,60032,6,0,B|206:230|245:187|172:179,1,121.499996292114,2|0,1:2|0:0,0:0:0:0:
98,280,60438,2,0,P|138:280|166:248,1,80.9999975280763,10|2,1:2|0:3,0:0:0:0:
30,247,60843,1,8,0:1:0:0:
18,273,60944,1,2,0:3:0:0:
25,300,61045,1,0,3:0:0:0:
202,354,61249,2,0,P|237:339|280:328,1,80.9999975280763,10|0,0:0|0:0,0:0:0:0:
482,240,61654,6,0,B|441:231|441:231|419:200|419:200|377:192,1,121.499996292114,0|0,1:0|0:0,0:0:0:0:
308,228,62060,1,8,0:0:0:0:
380,356,62262,1,2,0:3:0:0:
408,345,62363,1,2,0:3:0:0:
437,335,62464,1,8,0:1:0:0:
466,327,62566,1,2,0:3:0:0:
495,320,62667,1,0,3:0:0:0:
398,121,62870,2,0,P|374:151|377:191,1,80.9999975280763,8|2,0:0|0:3,0:0:0:0:
480,28,63276,5,8,0:3:0:0:
312,96,63478,1,4,3:3:0:0:
464,180,63681,1,0,1:0:0:0:
388,28,63884,5,4,3:3:0:0:
232,160,64087,1,8,0:2:0:0:
168,80,64289,1,0,1:0:0:0:
418,17,64492,6,0,P|442:37|442:97,1,94.499997116089,12|0,0:0|0:0,0:0:0:0:
385,207,64897,6,0,B|305:198|341:134|253:126,1,161.999995056153,6|0,1:2|0:0,0:0:0:0:
86,299,65303,1,2,0:3:0:0:
251,210,65506,1,0,1:2:0:0:
59,147,65708,2,0,P|39:187|47:231,1,90,8|0,0:0|0:0,0:0:0:0:
86,299,66114,1,2,0:3:0:0:
328,343,66317,5,2,1:2:0:0:
339,348,66418,1,2,0:0:0:0:
349,352,66519,2,0,B|421:344|389:280|453:272,1,135,0|0,1:2|0:0,0:0:0:0:
497,208,66924,2,0,P|436:188|369:164,1,135,2|0,1:3|0:0,0:0:0:0:
289,300,67330,2,0,P|325:248|293:192,1,135,8|0,0:0|0:0,0:0:0:0:
221,160,67736,1,2,0:3:0:0:
150,337,67938,5,2,1:2:0:0:
142,343,68039,1,2,0:2:0:0:
134,348,68141,2,0,P|84:328|4:304,1,135,2|0,1:2|0:0,0:0:0:0:
4,224,68546,2,0,B|72:236|64:180|132:192,1,135,2|0,1:3|0:0,0:0:0:0:
204,216,68951,2,0,B|246:227|246:227|271:271|271:271|314:282,1,135,8|0,0:0|0:0,0:0:0:0:
388,302,69357,5,2,0:3:0:0:
456,262,69560,1,0,1:2:0:0:
376,48,69762,5,8,0:3:0:0:
240,132,69965,1,4,3:3:0:0:
388,220,70168,1,2,1:3:0:0:
276,44,70370,5,4,3:3:0:0:
460,132,70573,1,8,0:0:0:0:
292,220,70776,1,2,1:2:0:0:
448,28,70978,5,8,0:1:0:0:
512,236,71181,1,8,1:1:0:0:
272,304,71384,6,0,L|116:260,1,161.999995056153,2|0,1:2|0:0,0:0:0:0:
64,200,71789,1,2,0:3:0:0:
198,145,71992,1,0,1:0:0:0:
46,21,72195,2,0,P|31:63|48:104,1,90,10|0,0:0|0:0,0:0:0:0:
153,26,72600,1,2,0:3:0:0:
163,208,72803,5,2,1:2:0:0:
170,217,72904,1,2,0:2:0:0:
176,224,73005,2,0,B|248:216|216:152|280:144,1,135,2|0,1:2|0:0,0:0:0:0:
396,248,73411,2,0,B|304:220|304:220|324:214|344:205,1,135,2|0,1:3|0:0,0:0:0:0:
412,172,73816,1,10,0:0:0:0:
203,27,74222,5,2,0:3:0:0:
99,98,74424,1,0,1:2:0:0:
0,56,74627,2,0,B|93:63|45:136|146:144,1,180,2|2,1:2|1:3,0:0:0:0:
264,32,75235,6,0,L|277:77,1,45,2|0,0:0|0:0,0:0:0:0:
289,109,75438,1,8,0:0:0:0:
493,101,75641,2,0,P|473:37|373:37,1,180,2|0,0:0|1:0,0:0:0:0:
309,297,76249,5,8,0:3:0:0:
473,197,76451,1,4,3:3:0:0:
289,109,76654,1,2,1:3:0:0:
413,285,76857,5,8,3:3:0:0:
245,209,77060,1,8,0:2:0:0:
401,109,77262,1,2,1:2:0:0:
328,328,77465,5,8,0:1:0:0:
216,136,77668,1,8,1:1:0:0:
59,354,77870,6,0,B|3:285|3:285|38:220,1,161.999995056153,4|0,1:2|0:0,0:0:0:0:
80,152,78276,1,2,0:3:0:0:
208,216,78478,1,0,1:0:0:0:
248,48,78681,2,0,P|216:20|168:20,1,90,10|0,0:0|0:0,0:0:0:0:
53,78,79087,1,2,0:3:0:0:
208,216,79289,5,2,1:2:0:0:
215,221,79391,1,2,0:0:0:0:
221,225,79492,2,0,B|293:213|261:153|321:145,1,135,2|0,1:2|0:0,0:0:0:0:
416,88,79897,2,0,B|372:76|372:76|348:37|348:37|304:26,1,135,2|0,1:3|0:0,0:0:0:0:
228,16,80303,2,0,P|196:52|196:92,1,90,10|0,0:0|0:0,0:0:0:0:
278,306,80708,2,0,L|292:264,1,45,2|0,0:3|0:0,0:0:0:0:
248,184,80911,5,2,1:2:0:0:
242,179,81012,1,2,0:0:0:0:
236,175,81114,2,0,P|172:175|140:231,1,135,2|0,1:2|0:0,0:0:0:0:
72,272,81519,2,0,L|48:140,1,135,2|0,1:3|0:0,0:0:0:0:
84,68,81924,2,0,B|148:36|148:108|212:76,1,135,10|0,0:0|0:0,0:0:0:0:
282,40,82330,5,2,0:3:0:0:
384,112,82532,1,0,1:2:0:0:
260,172,82735,5,10,0:3:0:0:
384,12,82938,1,4,3:3:0:0:
455,189,83141,1,2,1:3:0:0:
282,40,83343,5,4,3:3:0:0:
352,228,83546,1,8,0:0:0:0:
480,88,83749,1,0,1:0:0:0:
226,99,83951,5,8,0:1:0:0:
432,170,84154,1,8,0:1:0:0:
232,324,84357,6,0,B|177:309|177:309|147:263|147:263|97:250,1,161.999995056153,6|0,1:2|0:0,0:0:0:0:
20,268,84762,2,0,P|20:220|47:190,1,90,2|0,0:3|1:0,0:0:0:0:
327,222,85168,2,0,L|235:243,1,90,10|0,0:0|0:0,0:0:0:0:
140,97,85573,6,0,L|152:49,1,45,2|0,0:3|0:0,0:0:0:0:
160,25,85776,1,2,1:2:0:0:
265,159,85978,1,2,1:2:0:0:
129,185,86181,1,2,0:0:0:0:
288,40,86384,2,0,B|360:52|324:104|392:116,1,135,2|0,1:3|0:0,0:0:0:0:
464,96,86789,5,10,0:0:0:0:
376,0,86992,1,0,0:0:0:0:
264,188,87195,2,0,L|256:144,1,45,2|0,0:3|0:0,0:0:0:0:
276,116,87397,1,0,1:0:0:0:
416,281,87600,6,0,B|369:293|369:293|347:329|347:329|304:341,1,135,0|0,1:0|0:0,0:0:0:0:
239,297,88005,1,2,1:3:0:0:
94,348,88208,1,2,0:0:0:0:
85,354,88310,1,2,0:0:0:0:
78,358,88411,2,0,L|54:270,1,90,8|0,0:0|0:0,0:0:0:0:
216,140,88816,2,0,L|192:226,1,90,2|2,0:3|1:2,0:0:0:0:
96,108,89222,5,8,0:3:0:0:
280,204,89424,1,4,3:3:0:0:
256,4,89627,1,2,1:3:0:0:
124,196,89830,5,4,3:3:0:0:
124,16,90032,1,10,0:0:0:0:
312,100,90235,1,0,1:0:0:0:
48,176,90438,5,8,0:1:0:0:
232,84,90641,1,0,1:2:0:0:
372,328,90843,6,0,B|284:316|328:256|240:244,1,161.999995056153,6|0,1:2|0:0,0:0:0:0:
196,232,91249,2,0,L|284:208,1,90,2|0,0:3|1:0,0:0:0:0:
332,18,91654,2,0,P|310:49|312:102,1,90,8|0,0:0|0:0,0:0:0:0:
512,128,92060,1,2,0:3:0:0:
408,84,92262,1,2,1:2:0:0:
380,292,92465,5,2,1:2:0:0:
380,292,92668,2,0,B|427:279|427:279|448:245|448:245|495:233,1,135,2|0,0:0|0:0,0:0:0:0:
508,156,93073,1,2,0:0:0:0:
300,124,93276,2,0,B|244:192|244:192|300:268,1,180,8|2,0:0|0:3,0:0:0:0:
236,316,93884,1,0,1:0:0:0:
28,241,94087,6,0,B|92:233|68:173|132:165,1,135,2|0,1:2|0:0,0:0:0:0:
184,104,94492,2,0,B|228:112|216:140|264:148,1,90,2|0,1:3|0:0,0:0:0:0:
476,116,94897,2,0,P|484:64|464:36,1,90,8|0,0:0|0:0,0:0:0:0:
344,0,95303,1,2,0:3:0:0:
248,40,95505,1,2,1:2:0:0:
307,153,95708,5,8,0:3:0:0:
379,269,95910,1,4,3:3:0:0:
403,87,96114,1,2,1:3:0:0:
215,209,96316,5,4,3:3:0:0:
356,356,96519,2,0,P|386:311|462:311,1,135,8|0,0:0|0:0,0:0:0:0:
484,331,96924,5,2,0:3:0:0:
360,236,97127,1,0,1:0:0:0:
212,352,97330,6,0,B|152:344|172:288|104:280,1,135,2|0,1:2|0:0,0:0:0:0:
48,312,97735,2,0,P|68:284|68:228,1,90,2|0,0:3|1:0,0:0:0:0:
240,160,98141,2,0,L|328:188,1,90,8|0,0:0|0:0,0:0:0:0:
156,100,98546,1,2,0:3:0:0:
260,64,98749,1,2,1:2:0:0:
136,268,98951,5,2,1:2:0:0:
136,268,99154,2,0,B|68:260|100:204|28:196,1,135,2|0,0:0|0:0,0:0:0:0:
0,124,99560,1,2,0:0:0:0:
212,0,99762,2,0,P|224:72|244:180,1,180,8|2,0:0|0:3,0:0:0:0:
304,348,100370,1,0,1:0:0:0:
478,227,100573,5,2,1:2:0:0:
478,227,100776,2,0,B|439:216|439:216|391:241|391:241|348:229,1,135,2|0,0:0|0:0,0:0:0:0:
314,159,101181,1,2,0:2:0:0:
449,17,101384,2,0,P|501:49|477:153,1,180,8|2,0:0|0:3,0:0:0:0:
332,284,101992,2,0,L|324:240,1,45,0|0,1:0|0:0,0:0:0:0:
280,8,102195,5,8,0:3:0:0:
408,132,102397,1,4,3:3:0:0:
244,172,102600,1,2,1:3:0:0:
384,28,102803,5,4,3:3:0:0:
432,212,103005,1,8,0:0:0:0:
260,92,103208,1,0,1:0:0:0:
158,241,103411,5,8,0:1:0:0:
332,152,103614,1,0,1:0:0:0:
76,76,103816,5,6,1:2:0:0:
72,272,104019,1,2,0:0:0:0:
236,186,104222,1,2,0:3:0:0:
88,104,104424,1,2,0:0:0:0:
94,349,104627,2,0,B|158:339|128:287|193:277,1,128.249996575356,10|0,0:0|0:0,0:0:0:0:
272,284,105032,1,2,0:3:0:0:
406,317,105235,6,0,L|450:305,1,42.7499988584519,0|0,1:0|0:0,0:0:0:0:
499,234,105438,2,0,P|439:214|367:190,1,128.249996575356,0|0,1:0|0:0,0:0:0:0:
320,125,105843,2,0,P|352:169|324:241,1,128.249996575356,2|0,1:3|0:0,0:0:0:0:
272,284,106249,5,8,0:0:0:0:
148,312,106451,1,2,0:0:0:0:
264,188,106654,1,2,0:3:0:0:
408,288,106857,1,2,0:0:0:0:
482,99,107060,2,0,B|419:83|451:35|386:22,1,128.249996575356,0|0,1:0|0:0,0:0:0:0:
312,48,107465,5,2,0:3:0:0:
324,96,107668,1,0,0:0:0:0:
408,220,107870,5,8,0:0:0:0:
420,172,108073,1,2,0:0:0:0:
256,136,108276,5,2,0:3:0:0:
274,181,108479,1,2,1:2:0:0:
416,300,108681,5,8,0:3:0:0:
232,344,108884,1,4,3:3:0:0:
196,184,109087,5,2,1:3:0:0:
324,324,109289,1,4,3:3:0:0:
144,360,109492,5,8,0:2:0:0:
256,252,109695,1,2,0:0:0:0:
232,344,109897,5,2,0:3:0:0:
168,268,110100,1,2,0:0:0:0:
32,352,110303,5,2,1:2:0:0:
48,176,110505,1,2,0:0:0:0:
180,288,110708,1,2,0:3:0:0:
60,196,110911,1,2,0:0:0:0:
192,368,111114,2,0,B|256:368|236:300|292:300,1,128.249996575356,10|0,0:0|0:0,0:0:0:0:
372,300,111519,1,2,0:3:0:0:
373,106,111722,6,0,P|378:83|382:57,1,42.7499988584519,0|0,1:0|0:0,0:0:0:0:
460,68,111924,2,0,P|500:96|472:168,1,128.249996575356,0|0,1:0|0:0,0:0:0:0:
420,216,112330,2,0,L|332:192,1,85.4999977169037,2|0,1:3|0:0,0:0:0:0:
268,20,112735,1,10,0:0:0:0:
373,106,112938,1,2,0:0:0:0:
240,144,113141,1,2,0:3:0:0:
135,12,113343,5,2,0:0:0:0:
140,18,113445,1,2,0:0:0:0:
144,24,113546,2,0,P|84:48|16:72,1,128.249996575356,0|0,1:0|0:0,0:0:0:0:
0,145,113951,2,0,B|72:133|52:201|120:193,1,128.249996575356,2|0,0:3|0:0,0:0:0:0:
209,80,114357,2,0,B|128:112|128:112|156:116|172:127,1,128.249996575356,8|0,0:0|0:0,0:0:0:0:
228,164,114762,5,2,0:3:0:0:
356,208,114965,1,2,0:0:0:0:
472,116,115168,5,8,0:3:0:0:
348,0,115370,1,4,3:3:0:0:
304,148,115573,1,2,1:3:0:0:
440,24,115776,5,4,3:3:0:0:
400,192,115978,1,8,0:2:0:0:
268,68,116181,1,0,1:0:0:0:
440,24,116384,2,0,B|482:73|482:73|447:127,1,128.249996575356,8|0,0:1|0:0,0:0:0:0:
400,192,116789,5,2,1:2:0:0:
268,232,116992,1,2,0:0:0:0:
228,112,117195,1,2,0:3:0:0:
364,68,117397,1,2,0:0:0:0:
436,248,117600,2,0,B|376:248|392:184|328:184,1,128.249996575356,10|0,0:0|0:0,0:0:0:0:
268,232,118005,1,2,0:3:0:0:
96,124,118208,6,0,L|56:140,1,42.7499988584519,0|0,1:0|0:0,0:0:0:0:
8,204,118411,2,0,L|44:328,1,128.249996575356,0|0,1:0|0:0,0:0:0:0:
120,352,118816,2,0,B|176:348|160:284|220:280,1,128.249996575356,2|0,1:3|0:0,0:0:0:0:
280,332,119222,2,0,B|360:308|360:308|369:286|340:272,1,128.249996575356,8|0,0:0|0:0,0:0:0:0:
292,212,119627,5,2,0:3:0:0:
186,107,119829,1,2,0:0:0:0:
368,12,120032,2,0,P|428:40|496:68,1,128.249996575356,0|0,1:0|0:0,0:0:0:0:
508,136,120438,5,2,0:3:0:0:
368,184,120641,1,0,0:0:0:0:
280,32,120843,2,0,B|212:40|248:100|184:108,1,128.249996575356,8|0,0:0|0:0,0:0:0:0:
116,144,121249,1,2,0:3:0:0:
32,80,121451,1,0,1:0:0:0:
0,208,121654,5,8,0:3:0:0:
128,292,121857,1,4,3:3:0:0:
224,192,122060,1,2,1:3:0:0:
116,184,122262,5,4,3:3:0:0:
212,344,122465,2,0,L|292:312,1,85.4999977169037,8|0,0:0|0:0,0:0:0:0:
420,232,122870,5,8,0:1:0:0:
256,116,123073,1,8,0:1:0:0:
440,36,123276,6,0,P|468:64|468:108,1,85.4999977169037,2|2,1:2|0:2,0:2:0:0:
356,184,123681,1,2,0:3:0:0:
228,96,123884,1,2,0:0:0:0:
184,284,124087,2,0,L|268:256,1,85.4999977169037,10|2,0:0|0:0,0:0:0:0:
412,352,124492,5,2,0:3:0:0:
356,224,124695,1,0,1:0:0:0:
512,112,124897,5,2,1:2:0:0:
472,248,125100,1,2,0:0:0:0:
320,108,125303,5,2,1:3:0:0:
432,40,125505,1,2,0:0:0:0:
368,196,125708,5,10,0:0:0:0:
244,128,125911,1,2,0:0:0:0:
144,260,126114,6,0,L|224:304,1,85.4999977169037,2|0,0:3|0:0,0:0:0:0:
448,240,126519,6,0,P|472:208|456:168,1,85.4999977169037,2|0,1:2|0:0,0:0:0:0:
248,32,126924,2,0,P|222:68|233:110,1,85.4999977169037,2|0,0:3|0:0,0:0:0:0:
312,233,127330,5,10,0:0:0:0:
456,168,127532,1,2,0:0:0:0:
372,32,127735,1,2,0:3:0:0:
230,105,127937,1,2,0:0:0:0:
144,12,128141,5,8,0:3:0:0:
336,111,128343,1,4,3:3:0:0:
152,208,128546,1,2,1:3:0:0:
328,12,128749,5,4,3:3:0:0:
148,110,128951,1,10,0:0:0:0:
344,208,129154,1,0,1:0:0:0:
408,0,129357,5,8,0:1:0:0:
504,192,129560,1,8,0:1:0:0:
320,344,129762,6,0,B|280:288|224:312|224:312|160:380|100:340,1,252,4|0,0:3|0:0,0:0:0:0:
64,256,131384,6,0,B|125:216|217:192|217:192|169:188|133:172,1,252,2|0,0:0|0:0,0:0:0:0:
52,136,133005,6,0,B|91:84|65:20|65:20|103:80|173:90,1,252,2|0,0:0|0:0,0:0:0:0:
98,271,134627,6,0,L|62:259,1,36,8|0,0:3|0:0,0:0:0:0:
36,252,134830,1,4,0:3:0:0:
224,176,135235,6,0,L|260:164,1,36,8|0,0:3|0:0,0:0:0:0:
284,156,135438,1,4,0:3:0:0:
101,37,135843,5,8,0:1:0:0:
136,144,136046,1,8,0:1:0:0:
252,32,136249,6,0,B|324:12|372:64|328:96|388:164|448:144,1,252,2|0,0:0|0:0,0:0:0:0:
452,25,137870,6,0,B|416:73|368:113|368:113|416:165|444:221,1,252,2|0,0:0|0:0,0:0:0:0:
492,312,139492,6,0,L|456:300,1,36
352,352,139897,2,0,L|386:340,1,36
308,240,140303,2,0,L|300:276,1,36
220,352,140708,2,0,L|212:316,1,36
96,208,141114,6,0,L|88:248,1,36,4|0,0:3|0:0,0:0:0:0:
86,272,141316,1,8,0:3:0:0:
256,128,141722,6,0,L|248:88,1,36,8|0,0:3|0:0,0:0:0:0:
242,65,141924,1,12,0:3:0:0:
380,276,142330,5,8,0:1:0:0:
380,276,142735,6,0,P|456:276|484:220,1,144,2|0,1:2|0:0,0:0:0:0:
500,144,143343,1,0,1:0:0:0:
372,24,143546,2,0,L|348:168,1,144,8|0,0:1|0:0,0:0:0:0:
268,281,144154,6,0,L|232:269,1,36,0|0,1:0|0:0,0:0:0:0:
158,246,144357,2,0,B|106:258|134:298|74:314,1,108,2|0,1:2|0:0,0:0:0:0:
32,248,144762,2,0,P|12:208|40:148,1,108,0|0,1:0|0:0,0:0:0:0:
96,104,145168,2,0,B|139:96|139:96|185:128|185:128|229:121,1,144,8|2,0:1|0:0,0:0:0:0:
364,16,145776,1,0,1:0:0:0:
464,168,145978,6,0,P|416:152|360:132,1,108,0|0,1:0|0:0,0:0:0:0:
289,167,146384,2,0,B|265:219|265:219|289:263,1,108,0|0,1:0|0:0,0:0:0:0:
380,319,146789,2,0,B|312:299|312:371|244:347,1,144,8|0,0:1|0:0,0:0:0:0:
48,332,147397,2,0,L|40:296,1,36,0|0,1:0|0:0,0:0:0:0:
65,220,147600,5,8,0:3:0:0:
161,298,147803,1,4,3:3:0:0:
260,216,148005,1,0,1:0:0:0:
128,116,148208,5,4,3:3:0:0:
224,12,148411,1,10,0:2:0:0:
352,116,148614,1,2,1:2:0:0:
171,196,148816,5,8,0:1:0:0:
221,28,149019,1,0,1:0:0:0:
386,191,149222,6,0,P|418:179|454:167,1,72,2|0,1:2|0:2,0:0:0:0:
497,99,149627,1,2,0:0:0:0:
368,8,149830,2,0,P|316:8|288:84,1,144,2|0,1:2|0:2,0:0:0:0:
338,148,150438,1,0,0:0:0:0:
256,280,150641,2,0,L|216:272,1,36,0|0,1:0|0:0,0:0:0:0:
140,220,150843,6,0,B|216:192|216:192|188:184,1,108,2|0,1:2|0:0,0:0:0:0:
100,152,151249,2,0,P|64:176|64:236,1,108,2|0,1:2|0:0,0:0:0:0:
88,313,151654,2,0,B|140:301|140:349|192:337,1,108,8|0,0:1|0:0,0:0:0:0:
268,352,152060,1,2,0:0:0:0:
344,280,152262,1,0,1:0:0:0:
464,352,152465,6,0,P|474:299|488:244,1,108,0|0,1:0|0:0,0:0:0:0:
512,170,152870,2,0,P|472:147|427:192,1,108,0|0,1:0|0:0,0:0:0:0:
364,232,153276,2,0,P|353:183|340:124,1,108,8|0,0:1|0:0,0:0:0:0:
292,64,153681,1,0,0:0:0:0:
192,128,153884,1,0,1:0:0:0:
132,24,154087,5,8,0:3:0:0:
267,137,154289,1,4,3:3:0:0:
104,200,154492,1,2,1:2:0:0:
244,32,154695,5,4,3:3:0:0:
56,112,154897,1,8,0:2:0:0:
216,228,155100,1,0,1:0:0:0:
348,120,155303,5,8,0:1:0:0:
132,24,155505,1,8,0:1:0:0:
120,264,155708,6,0,B|200:255|164:191|252:183,1,161.999995056153,6|0,1:2|0:0,0:0:0:0:
400,344,156114,1,2,0:3:0:0:
248,264,156317,1,0,1:2:0:0:
444,200,156519,2,0,P|462:241|444:284,1,90,8|0,0:0|0:0,0:0:0:0:
400,344,156924,1,2,0:3:0:0:
175,342,157128,5,2,1:2:0:0:
161,348,157229,1,2,0:0:0:0:
148,352,157330,2,0,B|104:296|104:296|140:240,1,135,0|0,1:2|0:0,0:0:0:0:
196,188,157735,2,0,B|263:188|247:248|311:248,1,135,2|0,1:3|0:0,0:0:0:0:
372,196,158141,2,0,P|408:144|376:88,1,135,8|0,0:0|0:0,0:0:0:0:
305,56,158547,1,2,0:3:0:0:
184,264,158749,5,2,1:2:0:0:
173,269,158850,1,2,0:2:0:0:
162,274,158952,2,0,P|112:254|32:230,1,135,2|0,1:2|0:0,0:0:0:0:
0,160,159357,2,0,P|1:112|80:90,1,135,2|0,1:3|0:0,0:0:0:0:
133,142,159762,2,0,P|194:142|213:77,1,135,8|0,0:0|0:0,0:0:0:0:
158,22,160168,5,2,0:3:0:0:
85,53,160371,1,0,1:0:0:0:
100,204,160573,5,8,0:3:0:0:
259,256,160776,1,4,3:3:0:0:
325,110,160978,1,2,1:3:0:0:
206,107,161181,5,4,3:3:0:0:
344,260,161384,1,10,0:0:0:0:
153,323,161587,1,2,1:2:0:0:
262,166,161789,5,2,0:3:0:0:
471,245,161992,1,2,1:2:0:0:
409,29,162195,6,0,P|396:100|381:190,1,161.999995056153,2|0,1:2|0:0,0:0:0:0:
344,260,162600,1,2,0:3:0:0:
272,112,162803,1,0,1:0:0:0:
496,16,163006,2,0,P|504:68|512:104,1,90,10|0,0:0|0:0,0:0:0:0:
480,210,163411,1,2,0:3:0:0:
338,38,163614,5,2,1:2:0:0:
331,35,163715,1,2,0:2:0:0:
324,32,163816,2,0,B|263:39|295:103|223:111,1,135,2|0,1:2|0:0,0:0:0:0:
160,64,164222,2,0,P|120:100|144:168,1,135,2|0,1:3|0:0,0:0:0:0:
212,212,164627,1,10,0:0:0:0:
504,280,165033,5,2,0:3:0:0:
400,351,165235,1,0,1:2:0:0:
344,198,165438,2,0,P|430:231|512:262,1,180,2|2,1:2|1:3,0:0:0:0:
228,352,166046,6,0,L|220:308,1,45,2|0,0:0|0:0,0:0:0:0:
216,280,166249,1,8,0:0:0:0:
220,112,166452,2,0,P|264:184|348:164,1,180,2|0,0:0|1:0,0:0:0:0:
388,98,167060,5,8,0:3:0:0:
245,26,167262,1,4,3:3:0:0:
147,149,167465,1,0,1:0:0:0:
98,9,167668,5,4,3:3:0:0:
296,93,167871,1,10,0:2:0:0:
95,209,168073,1,2,1:2:0:0:
197,89,168276,5,8,0:1:0:0:
361,167,168478,1,2,1:2:0:0:
364,44,168681,6,0,P|268:44|240:176,1,252,6|0,0:2|0:0,0:0:0:0:
304,284,170303,6,0,B|404:228|404:368|500:320,1,216,2|0,0:2|0:0,0:0:0:0:
484,72,171823,5,2,0:0:0:0:
484,72,171924,2,0,L|468:144,1,72,2|2,0:0|0:0,0:0:0:0:
352,232,172735,2,0,L|336:161,1,72,2|2,0:0|0:0,0:0:0:0:
336,161,173343,1,2,0:0:0:0:
200,40,173546,6,0,B|156:140|300:140|232:276,1,252
152,348,175168,6,0,L|80:328,1,72,2|2,0:2|0:0,0:0:0:0:
0,192,175978,2,0,L|69:172,1,72,2|2,0:0|0:0,0:0:0:0:
69,172,176587,1,2,0:0:0:0:
192,84,176789,5,2,0:2:0:0:
148,72,176992,1,2,0:0:0:0:
216,196,177195,2,0,B|288:184|252:124|328:112,1,144,2|0,0:0|0:0,0:0:0:0:
480,344,178411,6,0,P|444:344|420:312,1,72,2|2,0:0|0:0,0:0:0:0:
488,168,179120,1,2,0:0:0:0:
488,168,179222,2,0,P|480:212|476:240,1,72,0|2,0:0|0:0,0:0:0:0:
296,348,180033,5,2,0:0:0:0:
202,297,180235,1,2,0:0:0:0:
302,238,180438,5,2,0:0:0:0:
396,190,180640,1,2,0:0:0:0:
316,40,180843,6,0,P|276:40|248:80,1,90,2|0,0:0|0:0,0:0:0:0:
245,158,181451,1,0,1:0:0:0:
160,352,181654,6,0,P|96:320|32:296,1,135,6|0,1:2|0:0,0:0:0:0:
16,224,182060,2,0,P|61:213|104:200,1,90,2|0,0:3|1:0,0:0:0:0:
316,348,182465,2,0,P|292:312|292:264,1,90,8|0,0:0|0:0,0:0:0:0:
400,192,182871,1,2,0:3:0:0:
512,220,183073,1,0,1:0:0:0:
419,54,183276,5,2,1:2:0:0:
419,54,183478,2,0,B|355:62|387:122|319:134,1,135,2|0,0:0|0:0,0:0:0:0:
255,90,183884,1,2,0:0:0:0:
132,232,184087,2,0,P|84:168|132:88,1,180,8|2,0:0|0:3,0:0:0:0:
192,40,184695,1,0,1:0:0:0:
319,133,184898,6,0,B|383:125|359:65|423:57,1,135,2|0,1:2|0:0,0:0:0:0:
493,96,185303,2,0,P|513:136|493:180,1,90,2|0,1:3|0:0,0:0:0:0:
376,344,185708,2,0,L|288:320,1,90,8|0,0:0|0:0,0:0:0:0:
160,216,186114,1,2,0:3:0:0:
256,176,186316,1,2,1:2:0:0:
356,248,186519,5,8,0:3:0:0:
184,320,186721,1,4,3:3:0:0:
184,120,186925,1,2,1:3:0:0:
384,180,187127,5,4,3:3:0:0:
215,37,187330,2,0,P|147:32|106:82,1,135,8|0,0:0|0:0,0:0:0:0:
80,154,187735,5,4,3:3:0:0:
224,220,187938,1,8,3:3:0:0:
32,352,188141,6,0,B|92:344|72:288|140:280,1,135,2|0,1:2|0:0,0:0:0:0:
216,304,188546,2,0,B|260:308|256:340|296:344,1,90,2|0,0:3|1:0,0:0:0:0:
469,207,188952,2,0,L|384:180,1,90,8|0,0:0|0:0,0:0:0:0:
400,344,189357,1,2,0:3:0:0:
484,312,189560,1,2,1:2:0:0:
264,224,189762,5,2,1:2:0:0:
264,224,189965,2,0,P|232:172|264:112,1,135,2|0,0:0|0:0,0:0:0:0:
320,60,190371,1,2,0:0:0:0:
500,120,190573,2,0,B|413:141|442:33|353:42,1,180,8|2,0:0|0:3,0:0:0:0:
276,36,191181,1,0,1:0:0:0:
260,184,191384,6,0,B|300:232|300:232|260:296,1,135,2|0,1:2|0:0,0:0:0:0:
200,344,191789,2,0,P|152:344|128:312,1,90,2|0,1:3|0:0,0:0:0:0:
272,96,192195,2,0,B|316:68|360:112|332:136|372:180|420:164,1,180,8|2,0:0|0:3,0:0:0:0:
428,24,192803,2,0,L|420:68,1,45,0|0,1:0|0:0,0:0:0:0:
392,239,193006,5,8,0:3:0:0:
512,119,193208,1,4,3:3:0:0:
336,59,193411,1,2,1:3:0:0:
242,155,193614,5,4,3:3:0:0:
174,29,193816,1,8,0:0:0:0:
348,139,194019,1,0,1:0:0:0:
171,229,194222,5,8,0:1:0:0:
261,79,194425,1,0,1:0:0:0:
24,12,194627,6,0,B|-12:64|-12:64|24:128,1,128.249996575356,6|0,1:2|0:0,0:0:0:0:
68,185,195032,1,2,0:3:0:0:
185,111,195235,1,0,0:0:0:0:
242,263,195438,2,0,B|320:236|320:344|393:308,1,170.999995433807,8|2,0:0|0:3,0:0:0:0:
452,256,196046,1,0,1:0:0:0:
348,116,196249,6,0,P|357:155|368:204,1,85.4999977169037,0|0,1:0|0:0,0:0:0:0:
460,116,196654,2,0,P|469:71|479:28,1,85.4999977169037,2|0,1:3|0:0,0:0:0:0:
344,0,197060,2,0,B|293:13|293:13|258:68|258:68|196:84,1,170.999995433807,10|2,0:0|0:3,0:0:0:0:
136,43,197668,1,0,0:0:0:0:
48,196,197870,6,0,P|24:168|24:116,1,85.4999977169037,2|0,1:2|0:0,0:0:0:0:
216,272,198276,2,0,L|128:300,1,85.4999977169037,2|0,0:3|0:0,0:0:0:0:
244,160,198681,2,0,B|332:168|292:244|388:256,1,170.999995433807,8|2,0:0|0:3,0:0:0:0:
448,216,199289,1,0,1:0:0:0:
512,92,199492,5,8,0:3:0:0:
400,32,199695,1,4,3:3:0:0:
300,172,199897,1,2,1:3:0:0:
256,20,200100,5,4,3:3:0:0:
434,104,200303,1,8,0:0:0:0:
280,192,200505,1,0,1:0:0:0:
52,176,200708,5,4,3:3:0:0:
224,96,200911,1,8,3:3:0:0:
360,248,201114,5,2,1:2:0:0:
184,180,201316,1,4,3:3:0:0:
212,364,201519,6,0,P|248:364|276:324,1,85.4999977169037,2|0,0:3|0:0,0:0:0:0:
200,225,201924,2,0,B|107:208|144:301|37:278,1,170.999995433807,8|2,0:0|0:3,0:0:0:0:
12,146,202532,2,0,L|20:102,1,42.7499988584519,0|0,1:0|0:0,0:0:0:0:
98,88,202735,6,0,B|136:98|136:98|166:139|166:139|213:152,1,128.249996575356,2|0,1:2|0:0,0:0:0:0:
283,147,203141,2,0,P|327:105|307:47,1,128.249996575356,2|0,1:3|0:0,0:0:0:0:
242,0,203546,2,0,L|154:28,1,85.4999977169037,10|0,0:0|0:0,0:0:0:0:
12,146,203951,2,0,L|100:174,1,85.4999977169037,2|0,0:3|0:0,0:0:0:0:
192,304,204357,5,2,1:2:0:0:
311,207,204560,1,2,0:0:0:0:
420,341,204762,2,0,P|439:301|430:257,1,85.4999977169037,2|0,0:3|0:0,0:0:0:0:
360,124,205168,5,10,0:0:0:0:
216,184,205370,1,2,0:0:0:0:
224,12,205573,2,0,L|316:40,1,85.4999977169037,2|0,0:3|0:0,0:0:0:0:
464,85,205978,5,8,0:3:0:0:
343,206,206181,1,4,3:3:0:0:
487,288,206384,1,2,1:3:0:0:
403,148,206587,5,4,3:3:0:0:
280,267,206789,1,8,0:0:0:0:
193,168,206992,1,0,1:0:0:0:
322,48,207195,6,0,P|360:48|391:72,1,76.5000014591217,8|0,0:1|0:0,0:0:0:0:
482,230,207600,6,0,B|413:262|365:194|401:166|353:102|285:130,1,252,2|0,0:0|0:0,0:0:0:0:
239,222,209222,6,0,P|163:134|239:42,1,252,2|0,0:0|0:0,0:0:0:0:
339,29,210843,6,0,L|383:39,1,36,2|2,0:0|0:0,0:0:0:0:
397,43,211249,1,2,0:0:0:0:
336,147,211654,2,0,L|292:157,1,36,2|2,0:0|0:0,0:0:0:0:
276,161,212060,1,2,0:0:0:0:
456,344,212465,5,4,0:3:0:0:
429,271,212668,1,8,0:3:0:0:
289,83,213073,5,8,0:3:0:0:
276,161,213276,1,4,0:3:0:0:
192,352,213681,6,0,L|156:344,1,36,8|8,0:3|0:3,0:0:0:0:
82,267,214087,5,2,0:2:0:0:
74,250,214289,1,2,0:2:0:0:
82,237,214492,1,2,0:2:0:0:
142,173,214695,5,2,0:2:0:0:
148,157,214897,1,2,0:2:0:0:
142,144,215100,1,2,0:2:0:0:
258,44,215708,5,2,0:2:0:0:
271,47,215911,1,2,0:2:0:0:
286,52,216114,1,2,0:2:0:0:
355,106,216316,5,2,0:2:0:0:
369,100,216519,1,2,0:2:0:0:
383,95,216722,1,2,0:2:0:0:
439,257,217330,5,2,0:2:0:0:
430,247,217532,1,2,0:2:0:0:
432,237,217735,1,2,0:2:0:0:
471,173,217938,5,2,0:2:0:0:
477,165,218140,1,2,0:2:0:0:
476,154,218343,1,2,0:2:0:0:
352,44,218951,6,0,B|288:16|232:76|280:108|216:180|152:140,1,252
104,40,220573,6,0,L|138:51,1,36,2|2,0:0|0:0,0:0:0:0:
172,60,220978,1,2,0:0:0:0:
292,152,221181,6,0,L|262:159,1,31.4999990386963,2|2,0:0|0:0,0:0:0:0:
237,166,221587,1,2,0:0:0:0:
160,244,221789,6,0,L|186:255,1,26.9999991760254,2|2,0:0|0:0,0:0:0:0:
200,264,222195,1,2,0:0:0:0:
