osu file format v14

[General]
AudioFilename: 01 We Appreciate Power.ogg
AudioLeadIn: 0
PreviewTime: 24887
Countdown: 0
SampleSet: Normal
StackLeniency: 0.7
Mode: 3
LetterboxInBreaks: 0
SpecialStyle: 0
WidescreenStoryboard: 0

[Editor]
DistanceSpacing: 0.8
BeatDivisor: 6
GridSize: 32
TimelineZoom: 3.499999

[Metadata]
Title:We Appreciate Power (feat. HANA)
TitleUnicode:We Appreciate Power (feat. HANA)
Artist:Grimes
ArtistUnicode:Grimes
Creator:Valedict
Version:Amaranth
Source:
Tags:industrial rock electroclash miss anthropocene alternative indie nu metal chris greatti zakk cervini 4ad valedump tim stepmania etterna minty fresh pack 3 mwc19 mania world cup 2019 mwc 2019 electronic english
BeatmapID:2623573
BeatmapSetID:1046589

[Difficulty]
HPDrainRate:8
CircleSize:4
OverallDifficulty:8
ApproachRate:5
SliderMultiplier:1.4
SliderTickRate:1

[Events]
//Background and Video events
0,0,"grime.png",0,0
//Break Periods
2,194112,197156
//Storyboard Layer 0 (Background)
//Storyboard Layer 1 (Fail)
//Storyboard Layer 2 (Pass)
//Storyboard Layer 3 (Foreground)
//Storyboard Layer 4 (Overlay)
//Storyboard Sound Samples

[TimingPoints]
3,555.555555555556,4,1,1,80,1,0
3,-100,4,1,1,80,0,0
3336,-100,4,1,1,75,0,0
42780,-100,4,1,1,70,0,0
47225,-100,4,1,1,75,0,0
51669,-100,4,1,1,70,0,0
56114,-100,4,1,1,75,0,0
60579,555.555556,4,1,1,70,1,0
60579,-100,4,1,1,70,0,0
65023,555.555555555556,4,1,1,70,1,0
65023,-100,4,1,1,75,0,0
69467,-100,4,1,1,70,0,0
73911,-100,4,1,1,75,0,0
77245,-100,4,1,1,80,0,0
78356,-100,4,1,1,70,0,0
95023,-100,4,1,1,75,0,0
96128,555.555555555556,4,1,1,75,1,0
96128,-100,4,1,1,75,0,0
105016,-100,4,1,1,70,0,0
109461,-100,4,1,1,75,0,0
113905,-100,4,1,1,70,0,0
118350,-100,4,1,1,75,0,0
122801,555.555556,4,1,1,70,1,0
122801,-100,4,1,1,70,0,0
127245,555.555555555556,4,1,1,75,1,0
127245,-100,4,1,1,75,0,0
131689,-100,4,1,1,70,0,0
136133,-100,4,1,1,75,0,0
139467,-100,4,1,1,80,0,0
140578,-100,4,1,1,75,0,0
156133,-100,4,1,1,70,0,0
157245,-100,4,1,1,75,0,0
158356,555.555556,4,1,1,35,1,0
158356,-100,4,1,1,35,0,0
193912,555.555555555556,4,1,1,70,1,0
193912,-100,4,1,1,70,0,0
202800,-100,4,1,1,75,0,0
218356,-100,4,1,1,70,0,0
219467,-100,4,1,1,75,0,0
238356,-100,4,1,1,70,0,0
256134,-100,4,1,1,75,0,0
269467,-100,4,1,1,70,0,0
278356,-100,4,1,1,80,0,0
286967,-100,4,1,1,75,0,0

[HitObjects]
192,192,1530,5,0,0:0:0:0:
320,192,1577,1,0,0:0:0:0:
192,192,1623,1,0,0:0:0:0:
64,192,1669,1,0,0:0:0:0:
448,192,1669,1,0,0:0:0:0:
320,192,1715,1,0,0:0:0:0:
192,192,1762,1,0,0:0:0:0:
64,192,1808,1,0,0:0:0:0:
448,192,1808,1,0,0:0:0:0:
320,192,1878,1,0,0:0:0:0:
192,192,1947,1,0,0:0:0:0:
448,192,2016,1,0,0:0:0:0:
192,192,2086,1,0,0:0:0:0:
320,192,2155,1,0,0:0:0:0:
64,192,2225,1,0,0:0:0:0:
448,192,2225,1,0,0:0:0:0:
192,192,2271,1,0,0:0:0:0:
320,192,2317,1,0,0:0:0:0:
64,192,2364,1,0,0:0:0:0:
448,192,2364,1,0,0:0:0:0:
192,192,2433,1,0,0:0:0:0:
320,192,2503,1,0,0:0:0:0:
64,192,2572,1,0,0:0:0:0:
320,192,2641,1,0,0:0:0:0:
192,192,2711,1,0,0:0:0:0:
64,192,2780,1,0,0:0:0:0:
64,192,3336,1,0,0:0:0:0:
192,192,3336,1,0,0:0:0:0:
64,192,3891,1,0,0:0:0:0:
320,192,4308,1,0,0:0:0:0:
448,192,4354,1,0,0:0:0:0:
320,192,4401,1,0,0:0:0:0:
64,192,4447,128,0,4678:0:0:0:0:
192,192,4447,128,0,4678:0:0:0:0:
448,192,5003,128,0,5049:0:0:0:0:
448,192,5095,128,0,5141:0:0:0:0:
448,192,5280,128,0,5558:0:0:0:0:
64,192,5558,1,0,0:0:0:0:
192,192,5558,128,0,5604:0:0:0:0:
320,192,5604,128,0,5651:0:0:0:0:
448,192,5651,128,0,5697:0:0:0:0:
192,192,5697,128,0,5743:0:0:0:0:
320,192,5743,128,0,5790:0:0:0:0:
64,192,6114,1,0,0:0:0:0:
192,192,6160,1,0,0:0:0:0:
64,192,6206,1,0,0:0:0:0:
320,192,6253,1,0,0:0:0:0:
448,192,6299,1,0,0:0:0:0:
192,192,6345,1,0,0:0:0:0:
320,192,6391,1,0,0:0:0:0:
448,192,6461,1,0,0:0:0:0:
192,192,6530,1,0,0:0:0:0:
320,192,6600,1,0,0:0:0:0:
64,192,6669,1,0,0:0:0:0:
192,192,6669,1,0,0:0:0:0:
448,192,6715,1,0,0:0:0:0:
320,192,6762,1,0,0:0:0:0:
192,192,6808,1,0,0:0:0:0:
64,192,6854,1,0,0:0:0:0:
320,192,6901,1,0,0:0:0:0:
64,192,6947,1,0,0:0:0:0:
448,192,6993,1,0,0:0:0:0:
192,192,7040,1,0,0:0:0:0:
320,192,7086,1,0,0:0:0:0:
192,192,7155,1,0,0:0:0:0:
64,192,7225,128,0,7364:0:0:0:0:
64,192,7503,128,0,7641:0:0:0:0:
64,192,7780,128,0,7919:0:0:0:0:
320,192,7780,1,0,0:0:0:0:
64,192,8058,128,0,8197:0:0:0:0:
64,192,8336,128,0,8475:0:0:0:0:
192,192,8614,128,0,8683:0:0:0:0:
192,192,8753,128,0,8822:0:0:0:0:
64,192,8799,1,0,0:0:0:0:
448,192,8845,1,0,0:0:0:0:
192,192,8891,1,0,0:0:0:0:
320,192,8891,128,0,8961:0:0:0:0:
320,192,9030,128,0,9100:0:0:0:0:
448,192,9169,128,0,9239:0:0:0:0:
448,192,9308,128,0,9378:0:0:0:0:
64,192,9447,128,0,9586:0:0:0:0:
64,192,9725,128,0,9864:0:0:0:0:
64,192,10003,128,0,10141:0:0:0:0:
320,192,10003,1,0,0:0:0:0:
64,192,10280,128,0,10419:0:0:0:0:
64,192,10558,128,0,10697:0:0:0:0:
192,192,10836,128,0,10905:0:0:0:0:
192,192,10975,128,0,11044:0:0:0:0:
64,192,11021,1,0,0:0:0:0:
448,192,11067,1,0,0:0:0:0:
192,192,11114,1,0,0:0:0:0:
320,192,11114,128,0,11183:0:0:0:0:
320,192,11253,128,0,11322:0:0:0:0:
448,192,11391,128,0,11461:0:0:0:0:
448,192,11530,128,0,11600:0:0:0:0:
64,192,11669,128,0,11808:0:0:0:0:
320,192,11739,1,0,0:0:0:0:
448,192,11808,1,0,0:0:0:0:
320,192,11878,1,0,0:0:0:0:
64,192,11947,128,0,12086:0:0:0:0:
192,192,12016,1,0,0:0:0:0:
448,192,12086,1,0,0:0:0:0:
192,192,12155,1,0,0:0:0:0:
64,192,12225,128,0,12364:0:0:0:0:
320,192,12225,1,0,0:0:0:0:
448,192,12294,1,0,0:0:0:0:
320,192,12364,1,0,0:0:0:0:
192,192,12433,1,0,0:0:0:0:
64,192,12503,128,0,12641:0:0:0:0:
192,192,12572,1,0,0:0:0:0:
320,192,12641,1,0,0:0:0:0:
448,192,12711,1,0,0:0:0:0:
64,192,12780,128,0,12919:0:0:0:0:
192,192,12850,1,0,0:0:0:0:
448,192,12919,1,0,0:0:0:0:
64,192,12989,1,0,0:0:0:0:
192,192,13058,128,0,13128:0:0:0:0:
320,192,13128,1,0,0:0:0:0:
192,192,13197,128,0,13266:0:0:0:0:
448,192,13243,1,0,0:0:0:0:
64,192,13290,1,0,0:0:0:0:
192,192,13336,1,0,0:0:0:0:
320,192,13336,128,0,13405:0:0:0:0:
448,192,13405,1,0,0:0:0:0:
320,192,13475,128,0,13544:0:0:0:0:
64,192,13544,1,0,0:0:0:0:
448,192,13614,128,0,13683:0:0:0:0:
192,192,13683,1,0,0:0:0:0:
448,192,13753,128,0,13822:0:0:0:0:
320,192,13822,1,0,0:0:0:0:
64,192,13891,128,0,14030:0:0:0:0:
192,192,13961,1,0,0:0:0:0:
448,192,14030,1,0,0:0:0:0:
320,192,14100,1,0,0:0:0:0:
64,192,14169,128,0,14308:0:0:0:0:
192,192,14239,1,0,0:0:0:0:
448,192,14308,1,0,0:0:0:0:
192,192,14378,1,0,0:0:0:0:
64,192,14447,128,0,14586:0:0:0:0:
320,192,14447,1,0,0:0:0:0:
448,192,14516,1,0,0:0:0:0:
320,192,14586,1,0,0:0:0:0:
192,192,14655,1,0,0:0:0:0:
64,192,14725,128,0,14864:0:0:0:0:
192,192,14794,1,0,0:0:0:0:
320,192,14864,1,0,0:0:0:0:
448,192,14933,1,0,0:0:0:0:
64,192,15003,128,0,15141:0:0:0:0:
192,192,15072,1,0,0:0:0:0:
448,192,15141,1,0,0:0:0:0:
64,192,15211,1,0,0:0:0:0:
192,192,15280,128,0,15350:0:0:0:0:
320,192,15350,1,0,0:0:0:0:
192,192,15419,128,0,15489:0:0:0:0:
448,192,15465,1,0,0:0:0:0:
64,192,15512,1,0,0:0:0:0:
192,192,15558,1,0,0:0:0:0:
320,192,15558,128,0,15628:0:0:0:0:
448,192,15628,1,0,0:0:0:0:
320,192,15697,128,0,15766:0:0:0:0:
64,192,15766,1,0,0:0:0:0:
448,192,15836,128,0,15905:0:0:0:0:
192,192,15905,1,0,0:0:0:0:
448,192,15975,128,0,16044:0:0:0:0:
320,192,16044,1,0,0:0:0:0:
64,192,16114,1,0,0:0:0:0:
192,192,16114,1,0,0:0:0:0:
448,192,16183,1,0,0:0:0:0:
64,192,16253,1,0,0:0:0:0:
448,192,16322,1,0,0:0:0:0:
192,192,16391,1,0,0:0:0:0:
320,192,16391,1,0,0:0:0:0:
64,192,16461,1,0,0:0:0:0:
192,192,16530,1,0,0:0:0:0:
448,192,16530,1,0,0:0:0:0:
320,192,16600,1,0,0:0:0:0:
64,192,16669,1,0,0:0:0:0:
320,192,16739,1,0,0:0:0:0:
192,192,16808,1,0,0:0:0:0:
448,192,16808,1,0,0:0:0:0:
64,192,16878,1,0,0:0:0:0:
320,192,16947,1,0,0:0:0:0:
448,192,16947,1,0,0:0:0:0:
192,192,17016,1,0,0:0:0:0:
64,192,17086,1,0,0:0:0:0:
320,192,17155,1,0,0:0:0:0:
192,192,17225,1,0,0:0:0:0:
448,192,17225,1,0,0:0:0:0:
64,192,17294,1,0,0:0:0:0:
448,192,17364,1,0,0:0:0:0:
192,192,17433,1,0,0:0:0:0:
64,192,17503,1,0,0:0:0:0:
320,192,17503,1,0,0:0:0:0:
448,192,17572,1,0,0:0:0:0:
192,192,17641,1,0,0:0:0:0:
448,192,17688,1,0,0:0:0:0:
64,192,17734,1,0,0:0:0:0:
192,192,17780,1,0,0:0:0:0:
320,192,17780,1,0,0:0:0:0:
448,192,17827,1,0,0:0:0:0:
64,192,17850,1,0,0:0:0:0:
192,192,17919,1,0,0:0:0:0:
448,192,17965,1,0,0:0:0:0:
320,192,17989,1,0,0:0:0:0:
64,192,18058,1,0,0:0:0:0:
448,192,18128,1,0,0:0:0:0:
320,192,18151,1,0,0:0:0:0:
192,192,18197,1,0,0:0:0:0:
64,192,18266,1,0,0:0:0:0:
320,192,18336,1,0,0:0:0:0:
448,192,18336,1,0,0:0:0:0:
192,192,18382,1,0,0:0:0:0:
64,192,18405,1,0,0:0:0:0:
320,192,18475,1,0,0:0:0:0:
64,192,18521,1,0,0:0:0:0:
192,192,18544,1,0,0:0:0:0:
448,192,18614,1,0,0:0:0:0:
320,192,18683,1,0,0:0:0:0:
192,192,18706,1,0,0:0:0:0:
64,192,18753,1,0,0:0:0:0:
448,192,18822,1,0,0:0:0:0:
192,192,18891,1,0,0:0:0:0:
320,192,18891,1,0,0:0:0:0:
448,192,18938,1,0,0:0:0:0:
64,192,18961,1,0,0:0:0:0:
320,192,19030,1,0,0:0:0:0:
448,192,19077,1,0,0:0:0:0:
192,192,19100,1,0,0:0:0:0:
64,192,19169,128,0,19308:0:0:0:0:
192,192,19239,1,0,0:0:0:0:
320,192,19308,1,0,0:0:0:0:
448,192,19378,1,0,0:0:0:0:
64,192,19447,128,0,19586:0:0:0:0:
192,192,19516,1,0,0:0:0:0:
448,192,19586,1,0,0:0:0:0:
64,192,19655,1,0,0:0:0:0:
192,192,19725,128,0,19794:0:0:0:0:
320,192,19794,1,0,0:0:0:0:
192,192,19864,128,0,19933:0:0:0:0:
448,192,19910,1,0,0:0:0:0:
64,192,19956,1,0,0:0:0:0:
192,192,20003,1,0,0:0:0:0:
320,192,20003,128,0,20072:0:0:0:0:
448,192,20072,1,0,0:0:0:0:
320,192,20141,128,0,20211:0:0:0:0:
64,192,20211,1,0,0:0:0:0:
448,192,20280,128,0,20350:0:0:0:0:
192,192,20350,1,0,0:0:0:0:
448,192,20419,128,0,20489:0:0:0:0:
320,192,20489,1,0,0:0:0:0:
64,192,20558,1,0,0:0:0:0:
192,192,20558,1,0,0:0:0:0:
448,192,20628,1,0,0:0:0:0:
64,192,20697,1,0,0:0:0:0:
448,192,20766,1,0,0:0:0:0:
192,192,20836,1,0,0:0:0:0:
320,192,20836,1,0,0:0:0:0:
64,192,20905,1,0,0:0:0:0:
192,192,20975,1,0,0:0:0:0:
448,192,20975,1,0,0:0:0:0:
320,192,21044,1,0,0:0:0:0:
64,192,21114,1,0,0:0:0:0:
320,192,21183,1,0,0:0:0:0:
192,192,21253,1,0,0:0:0:0:
448,192,21253,1,0,0:0:0:0:
64,192,21322,1,0,0:0:0:0:
320,192,21391,1,0,0:0:0:0:
448,192,21391,1,0,0:0:0:0:
192,192,21461,1,0,0:0:0:0:
64,192,21530,1,0,0:0:0:0:
320,192,21600,1,0,0:0:0:0:
192,192,21669,1,0,0:0:0:0:
448,192,21669,1,0,0:0:0:0:
64,192,21739,1,0,0:0:0:0:
448,192,21808,1,0,0:0:0:0:
192,192,21878,1,0,0:0:0:0:
64,192,21947,1,0,0:0:0:0:
320,192,21947,1,0,0:0:0:0:
448,192,22016,1,0,0:0:0:0:
192,192,22086,1,0,0:0:0:0:
320,192,22132,1,0,0:0:0:0:
192,192,22178,1,0,0:0:0:0:
64,192,22225,1,0,0:0:0:0:
448,192,22225,1,0,0:0:0:0:
320,192,22294,1,0,0:0:0:0:
192,192,22364,1,0,0:0:0:0:
320,192,22433,1,0,0:0:0:0:
64,192,22503,1,0,0:0:0:0:
192,192,22572,1,0,0:0:0:0:
320,192,22641,1,0,0:0:0:0:
64,192,22711,1,0,0:0:0:0:
448,192,22780,128,0,23058:0:0:0:0:
64,192,23058,128,0,23128:0:0:0:0:
448,192,23197,128,0,23266:0:0:0:0:
64,192,23475,128,0,23544:0:0:0:0:
448,192,23614,128,0,23822:0:0:0:0:
64,192,23891,1,0,0:0:0:0:
448,192,23891,128,0,23961:0:0:0:0:
64,192,24030,1,0,0:0:0:0:
448,192,24030,128,0,24100:0:0:0:0:
192,192,24169,128,0,24447:0:0:0:0:
64,192,24447,1,0,0:0:0:0:
320,192,24447,1,0,0:0:0:0:
448,192,24447,128,0,24516:0:0:0:0:
64,192,24586,1,0,0:0:0:0:
448,192,24586,128,0,24655:0:0:0:0:
192,192,24725,128,0,24864:0:0:0:0:
64,192,25003,1,0,0:0:0:0:
320,192,25003,1,0,0:0:0:0:
448,192,25003,1,0,0:0:0:0:
192,192,25072,1,0,0:0:0:0:
448,192,25141,1,0,0:0:0:0:
64,192,25211,1,0,0:0:0:0:
192,192,25280,1,0,0:0:0:0:
448,192,25280,1,0,0:0:0:0:
320,192,25350,1,0,0:0:0:0:
64,192,25419,1,0,0:0:0:0:
192,192,25489,1,0,0:0:0:0:
64,192,25558,1,0,0:0:0:0:
320,192,25558,1,0,0:0:0:0:
448,192,25558,1,0,0:0:0:0:
192,192,25628,1,0,0:0:0:0:
448,192,25697,1,0,0:0:0:0:
320,192,25766,1,0,0:0:0:0:
64,192,25836,1,0,0:0:0:0:
192,192,25836,1,0,0:0:0:0:
448,192,25836,1,0,0:0:0:0:
320,192,25905,1,0,0:0:0:0:
64,192,25975,1,0,0:0:0:0:
192,192,26044,1,0,0:0:0:0:
64,192,26114,1,0,0:0:0:0:
320,192,26114,1,0,0:0:0:0:
448,192,26114,1,0,0:0:0:0:
192,192,26183,1,0,0:0:0:0:
320,192,26253,1,0,0:0:0:0:
448,192,26322,1,0,0:0:0:0:
64,192,26391,1,0,0:0:0:0:
192,192,26391,1,0,0:0:0:0:
320,192,26461,1,0,0:0:0:0:
192,192,26530,1,0,0:0:0:0:
64,192,26600,1,0,0:0:0:0:
192,192,26669,1,0,0:0:0:0:
320,192,26669,1,0,0:0:0:0:
448,192,26669,1,0,0:0:0:0:
64,192,26739,1,0,0:0:0:0:
320,192,26808,1,0,0:0:0:0:
448,192,26878,1,0,0:0:0:0:
64,192,26947,1,0,0:0:0:0:
192,192,26947,1,0,0:0:0:0:
320,192,26947,1,0,0:0:0:0:
448,192,27016,1,0,0:0:0:0:
64,192,27086,1,0,0:0:0:0:
192,192,27155,1,0,0:0:0:0:
64,192,27225,1,0,0:0:0:0:
320,192,27225,1,0,0:0:0:0:
448,192,27225,1,0,0:0:0:0:
192,192,27294,1,0,0:0:0:0:
448,192,27364,1,0,0:0:0:0:
64,192,27433,1,0,0:0:0:0:
192,192,27503,1,0,0:0:0:0:
320,192,27503,1,0,0:0:0:0:
448,192,27503,1,0,0:0:0:0:
64,192,27572,1,0,0:0:0:0:
320,192,27641,1,0,0:0:0:0:
448,192,27711,1,0,0:0:0:0:
64,192,27780,1,0,0:0:0:0:
192,192,27780,1,0,0:0:0:0:
320,192,27780,1,0,0:0:0:0:
448,192,27850,1,0,0:0:0:0:
192,192,27919,1,0,0:0:0:0:
320,192,27989,1,0,0:0:0:0:
64,192,28058,1,0,0:0:0:0:
192,192,28058,1,0,0:0:0:0:
448,192,28058,1,0,0:0:0:0:
320,192,28128,1,0,0:0:0:0:
64,192,28197,1,0,0:0:0:0:
192,192,28266,1,0,0:0:0:0:
64,192,28336,1,0,0:0:0:0:
320,192,28336,1,0,0:0:0:0:
448,192,28336,1,0,0:0:0:0:
192,192,28405,1,0,0:0:0:0:
448,192,28475,1,0,0:0:0:0:
320,192,28544,1,0,0:0:0:0:
64,192,28614,1,0,0:0:0:0:
192,192,28614,1,0,0:0:0:0:
320,192,28683,1,0,0:0:0:0:
448,192,28753,1,0,0:0:0:0:
192,192,28822,1,0,0:0:0:0:
64,192,28891,1,0,0:0:0:0:
448,192,28891,1,0,0:0:0:0:
320,192,28961,1,0,0:0:0:0:
64,192,29030,1,0,0:0:0:0:
192,192,29100,1,0,0:0:0:0:
320,192,29169,1,0,0:0:0:0:
448,192,29169,1,0,0:0:0:0:
192,192,29239,1,0,0:0:0:0:
64,192,29308,1,0,0:0:0:0:
320,192,29378,1,0,0:0:0:0:
64,192,29447,1,0,0:0:0:0:
192,192,29447,1,0,0:0:0:0:
448,192,29493,1,0,0:0:0:0:
320,192,29540,1,0,0:0:0:0:
64,192,29586,1,0,0:0:0:0:
192,192,29632,1,0,0:0:0:0:
448,192,29678,1,0,0:0:0:0:
320,192,29725,1,0,0:0:0:0:
64,192,29771,1,0,0:0:0:0:
320,192,29817,1,0,0:0:0:0:
192,192,29864,1,0,0:0:0:0:
64,192,29910,1,0,0:0:0:0:
448,192,29956,1,0,0:0:0:0:
192,192,30003,1,0,0:0:0:0:
320,192,30049,1,0,0:0:0:0:
192,192,30095,1,0,0:0:0:0:
64,192,30141,1,0,0:0:0:0:
448,192,30188,1,0,0:0:0:0:
320,192,30234,1,0,0:0:0:0:
192,192,30280,1,0,0:0:0:0:
448,192,30327,1,0,0:0:0:0:
320,192,30373,1,0,0:0:0:0:
448,192,30419,1,0,0:0:0:0:
64,192,30465,1,0,0:0:0:0:
192,192,30512,1,0,0:0:0:0:
320,192,30558,1,0,0:0:0:0:
448,192,30604,1,0,0:0:0:0:
192,192,30651,1,0,0:0:0:0:
64,192,30697,1,0,0:0:0:0:
448,192,30743,1,0,0:0:0:0:
64,192,30790,1,0,0:0:0:0:
192,192,30836,1,0,0:0:0:0:
320,192,30882,1,0,0:0:0:0:
64,192,30975,1,0,0:0:0:0:
192,192,30975,1,0,0:0:0:0:
448,192,31044,1,0,0:0:0:0:
64,192,31114,1,0,0:0:0:0:
192,192,31114,1,0,0:0:0:0:
320,192,31114,1,0,0:0:0:0:
448,192,31183,1,0,0:0:0:0:
64,192,31253,1,0,0:0:0:0:
320,192,31322,1,0,0:0:0:0:
64,192,31391,1,0,0:0:0:0:
448,192,31391,1,0,0:0:0:0:
192,192,31461,1,0,0:0:0:0:
320,192,31530,1,0,0:0:0:0:
64,192,31600,1,0,0:0:0:0:
320,192,31669,1,0,0:0:0:0:
448,192,31715,1,0,0:0:0:0:
192,192,31762,1,0,0:0:0:0:
320,192,31808,1,0,0:0:0:0:
448,192,31854,1,0,0:0:0:0:
192,192,31901,1,0,0:0:0:0:
64,192,31947,1,0,0:0:0:0:
320,192,31993,1,0,0:0:0:0:
192,192,32040,1,0,0:0:0:0:
448,192,32086,1,0,0:0:0:0:
64,192,32132,1,0,0:0:0:0:
320,192,32178,1,0,0:0:0:0:
192,192,32225,1,0,0:0:0:0:
320,192,32271,1,0,0:0:0:0:
448,192,32317,1,0,0:0:0:0:
64,192,32364,1,0,0:0:0:0:
192,192,32410,1,0,0:0:0:0:
320,192,32456,1,0,0:0:0:0:
64,192,32503,1,0,0:0:0:0:
192,192,32549,1,0,0:0:0:0:
64,192,32595,1,0,0:0:0:0:
448,192,32641,1,0,0:0:0:0:
320,192,32688,1,0,0:0:0:0:
192,192,32734,1,0,0:0:0:0:
64,192,32780,1,0,0:0:0:0:
320,192,32827,1,0,0:0:0:0:
192,192,32873,1,0,0:0:0:0:
64,192,32919,1,0,0:0:0:0:
448,192,32965,1,0,0:0:0:0:
320,192,33012,1,0,0:0:0:0:
192,192,33058,1,0,0:0:0:0:
448,192,33104,1,0,0:0:0:0:
64,192,33197,1,0,0:0:0:0:
192,192,33197,1,0,0:0:0:0:
320,192,33266,1,0,0:0:0:0:
64,192,33336,1,0,0:0:0:0:
192,192,33336,1,0,0:0:0:0:
448,192,33336,1,0,0:0:0:0:
320,192,33405,1,0,0:0:0:0:
192,192,33475,1,0,0:0:0:0:
64,192,33544,1,0,0:0:0:0:
192,192,33614,1,0,0:0:0:0:
320,192,33614,1,0,0:0:0:0:
448,192,33614,1,0,0:0:0:0:
64,192,33683,1,0,0:0:0:0:
448,192,33753,1,0,0:0:0:0:
320,192,33822,1,0,0:0:0:0:
64,192,33891,1,0,0:0:0:0:
192,192,33891,1,0,0:0:0:0:
448,192,33891,1,0,0:0:0:0:
320,192,33961,1,0,0:0:0:0:
64,192,34030,1,0,0:0:0:0:
192,192,34100,1,0,0:0:0:0:
64,192,34169,1,0,0:0:0:0:
320,192,34169,1,0,0:0:0:0:
448,192,34169,1,0,0:0:0:0:
192,192,34239,1,0,0:0:0:0:
320,192,34308,1,0,0:0:0:0:
64,192,34378,1,0,0:0:0:0:
192,192,34447,1,0,0:0:0:0:
320,192,34447,1,0,0:0:0:0:
448,192,34447,1,0,0:0:0:0:
64,192,34516,1,0,0:0:0:0:
192,192,34586,1,0,0:0:0:0:
320,192,34655,1,0,0:0:0:0:
64,192,34725,1,0,0:0:0:0:
192,192,34725,1,0,0:0:0:0:
448,192,34725,1,0,0:0:0:0:
320,192,34794,1,0,0:0:0:0:
448,192,34864,1,0,0:0:0:0:
192,192,34933,1,0,0:0:0:0:
64,192,35003,1,0,0:0:0:0:
320,192,35003,1,0,0:0:0:0:
448,192,35003,1,0,0:0:0:0:
192,192,35072,1,0,0:0:0:0:
320,192,35141,1,0,0:0:0:0:
192,192,35211,1,0,0:0:0:0:
64,192,35280,1,0,0:0:0:0:
448,192,35280,1,0,0:0:0:0:
320,192,35350,1,0,0:0:0:0:
192,192,35419,1,0,0:0:0:0:
320,192,35489,1,0,0:0:0:0:
64,192,35558,1,0,0:0:0:0:
192,192,35558,1,0,0:0:0:0:
448,192,35558,1,0,0:0:0:0:
320,192,35628,1,0,0:0:0:0:
64,192,35697,1,0,0:0:0:0:
192,192,35766,1,0,0:0:0:0:
64,192,35836,1,0,0:0:0:0:
320,192,35836,1,0,0:0:0:0:
448,192,35836,1,0,0:0:0:0:
192,192,35905,1,0,0:0:0:0:
320,192,35975,1,0,0:0:0:0:
64,192,36044,1,0,0:0:0:0:
192,192,36114,1,0,0:0:0:0:
320,192,36114,1,0,0:0:0:0:
448,192,36114,1,0,0:0:0:0:
64,192,36183,1,0,0:0:0:0:
192,192,36253,1,0,0:0:0:0:
320,192,36322,1,0,0:0:0:0:
64,192,36391,1,0,0:0:0:0:
192,192,36391,1,0,0:0:0:0:
448,192,36391,1,0,0:0:0:0:
320,192,36461,1,0,0:0:0:0:
448,192,36530,1,0,0:0:0:0:
192,192,36600,1,0,0:0:0:0:
64,192,36669,1,0,0:0:0:0:
320,192,36669,1,0,0:0:0:0:
448,192,36669,1,0,0:0:0:0:
192,192,36739,1,0,0:0:0:0:
64,192,36808,1,0,0:0:0:0:
448,192,36878,1,0,0:0:0:0:
64,192,36947,1,0,0:0:0:0:
192,192,36947,1,0,0:0:0:0:
320,192,36947,1,0,0:0:0:0:
448,192,37016,1,0,0:0:0:0:
320,192,37086,1,0,0:0:0:0:
192,192,37155,1,0,0:0:0:0:
64,192,37225,1,0,0:0:0:0:
320,192,37225,1,0,0:0:0:0:
448,192,37225,1,0,0:0:0:0:
192,192,37294,1,0,0:0:0:0:
448,192,37364,1,0,0:0:0:0:
320,192,37433,1,0,0:0:0:0:
64,192,37503,1,0,0:0:0:0:
192,192,37503,1,0,0:0:0:0:
320,192,37572,1,0,0:0:0:0:
448,192,37641,1,0,0:0:0:0:
192,192,37711,1,0,0:0:0:0:
64,192,37780,1,0,0:0:0:0:
448,192,37780,1,0,0:0:0:0:
320,192,37850,1,0,0:0:0:0:
64,192,37919,1,0,0:0:0:0:
192,192,37989,1,0,0:0:0:0:
320,192,38058,1,0,0:0:0:0:
448,192,38058,1,0,0:0:0:0:
192,192,38128,1,0,0:0:0:0:
64,192,38197,1,0,0:0:0:0:
320,192,38266,1,0,0:0:0:0:
64,192,38336,1,0,0:0:0:0:
448,192,38336,1,0,0:0:0:0:
192,192,38382,1,0,0:0:0:0:
320,192,38428,1,0,0:0:0:0:
64,192,38475,1,0,0:0:0:0:
448,192,38521,1,0,0:0:0:0:
192,192,38567,1,0,0:0:0:0:
320,192,38614,1,0,0:0:0:0:
192,192,38660,1,0,0:0:0:0:
448,192,38706,1,0,0:0:0:0:
64,192,38753,1,0,0:0:0:0:
320,192,38799,1,0,0:0:0:0:
448,192,38845,1,0,0:0:0:0:
192,192,38891,1,0,0:0:0:0:
320,192,38938,1,0,0:0:0:0:
64,192,38984,1,0,0:0:0:0:
448,192,39030,1,0,0:0:0:0:
192,192,39077,1,0,0:0:0:0:
320,192,39123,1,0,0:0:0:0:
448,192,39169,1,0,0:0:0:0:
192,192,39215,1,0,0:0:0:0:
448,192,39262,1,0,0:0:0:0:
64,192,39308,1,0,0:0:0:0:
320,192,39354,1,0,0:0:0:0:
192,192,39401,1,0,0:0:0:0:
448,192,39447,1,0,0:0:0:0:
320,192,39493,1,0,0:0:0:0:
64,192,39540,1,0,0:0:0:0:
448,192,39586,1,0,0:0:0:0:
64,192,39632,1,0,0:0:0:0:
320,192,39678,1,0,0:0:0:0:
192,192,39725,1,0,0:0:0:0:
448,192,39771,1,0,0:0:0:0:
64,192,39864,1,0,0:0:0:0:
192,192,39864,1,0,0:0:0:0:
320,192,39933,1,0,0:0:0:0:
64,192,40003,1,0,0:0:0:0:
192,192,40003,1,0,0:0:0:0:
448,192,40003,1,0,0:0:0:0:
320,192,40072,1,0,0:0:0:0:
64,192,40141,1,0,0:0:0:0:
448,192,40211,1,0,0:0:0:0:
64,192,40280,1,0,0:0:0:0:
192,192,40280,1,0,0:0:0:0:
320,192,40350,1,0,0:0:0:0:
64,192,40419,1,0,0:0:0:0:
448,192,40558,128,0,40836:0:0:0:0:
64,192,40836,128,0,40905:0:0:0:0:
448,192,40975,128,0,41044:0:0:0:0:
64,192,41253,128,0,41322:0:0:0:0:
448,192,41391,128,0,41600:0:0:0:0:
64,192,41669,1,0,0:0:0:0:
448,192,41669,128,0,41739:0:0:0:0:
64,192,41808,1,0,0:0:0:0:
448,192,41808,128,0,41878:0:0:0:0:
192,192,41947,128,0,42225:0:0:0:0:
64,192,42225,1,0,0:0:0:0:
320,192,42225,1,0,0:0:0:0:
448,192,42225,128,0,42294:0:0:0:0:
64,192,42364,1,0,0:0:0:0:
448,192,42364,128,0,42433:0:0:0:0:
192,192,42503,128,0,42641:0:0:0:0:
64,192,42780,128,0,42873:0:0:0:0:
192,192,42780,1,0,0:0:0:0:
448,192,42873,1,0,0:0:0:0:
320,192,42965,1,0,0:0:0:0:
64,192,43058,1,0,0:0:0:0:
320,192,43151,1,0,0:0:0:0:
448,192,43243,1,0,0:0:0:0:
64,192,43336,128,0,43428:0:0:0:0:
192,192,43336,1,0,0:0:0:0:
448,192,43428,1,0,0:0:0:0:
320,192,43521,1,0,0:0:0:0:
64,192,43614,1,0,0:0:0:0:
320,192,43706,1,0,0:0:0:0:
448,192,43799,1,0,0:0:0:0:
64,192,43891,128,0,43984:0:0:0:0:
192,192,43891,128,0,43984:0:0:0:0:
448,192,43984,1,0,0:0:0:0:
320,192,44077,1,0,0:0:0:0:
64,192,44169,1,0,0:0:0:0:
320,192,44262,1,0,0:0:0:0:
448,192,44354,1,0,0:0:0:0:
64,192,44447,128,0,44540:0:0:0:0:
192,192,44447,1,0,0:0:0:0:
448,192,44540,1,0,0:0:0:0:
320,192,44632,1,0,0:0:0:0:
64,192,44725,1,0,0:0:0:0:
320,192,44817,1,0,0:0:0:0:
448,192,44910,1,0,0:0:0:0:
64,192,45003,128,0,45095:0:0:0:0:
192,192,45003,1,0,0:0:0:0:
448,192,45095,1,0,0:0:0:0:
320,192,45188,1,0,0:0:0:0:
192,192,45280,128,0,45373:0:0:0:0:
320,192,45373,1,0,0:0:0:0:
448,192,45465,1,0,0:0:0:0:
64,192,45558,128,0,45651:0:0:0:0:
192,192,45558,1,0,0:0:0:0:
448,192,45651,1,0,0:0:0:0:
320,192,45743,1,0,0:0:0:0:
192,192,45836,128,0,45928:0:0:0:0:
320,192,45928,1,0,0:0:0:0:
448,192,46021,1,0,0:0:0:0:
64,192,46114,128,0,46206:0:0:0:0:
192,192,46114,1,0,0:0:0:0:
448,192,46206,1,0,0:0:0:0:
320,192,46299,1,0,0:0:0:0:
64,192,46391,1,0,0:0:0:0:
320,192,46484,1,0,0:0:0:0:
448,192,46577,1,0,0:0:0:0:
64,192,46669,1,0,0:0:0:0:
192,192,46669,1,0,0:0:0:0:
448,192,46762,1,0,0:0:0:0:
320,192,46854,1,0,0:0:0:0:
64,192,46947,1,0,0:0:0:0:
192,192,46947,1,0,0:0:0:0:
448,192,46947,1,0,0:0:0:0:
320,192,47086,1,0,0:0:0:0:
64,192,47225,1,0,0:0:0:0:
448,192,47225,1,0,0:0:0:0:
192,192,47271,1,0,0:0:0:0:
448,192,47317,1,0,0:0:0:0:
192,192,47364,1,0,0:0:0:0:
320,192,47497,1,0,0:0:0:0:
320,192,47636,1,0,0:0:0:0:
64,192,47780,1,0,0:0:0:0:
448,192,47780,1,0,0:0:0:0:
192,192,47850,1,0,0:0:0:0:
320,192,48058,1,0,0:0:0:0:
192,192,48104,1,0,0:0:0:0:
320,192,48151,1,0,0:0:0:0:
192,192,48197,1,0,0:0:0:0:
64,192,48336,1,0,0:0:0:0:
448,192,48336,1,0,0:0:0:0:
320,192,48405,1,0,0:0:0:0:
192,192,48608,1,0,0:0:0:0:
192,192,48747,1,0,0:0:0:0:
320,192,48891,1,0,0:0:0:0:
448,192,48891,1,0,0:0:0:0:
64,192,48938,1,0,0:0:0:0:
320,192,48984,1,0,0:0:0:0:
64,192,49030,1,0,0:0:0:0:
192,192,49164,1,0,0:0:0:0:
320,192,49303,1,0,0:0:0:0:
64,192,49447,1,0,0:0:0:0:
448,192,49447,1,0,0:0:0:0:
192,192,49493,1,0,0:0:0:0:
448,192,49540,1,0,0:0:0:0:
192,192,49586,1,0,0:0:0:0:
320,192,49719,1,0,0:0:0:0:
320,192,49858,1,0,0:0:0:0:
64,192,50003,1,0,0:0:0:0:
448,192,50003,1,0,0:0:0:0:
192,192,50072,1,0,0:0:0:0:
320,192,50280,1,0,0:0:0:0:
192,192,50327,1,0,0:0:0:0:
320,192,50373,1,0,0:0:0:0:
192,192,50419,1,0,0:0:0:0:
64,192,50558,1,0,0:0:0:0:
448,192,50558,1,0,0:0:0:0:
320,192,50628,1,0,0:0:0:0:
192,192,50831,1,0,0:0:0:0:
192,192,50969,1,0,0:0:0:0:
448,192,51114,1,0,0:0:0:0:
320,192,51114,1,0,0:0:0:0:
64,192,51160,1,0,0:0:0:0:
320,192,51206,1,0,0:0:0:0:
64,192,51253,1,0,0:0:0:0:
192,192,51386,1,0,0:0:0:0:
448,192,51391,1,0,0:0:0:0:
64,192,51391,1,0,0:0:0:0:
192,192,51525,1,0,0:0:0:0:
320,192,51669,1,0,0:0:0:0:
448,192,51669,128,0,51762:0:0:0:0:
64,192,51762,1,0,0:0:0:0:
192,192,51854,1,0,0:0:0:0:
448,192,51947,1,0,0:0:0:0:
192,192,52040,1,0,0:0:0:0:
64,192,52132,1,0,0:0:0:0:
320,192,52225,1,0,0:0:0:0:
448,192,52225,128,0,52317:0:0:0:0:
64,192,52317,1,0,0:0:0:0:
192,192,52410,1,0,0:0:0:0:
448,192,52503,1,0,0:0:0:0:
192,192,52595,1,0,0:0:0:0:
64,192,52688,1,0,0:0:0:0:
320,192,52780,128,0,52873:0:0:0:0:
448,192,52780,128,0,52873:0:0:0:0:
64,192,52873,1,0,0:0:0:0:
192,192,52965,1,0,0:0:0:0:
448,192,53058,1,0,0:0:0:0:
192,192,53151,1,0,0:0:0:0:
64,192,53243,1,0,0:0:0:0:
320,192,53336,1,0,0:0:0:0:
448,192,53336,128,0,53428:0:0:0:0:
64,192,53428,1,0,0:0:0:0:
192,192,53521,1,0,0:0:0:0:
448,192,53614,1,0,0:0:0:0:
192,192,53706,1,0,0:0:0:0:
64,192,53799,1,0,0:0:0:0:
320,192,53891,1,0,0:0:0:0:
448,192,53891,128,0,53984:0:0:0:0:
64,192,53984,1,0,0:0:0:0:
192,192,54077,1,0,0:0:0:0:
320,192,54169,128,0,54262:0:0:0:0:
192,192,54262,1,0,0:0:0:0:
64,192,54354,1,0,0:0:0:0:
320,192,54447,1,0,0:0:0:0:
448,192,54447,128,0,54540:0:0:0:0:
64,192,54540,1,0,0:0:0:0:
192,192,54632,1,0,0:0:0:0:
320,192,54725,128,0,54817:0:0:0:0:
192,192,54817,1,0,0:0:0:0:
64,192,54910,1,0,0:0:0:0:
320,192,55003,1,0,0:0:0:0:
448,192,55003,128,0,55095:0:0:0:0:
64,192,55095,1,0,0:0:0:0:
192,192,55188,1,0,0:0:0:0:
448,192,55280,1,0,0:0:0:0:
192,192,55373,1,0,0:0:0:0:
64,192,55465,1,0,0:0:0:0:
320,192,55558,1,0,0:0:0:0:
448,192,55558,1,0,0:0:0:0:
64,192,55651,1,0,0:0:0:0:
192,192,55743,1,0,0:0:0:0:
64,192,55836,1,0,0:0:0:0:
320,192,55836,1,0,0:0:0:0:
448,192,55836,1,0,0:0:0:0:
64,192,56114,1,0,0:0:0:0:
448,192,56114,1,0,0:0:0:0:
192,192,56160,1,0,0:0:0:0:
448,192,56206,1,0,0:0:0:0:
192,192,56253,1,0,0:0:0:0:
320,192,56386,1,0,0:0:0:0:
320,192,56525,1,0,0:0:0:0:
64,192,56669,1,0,0:0:0:0:
448,192,56669,1,0,0:0:0:0:
192,192,56739,1,0,0:0:0:0:
320,192,56947,1,0,0:0:0:0:
192,192,56993,1,0,0:0:0:0:
320,192,57040,1,0,0:0:0:0:
192,192,57086,1,0,0:0:0:0:
64,192,57225,1,0,0:0:0:0:
448,192,57225,1,0,0:0:0:0:
320,192,57294,1,0,0:0:0:0:
192,192,57497,1,0,0:0:0:0:
192,192,57636,1,0,0:0:0:0:
320,192,57780,1,0,0:0:0:0:
448,192,57780,1,0,0:0:0:0:
64,192,57827,1,0,0:0:0:0:
320,192,57873,1,0,0:0:0:0:
64,192,57919,1,0,0:0:0:0:
192,192,58053,1,0,0:0:0:0:
320,192,58192,1,0,0:0:0:0:
64,192,58336,1,0,0:0:0:0:
448,192,58336,1,0,0:0:0:0:
192,192,58382,1,0,0:0:0:0:
448,192,58428,1,0,0:0:0:0:
192,192,58475,1,0,0:0:0:0:
320,192,58608,1,0,0:0:0:0:
320,192,58747,1,0,0:0:0:0:
64,192,58891,1,0,0:0:0:0:
448,192,58891,1,0,0:0:0:0:
192,192,58961,1,0,0:0:0:0:
64,192,59169,1,0,0:0:0:0:
192,192,59169,1,0,0:0:0:0:
320,192,59273,1,0,0:0:0:0:
448,192,59273,1,0,0:0:0:0:
192,192,59354,1,0,0:0:0:0:
64,192,59447,1,0,0:0:0:0:
448,192,59447,1,0,0:0:0:0:
320,192,59516,1,0,0:0:0:0:
192,192,59719,1,0,0:0:0:0:
320,192,59725,1,0,0:0:0:0:
192,192,59858,1,0,0:0:0:0:
64,192,59864,1,0,0:0:0:0:
448,192,60003,1,0,0:0:0:0:
320,192,60009,1,0,0:0:0:0:
64,192,60141,1,0,0:0:0:0:
448,192,60141,1,0,0:0:0:0:
192,192,60275,1,0,0:0:0:0:
320,192,60280,1,0,0:0:0:0:
192,192,60414,1,0,0:0:0:0:
64,192,60579,1,0,0:0:0:0:
320,192,60579,1,0,0:0:0:0:
448,192,60579,1,0,0:0:0:0:
192,192,60671,1,0,0:0:0:0:
64,192,60717,1,0,0:0:0:0:
448,192,60764,1,0,0:0:0:0:
320,192,60856,1,0,0:0:0:0:
64,192,60949,1,0,0:0:0:0:
192,192,60995,1,0,0:0:0:0:
448,192,61041,1,0,0:0:0:0:
64,192,61134,1,0,0:0:0:0:
320,192,61134,1,0,0:0:0:0:
192,192,61227,1,0,0:0:0:0:
448,192,61273,1,0,0:0:0:0:
64,192,61319,1,0,0:0:0:0:
320,192,61412,1,0,0:0:0:0:
64,192,61504,1,0,0:0:0:0:
192,192,61551,1,0,0:0:0:0:
448,192,61597,1,0,0:0:0:0:
320,192,61690,1,0,0:0:0:0:
192,192,61782,1,0,0:0:0:0:
448,192,61829,1,0,0:0:0:0:
320,192,61875,1,0,0:0:0:0:
64,192,61967,1,0,0:0:0:0:
192,192,62060,1,0,0:0:0:0:
448,192,62106,1,0,0:0:0:0:
64,192,62153,1,0,0:0:0:0:
192,192,62245,1,0,0:0:0:0:
320,192,62245,1,0,0:0:0:0:
448,192,62338,1,0,0:0:0:0:
192,192,62384,1,0,0:0:0:0:
64,192,62430,1,0,0:0:0:0:
320,192,62523,1,0,0:0:0:0:
448,192,62616,1,0,0:0:0:0:
64,192,62662,1,0,0:0:0:0:
192,192,62708,1,0,0:0:0:0:
320,192,62801,1,0,0:0:0:0:
64,192,62893,1,0,0:0:0:0:
192,192,62940,1,0,0:0:0:0:
320,192,62986,1,0,0:0:0:0:
448,192,63079,1,0,0:0:0:0:
192,192,63171,1,0,0:0:0:0:
320,192,63217,1,0,0:0:0:0:
64,192,63264,1,0,0:0:0:0:
192,192,63356,1,0,0:0:0:0:
448,192,63356,1,0,0:0:0:0:
320,192,63449,1,0,0:0:0:0:
64,192,63495,1,0,0:0:0:0:
448,192,63541,1,0,0:0:0:0:
64,192,63634,1,0,0:0:0:0:
192,192,63727,1,0,0:0:0:0:
448,192,63773,1,0,0:0:0:0:
320,192,63819,1,0,0:0:0:0:
192,192,63912,1,0,0:0:0:0:
320,192,64004,1,0,0:0:0:0:
448,192,64051,1,0,0:0:0:0:
64,192,64097,1,0,0:0:0:0:
192,192,64190,1,0,0:0:0:0:
448,192,64282,1,0,0:0:0:0:
320,192,64329,1,0,0:0:0:0:
192,192,64375,1,0,0:0:0:0:
64,192,64467,1,0,0:0:0:0:
448,192,64467,1,0,0:0:0:0:
320,192,64560,1,0,0:0:0:0:
64,192,64606,1,0,0:0:0:0:
192,192,64653,1,0,0:0:0:0:
320,192,64745,1,0,0:0:0:0:
448,192,64838,1,0,0:0:0:0:
192,192,64884,1,0,0:0:0:0:
320,192,64930,1,0,0:0:0:0:
64,192,65023,1,0,0:0:0:0:
448,192,65023,1,0,0:0:0:0:
192,192,65069,1,0,0:0:0:0:
448,192,65115,1,0,0:0:0:0:
192,192,65161,1,0,0:0:0:0:
320,192,65295,1,0,0:0:0:0:
320,192,65434,1,0,0:0:0:0:
64,192,65578,1,0,0:0:0:0:
320,192,65578,1,0,0:0:0:0:
448,192,65578,1,0,0:0:0:0:
192,192,65648,1,0,0:0:0:0:
320,192,65856,1,0,0:0:0:0:
192,192,65902,1,0,0:0:0:0:
320,192,65948,1,0,0:0:0:0:
192,192,65995,1,0,0:0:0:0:
64,192,66134,1,0,0:0:0:0:
448,192,66134,1,0,0:0:0:0:
320,192,66203,1,0,0:0:0:0:
192,192,66406,1,0,0:0:0:0:
192,192,66545,1,0,0:0:0:0:
320,192,66689,1,0,0:0:0:0:
192,192,66689,1,0,0:0:0:0:
448,192,66689,1,0,0:0:0:0:
64,192,66735,1,0,0:0:0:0:
320,192,66782,1,0,0:0:0:0:
64,192,66828,1,0,0:0:0:0:
192,192,66962,1,0,0:0:0:0:
320,192,67101,1,0,0:0:0:0:
64,192,67245,1,0,0:0:0:0:
448,192,67245,1,0,0:0:0:0:
192,192,67291,1,0,0:0:0:0:
448,192,67337,1,0,0:0:0:0:
192,192,67384,1,0,0:0:0:0:
320,192,67517,1,0,0:0:0:0:
320,192,67656,1,0,0:0:0:0:
64,192,67800,1,0,0:0:0:0:
320,192,67800,1,0,0:0:0:0:
448,192,67800,1,0,0:0:0:0:
192,192,67870,1,0,0:0:0:0:
320,192,68078,1,0,0:0:0:0:
192,192,68124,1,0,0:0:0:0:
320,192,68171,1,0,0:0:0:0:
192,192,68217,1,0,0:0:0:0:
64,192,68356,1,0,0:0:0:0:
448,192,68356,1,0,0:0:0:0:
320,192,68425,1,0,0:0:0:0:
192,192,68628,1,0,0:0:0:0:
192,192,68767,1,0,0:0:0:0:
320,192,68911,1,0,0:0:0:0:
192,192,68911,1,0,0:0:0:0:
448,192,68911,1,0,0:0:0:0:
64,192,68958,1,0,0:0:0:0:
320,192,69004,1,0,0:0:0:0:
64,192,69050,1,0,0:0:0:0:
192,192,69184,1,0,0:0:0:0:
64,192,69189,1,0,0:0:0:0:
448,192,69189,1,0,0:0:0:0:
192,192,69323,1,0,0:0:0:0:
64,192,69467,128,0,69560:0:0:0:0:
192,192,69467,1,0,0:0:0:0:
448,192,69560,1,0,0:0:0:0:
320,192,69652,1,0,0:0:0:0:
64,192,69745,1,0,0:0:0:0:
320,192,69837,1,0,0:0:0:0:
448,192,69930,1,0,0:0:0:0:
64,192,70023,1,0,0:0:0:0:
192,192,70023,128,0,70115:0:0:0:0:
448,192,70115,1,0,0:0:0:0:
320,192,70208,1,0,0:0:0:0:
64,192,70300,1,0,0:0:0:0:
320,192,70393,1,0,0:0:0:0:
448,192,70485,1,0,0:0:0:0:
64,192,70578,128,0,70671:0:0:0:0:
192,192,70578,128,0,70671:0:0:0:0:
448,192,70671,1,0,0:0:0:0:
320,192,70763,1,0,0:0:0:0:
64,192,70856,1,0,0:0:0:0:
320,192,70948,1,0,0:0:0:0:
448,192,71041,1,0,0:0:0:0:
64,192,71134,128,0,71226:0:0:0:0:
192,192,71134,1,0,0:0:0:0:
448,192,71226,1,0,0:0:0:0:
320,192,71319,1,0,0:0:0:0:
64,192,71411,1,0,0:0:0:0:
320,192,71504,1,0,0:0:0:0:
448,192,71597,1,0,0:0:0:0:
64,192,71689,128,0,71782:0:0:0:0:
192,192,71689,1,0,0:0:0:0:
448,192,71782,1,0,0:0:0:0:
320,192,71874,1,0,0:0:0:0:
192,192,71967,1,0,0:0:0:0:
320,192,72060,1,0,0:0:0:0:
448,192,72152,1,0,0:0:0:0:
64,192,72245,1,0,0:0:0:0:
192,192,72245,128,0,72337:0:0:0:0:
448,192,72337,1,0,0:0:0:0:
320,192,72430,1,0,0:0:0:0:
64,192,72523,1,0,0:0:0:0:
320,192,72615,1,0,0:0:0:0:
448,192,72708,1,0,0:0:0:0:
64,192,72800,128,0,72893:0:0:0:0:
192,192,72800,1,0,0:0:0:0:
448,192,72893,1,0,0:0:0:0:
320,192,72985,1,0,0:0:0:0:
192,192,73078,1,0,0:0:0:0:
320,192,73171,1,0,0:0:0:0:
448,192,73263,1,0,0:0:0:0:
64,192,73356,1,0,0:0:0:0:
192,192,73356,128,0,73448:0:0:0:0:
320,192,73356,1,0,0:0:0:0:
448,192,73448,1,0,0:0:0:0:
192,192,73541,1,0,0:0:0:0:
64,192,73634,1,0,0:0:0:0:
320,192,73634,1,0,0:0:0:0:
448,192,73634,1,0,0:0:0:0:
192,192,73773,1,0,0:0:0:0:
448,192,73911,1,0,0:0:0:0:
64,192,73911,1,0,0:0:0:0:
192,192,73958,1,0,0:0:0:0:
448,192,74004,1,0,0:0:0:0:
192,192,74050,1,0,0:0:0:0:
320,192,74184,1,0,0:0:0:0:
320,192,74323,1,0,0:0:0:0:
64,192,74467,1,0,0:0:0:0:
320,192,74467,1,0,0:0:0:0:
448,192,74467,1,0,0:0:0:0:
192,192,74536,1,0,0:0:0:0:
320,192,74745,1,0,0:0:0:0:
192,192,74791,1,0,0:0:0:0:
320,192,74837,1,0,0:0:0:0:
192,192,74884,1,0,0:0:0:0:
64,192,75023,1,0,0:0:0:0:
448,192,75023,1,0,0:0:0:0:
320,192,75092,1,0,0:0:0:0:
192,192,75295,1,0,0:0:0:0:
192,192,75434,1,0,0:0:0:0:
320,192,75578,1,0,0:0:0:0:
192,192,75578,1,0,0:0:0:0:
448,192,75578,1,0,0:0:0:0:
64,192,75624,1,0,0:0:0:0:
320,192,75671,1,0,0:0:0:0:
64,192,75717,1,0,0:0:0:0:
192,192,75851,1,0,0:0:0:0:
320,192,75989,1,0,0:0:0:0:
448,192,76134,1,0,0:0:0:0:
192,192,76180,1,0,0:0:0:0:
448,192,76226,1,0,0:0:0:0:
192,192,76273,1,0,0:0:0:0:
64,192,76411,1,0,0:0:0:0:
448,192,76689,1,0,0:0:0:0:
320,192,76967,1,0,0:0:0:0:
192,192,77013,1,0,0:0:0:0:
320,192,77060,1,0,0:0:0:0:
192,192,77106,1,0,0:0:0:0:
64,192,77245,1,0,0:0:0:0:
448,192,77245,1,0,0:0:0:0:
320,192,77291,1,0,0:0:0:0:
192,192,77337,1,0,0:0:0:0:
64,192,77384,1,0,0:0:0:0:
448,192,77384,1,0,0:0:0:0:
320,192,77453,1,0,0:0:0:0:
192,192,77523,1,0,0:0:0:0:
448,192,77592,1,0,0:0:0:0:
192,192,77661,1,0,0:0:0:0:
320,192,77731,1,0,0:0:0:0:
64,192,77800,1,0,0:0:0:0:
448,192,77800,1,0,0:0:0:0:
192,192,77847,1,0,0:0:0:0:
320,192,77893,1,0,0:0:0:0:
64,192,77939,1,0,0:0:0:0:
448,192,77939,1,0,0:0:0:0:
192,192,78009,1,0,0:0:0:0:
320,192,78078,1,0,0:0:0:0:
64,192,78148,1,0,0:0:0:0:
320,192,78217,1,0,0:0:0:0:
192,192,78286,1,0,0:0:0:0:
64,192,78356,128,0,78495:0:0:0:0:
448,192,78425,1,0,0:0:0:0:
64,192,78634,128,0,78773:0:0:0:0:
64,192,78911,128,0,79050:0:0:0:0:
320,192,78911,1,0,0:0:0:0:
448,192,78981,1,0,0:0:0:0:
192,192,79050,1,0,0:0:0:0:
64,192,79189,128,0,79328:0:0:0:0:
64,192,79467,128,0,79606:0:0:0:0:
320,192,79467,1,0,0:0:0:0:
448,192,79536,1,0,0:0:0:0:
192,192,79745,128,0,79814:0:0:0:0:
192,192,79884,128,0,79953:0:0:0:0:
64,192,79930,1,0,0:0:0:0:
448,192,79976,1,0,0:0:0:0:
192,192,80023,1,0,0:0:0:0:
320,192,80023,128,0,80092:0:0:0:0:
64,192,80092,1,0,0:0:0:0:
320,192,80161,128,0,80231:0:0:0:0:
448,192,80300,128,0,80370:0:0:0:0:
192,192,80370,1,0,0:0:0:0:
448,192,80439,128,0,80509:0:0:0:0:
64,192,80578,128,0,80717:0:0:0:0:
320,192,80648,1,0,0:0:0:0:
64,192,80856,128,0,80995:0:0:0:0:
448,192,80925,1,0,0:0:0:0:
64,192,81134,128,0,81273:0:0:0:0:
320,192,81134,1,0,0:0:0:0:
192,192,81203,1,0,0:0:0:0:
64,192,81411,128,0,81550:0:0:0:0:
192,192,81481,1,0,0:0:0:0:
320,192,81550,1,0,0:0:0:0:
448,192,81620,1,0,0:0:0:0:
64,192,81689,128,0,81828:0:0:0:0:
192,192,81689,1,0,0:0:0:0:
320,192,81759,1,0,0:0:0:0:
448,192,81828,1,0,0:0:0:0:
192,192,81967,128,0,82036:0:0:0:0:
192,192,82106,128,0,82175:0:0:0:0:
64,192,82152,1,0,0:0:0:0:
448,192,82198,1,0,0:0:0:0:
192,192,82245,1,0,0:0:0:0:
320,192,82245,128,0,82314:0:0:0:0:
320,192,82384,128,0,82453:0:0:0:0:
448,192,82523,128,0,82592:0:0:0:0:
448,192,82661,128,0,82731:0:0:0:0:
64,192,82800,128,0,82939:0:0:0:0:
320,192,82870,1,0,0:0:0:0:
192,192,82939,1,0,0:0:0:0:
320,192,83009,1,0,0:0:0:0:
64,192,83078,128,0,83217:0:0:0:0:
448,192,83078,1,0,0:0:0:0:
192,192,83148,1,0,0:0:0:0:
448,192,83217,1,0,0:0:0:0:
192,192,83286,1,0,0:0:0:0:
64,192,83356,128,0,83495:0:0:0:0:
320,192,83356,1,0,0:0:0:0:
448,192,83425,1,0,0:0:0:0:
320,192,83495,1,0,0:0:0:0:
192,192,83582,1,0,0:0:0:0:
64,192,83634,128,0,83773:0:0:0:0:
448,192,83634,1,0,0:0:0:0:
320,192,83749,1,0,0:0:0:0:
64,192,83911,128,0,84050:0:0:0:0:
448,192,83911,1,0,0:0:0:0:
320,192,83981,1,0,0:0:0:0:
192,192,84050,1,0,0:0:0:0:
448,192,84120,1,0,0:0:0:0:
192,192,84189,128,0,84259:0:0:0:0:
320,192,84259,1,0,0:0:0:0:
192,192,84328,128,0,84398:0:0:0:0:
64,192,84374,1,0,0:0:0:0:
448,192,84421,1,0,0:0:0:0:
192,192,84467,1,0,0:0:0:0:
320,192,84467,128,0,84536:0:0:0:0:
320,192,84606,128,0,84675:0:0:0:0:
448,192,84745,128,0,84814:0:0:0:0:
448,192,84884,128,0,84953:0:0:0:0:
64,192,85023,128,0,85161:0:0:0:0:
320,192,85092,1,0,0:0:0:0:
192,192,85161,1,0,0:0:0:0:
320,192,85231,1,0,0:0:0:0:
64,192,85300,128,0,85439:0:0:0:0:
448,192,85300,1,0,0:0:0:0:
192,192,85370,1,0,0:0:0:0:
448,192,85439,1,0,0:0:0:0:
192,192,85509,1,0,0:0:0:0:
64,192,85578,128,0,85717:0:0:0:0:
320,192,85578,1,0,0:0:0:0:
448,192,85648,1,0,0:0:0:0:
320,192,85717,1,0,0:0:0:0:
192,192,85804,1,0,0:0:0:0:
64,192,85856,128,0,85995:0:0:0:0:
448,192,85856,1,0,0:0:0:0:
320,192,85960,1,0,0:0:0:0:
64,192,86134,128,0,86273:0:0:0:0:
448,192,86134,1,0,0:0:0:0:
320,192,86203,1,0,0:0:0:0:
192,192,86273,1,0,0:0:0:0:
448,192,86342,1,0,0:0:0:0:
192,192,86411,128,0,86481:0:0:0:0:
320,192,86481,1,0,0:0:0:0:
192,192,86550,128,0,86620:0:0:0:0:
64,192,86597,1,0,0:0:0:0:
448,192,86643,1,0,0:0:0:0:
192,192,86689,1,0,0:0:0:0:
320,192,86689,128,0,86759:0:0:0:0:
320,192,86828,128,0,86898:0:0:0:0:
448,192,86967,128,0,87036:0:0:0:0:
448,192,87106,128,0,87175:0:0:0:0:
64,192,87245,128,0,87384:0:0:0:0:
448,192,87314,1,0,0:0:0:0:
64,192,87523,128,0,87661:0:0:0:0:
64,192,87800,128,0,87939:0:0:0:0:
320,192,87800,1,0,0:0:0:0:
448,192,87870,1,0,0:0:0:0:
192,192,87939,1,0,0:0:0:0:
64,192,88078,128,0,88217:0:0:0:0:
64,192,88356,128,0,88495:0:0:0:0:
320,192,88356,1,0,0:0:0:0:
448,192,88425,1,0,0:0:0:0:
192,192,88634,128,0,88703:0:0:0:0:
192,192,88773,128,0,88842:0:0:0:0:
64,192,88819,1,0,0:0:0:0:
448,192,88865,1,0,0:0:0:0:
192,192,88911,1,0,0:0:0:0:
320,192,88911,128,0,88981:0:0:0:0:
64,192,88981,1,0,0:0:0:0:
320,192,89050,128,0,89120:0:0:0:0:
448,192,89189,128,0,89259:0:0:0:0:
192,192,89259,1,0,0:0:0:0:
448,192,89328,128,0,89398:0:0:0:0:
64,192,89467,128,0,89606:0:0:0:0:
320,192,89536,1,0,0:0:0:0:
64,192,89745,128,0,89884:0:0:0:0:
448,192,89814,1,0,0:0:0:0:
64,192,90023,128,0,90161:0:0:0:0:
320,192,90023,1,0,0:0:0:0:
192,192,90092,1,0,0:0:0:0:
64,192,90300,128,0,90439:0:0:0:0:
192,192,90370,1,0,0:0:0:0:
320,192,90439,1,0,0:0:0:0:
448,192,90509,1,0,0:0:0:0:
64,192,90578,128,0,90717:0:0:0:0:
192,192,90578,1,0,0:0:0:0:
320,192,90648,1,0,0:0:0:0:
448,192,90717,1,0,0:0:0:0:
192,192,90856,128,0,90925:0:0:0:0:
192,192,90995,128,0,91064:0:0:0:0:
64,192,91041,1,0,0:0:0:0:
448,192,91087,1,0,0:0:0:0:
192,192,91134,1,0,0:0:0:0:
320,192,91134,128,0,91203:0:0:0:0:
320,192,91273,128,0,91342:0:0:0:0:
448,192,91411,128,0,91481:0:0:0:0:
448,192,91550,128,0,91620:0:0:0:0:
64,192,91689,128,0,91828:0:0:0:0:
320,192,91759,1,0,0:0:0:0:
192,192,91828,1,0,0:0:0:0:
320,192,91898,1,0,0:0:0:0:
64,192,91967,128,0,92106:0:0:0:0:
448,192,91967,1,0,0:0:0:0:
192,192,92036,1,0,0:0:0:0:
448,192,92106,1,0,0:0:0:0:
192,192,92175,1,0,0:0:0:0:
64,192,92245,128,0,92384:0:0:0:0:
320,192,92245,1,0,0:0:0:0:
448,192,92314,1,0,0:0:0:0:
320,192,92384,1,0,0:0:0:0:
192,192,92470,1,0,0:0:0:0:
64,192,92523,128,0,92661:0:0:0:0:
448,192,92523,1,0,0:0:0:0:
320,192,92638,1,0,0:0:0:0:
64,192,92800,128,0,92939:0:0:0:0:
448,192,92800,1,0,0:0:0:0:
320,192,92870,1,0,0:0:0:0:
192,192,92939,1,0,0:0:0:0:
448,192,93009,1,0,0:0:0:0:
192,192,93078,128,0,93148:0:0:0:0:
320,192,93148,1,0,0:0:0:0:
192,192,93217,128,0,93286:0:0:0:0:
64,192,93263,1,0,0:0:0:0:
448,192,93310,1,0,0:0:0:0:
192,192,93356,1,0,0:0:0:0:
320,192,93356,128,0,93425:0:0:0:0:
320,192,93495,128,0,93564:0:0:0:0:
64,192,93634,128,0,93703:0:0:0:0:
64,192,93773,128,0,93842:0:0:0:0:
448,192,93911,128,0,94189:0:0:0:0:
64,192,94189,128,0,94259:0:0:0:0:
448,192,94328,128,0,94398:0:0:0:0:
64,192,94606,128,0,94675:0:0:0:0:
448,192,94745,128,0,94953:0:0:0:0:
64,192,95023,1,0,0:0:0:0:
448,192,95023,128,0,95092:0:0:0:0:
64,192,95161,1,0,0:0:0:0:
448,192,95161,128,0,95231:0:0:0:0:
192,192,95300,128,0,95578:0:0:0:0:
64,192,95578,1,0,0:0:0:0:
320,192,95578,1,0,0:0:0:0:
448,192,95578,128,0,95648:0:0:0:0:
64,192,95717,1,0,0:0:0:0:
448,192,95717,128,0,95786:0:0:0:0:
192,192,95856,128,0,95995:0:0:0:0:
320,192,96128,1,0,0:0:0:0:
448,192,96128,1,0,0:0:0:0:
64,192,96183,1,0,0:0:0:0:
192,192,96239,1,0,0:0:0:0:
448,192,96294,1,0,0:0:0:0:
320,192,96350,1,0,0:0:0:0:
64,192,96405,1,0,0:0:0:0:
192,192,96475,1,0,0:0:0:0:
320,192,96544,1,0,0:0:0:0:
448,192,96614,1,0,0:0:0:0:
192,192,96683,1,0,0:0:0:0:
64,192,96683,1,0,0:0:0:0:
320,192,96739,1,0,0:0:0:0:
192,192,96794,1,0,0:0:0:0:
448,192,96850,1,0,0:0:0:0:
64,192,96905,1,0,0:0:0:0:
192,192,96961,1,0,0:0:0:0:
320,192,96961,1,0,0:0:0:0:
448,192,97030,1,0,0:0:0:0:
192,192,97100,1,0,0:0:0:0:
64,192,97169,1,0,0:0:0:0:
320,192,97239,1,0,0:0:0:0:
192,192,97308,1,0,0:0:0:0:
320,192,97378,1,0,0:0:0:0:
64,192,97447,1,0,0:0:0:0:
192,192,97516,1,0,0:0:0:0:
448,192,97516,1,0,0:0:0:0:
320,192,97586,1,0,0:0:0:0:
64,192,97655,1,0,0:0:0:0:
192,192,97725,1,0,0:0:0:0:
320,192,97794,1,0,0:0:0:0:
64,192,97794,1,0,0:0:0:0:
448,192,97864,1,0,0:0:0:0:
192,192,97933,1,0,0:0:0:0:
320,192,98003,1,0,0:0:0:0:
192,192,98072,1,0,0:0:0:0:
64,192,98072,1,0,0:0:0:0:
448,192,98141,1,0,0:0:0:0:
64,192,98211,1,0,0:0:0:0:
192,192,98280,1,0,0:0:0:0:
448,192,98350,1,0,0:0:0:0:
320,192,98419,1,0,0:0:0:0:
64,192,98489,1,0,0:0:0:0:
192,192,98558,1,0,0:0:0:0:
320,192,98628,1,0,0:0:0:0:
448,192,98628,1,0,0:0:0:0:
64,192,98683,1,0,0:0:0:0:
192,192,98739,1,0,0:0:0:0:
320,192,98818,1,0,0:0:0:0:
192,192,98905,1,0,0:0:0:0:
64,192,98905,1,0,0:0:0:0:
448,192,98961,1,0,0:0:0:0:
320,192,99016,1,0,0:0:0:0:
64,192,99096,1,0,0:0:0:0:
320,192,99183,1,0,0:0:0:0:
192,192,99183,1,0,0:0:0:0:
64,192,99253,1,0,0:0:0:0:
320,192,99322,1,0,0:0:0:0:
448,192,99391,1,0,0:0:0:0:
64,192,99461,1,0,0:0:0:0:
192,192,99530,1,0,0:0:0:0:
320,192,99600,1,0,0:0:0:0:
64,192,99669,1,0,0:0:0:0:
320,192,99739,1,0,0:0:0:0:
448,192,99739,1,0,0:0:0:0:
192,192,99794,1,0,0:0:0:0:
64,192,99850,1,0,0:0:0:0:
320,192,99930,1,0,0:0:0:0:
192,192,100016,1,0,0:0:0:0:
448,192,100016,1,0,0:0:0:0:
320,192,100072,1,0,0:0:0:0:
64,192,100128,1,0,0:0:0:0:
192,192,100207,1,0,0:0:0:0:
320,192,100294,1,0,0:0:0:0:
64,192,100294,1,0,0:0:0:0:
448,192,100364,1,0,0:0:0:0:
192,192,100433,1,0,0:0:0:0:
320,192,100503,1,0,0:0:0:0:
192,192,100572,1,0,0:0:0:0:
64,192,100572,1,0,0:0:0:0:
448,192,100624,1,0,0:0:0:0:
320,192,100641,1,0,0:0:0:0:
192,192,100711,1,0,0:0:0:0:
448,192,100763,1,0,0:0:0:0:
64,192,100780,1,0,0:0:0:0:
320,192,100850,1,0,0:0:0:0:
448,192,100919,1,0,0:0:0:0:
64,192,100954,1,0,0:0:0:0:
192,192,100989,1,0,0:0:0:0:
320,192,101058,1,0,0:0:0:0:
448,192,101128,1,0,0:0:0:0:
192,192,101180,1,0,0:0:0:0:
64,192,101197,1,0,0:0:0:0:
320,192,101266,1,0,0:0:0:0:
64,192,101318,1,0,0:0:0:0:
192,192,101336,1,0,0:0:0:0:
448,192,101405,1,0,0:0:0:0:
320,192,101475,1,0,0:0:0:0:
192,192,101509,1,0,0:0:0:0:
64,192,101544,1,0,0:0:0:0:
448,192,101614,1,0,0:0:0:0:
320,192,101683,1,0,0:0:0:0:
192,192,101683,1,0,0:0:0:0:
448,192,101735,1,0,0:0:0:0:
64,192,101753,1,0,0:0:0:0:
320,192,101822,1,0,0:0:0:0:
448,192,101874,1,0,0:0:0:0:
64,192,101891,1,0,0:0:0:0:
192,192,101961,1,0,0:0:0:0:
448,192,102030,1,0,0:0:0:0:
320,192,102100,1,0,0:0:0:0:
64,192,102100,1,0,0:0:0:0:
192,192,102169,1,0,0:0:0:0:
64,192,102239,1,0,0:0:0:0:
320,192,102239,1,0,0:0:0:0:
448,192,102239,1,0,0:0:0:0:
192,192,102308,1,0,0:0:0:0:
448,192,102378,1,0,0:0:0:0:
320,192,102447,1,0,0:0:0:0:
192,192,102516,1,0,0:0:0:0:
320,192,102586,1,0,0:0:0:0:
448,192,102655,1,0,0:0:0:0:
64,192,102725,1,0,0:0:0:0:
192,192,102794,1,0,0:0:0:0:
320,192,102794,128,0,102864:0:0:0:0:
448,192,102864,128,0,102933:0:0:0:0:
64,192,102933,128,0,103003:0:0:0:0:
192,192,103003,128,0,103072:0:0:0:0:
320,192,103072,128,0,103141:0:0:0:0:
448,192,103072,1,0,0:0:0:0:
64,192,103141,128,0,103211:0:0:0:0:
448,192,103211,128,0,103280:0:0:0:0:
192,192,103280,128,0,103350:0:0:0:0:
64,192,103350,1,0,0:0:0:0:
320,192,103350,128,0,103419:0:0:0:0:
448,192,103419,128,0,103489:0:0:0:0:
192,192,103489,128,0,103558:0:0:0:0:
320,192,103558,128,0,103628:0:0:0:0:
64,192,103628,128,0,103697:0:0:0:0:
448,192,103628,1,0,0:0:0:0:
192,192,103697,128,0,103766:0:0:0:0:
320,192,103766,128,0,103836:0:0:0:0:
448,192,103836,128,0,103905:0:0:0:0:
64,192,103905,128,0,103975:0:0:0:0:
192,192,103975,128,0,104044:0:0:0:0:
320,192,104044,128,0,104114:0:0:0:0:
448,192,104114,128,0,104183:0:0:0:0:
64,192,104183,128,0,104253:0:0:0:0:
192,192,104183,1,0,0:0:0:0:
320,192,104253,128,0,104322:0:0:0:0:
192,192,104322,128,0,104391:0:0:0:0:
448,192,104391,128,0,104461:0:0:0:0:
64,192,104461,128,0,104530:0:0:0:0:
320,192,104461,1,0,0:0:0:0:
192,192,104530,128,0,104600:0:0:0:0:
320,192,104600,128,0,104669:0:0:0:0:
448,192,104669,128,0,104739:0:0:0:0:
64,192,104739,128,0,104808:0:0:0:0:
192,192,104808,128,0,104878:0:0:0:0:
320,192,104878,128,0,104947:0:0:0:0:
448,192,104947,128,0,105016:0:0:0:0:
64,192,105016,128,0,105109:0:0:0:0:
192,192,105016,128,0,105109:0:0:0:0:
448,192,105109,1,0,0:0:0:0:
320,192,105202,1,0,0:0:0:0:
64,192,105294,1,0,0:0:0:0:
320,192,105387,1,0,0:0:0:0:
448,192,105479,1,0,0:0:0:0:
64,192,105572,128,0,105665:0:0:0:0:
192,192,105572,1,0,0:0:0:0:
448,192,105665,1,0,0:0:0:0:
320,192,105757,1,0,0:0:0:0:
64,192,105850,1,0,0:0:0:0:
320,192,105942,1,0,0:0:0:0:
448,192,106035,1,0,0:0:0:0:
64,192,106128,128,0,106220:0:0:0:0:
192,192,106128,128,0,106220:0:0:0:0:
448,192,106220,1,0,0:0:0:0:
320,192,106313,1,0,0:0:0:0:
64,192,106405,1,0,0:0:0:0:
320,192,106498,1,0,0:0:0:0:
448,192,106590,1,0,0:0:0:0:
64,192,106683,128,0,106776:0:0:0:0:
192,192,106683,1,0,0:0:0:0:
448,192,106776,1,0,0:0:0:0:
320,192,106868,1,0,0:0:0:0:
64,192,106961,1,0,0:0:0:0:
320,192,107053,1,0,0:0:0:0:
448,192,107146,1,0,0:0:0:0:
64,192,107239,128,0,107331:0:0:0:0:
192,192,107239,1,0,0:0:0:0:
448,192,107331,1,0,0:0:0:0:
320,192,107424,1,0,0:0:0:0:
192,192,107516,128,0,107609:0:0:0:0:
320,192,107609,1,0,0:0:0:0:
448,192,107702,1,0,0:0:0:0:
64,192,107794,128,0,107887:0:0:0:0:
192,192,107794,1,0,0:0:0:0:
448,192,107887,1,0,0:0:0:0:
320,192,107979,1,0,0:0:0:0:
192,192,108072,128,0,108165:0:0:0:0:
320,192,108165,1,0,0:0:0:0:
448,192,108257,1,0,0:0:0:0:
64,192,108350,128,0,108442:0:0:0:0:
192,192,108350,1,0,0:0:0:0:
448,192,108442,1,0,0:0:0:0:
320,192,108535,1,0,0:0:0:0:
64,192,108628,1,0,0:0:0:0:
320,192,108720,1,0,0:0:0:0:
448,192,108813,1,0,0:0:0:0:
64,192,108905,1,0,0:0:0:0:
192,192,108905,1,0,0:0:0:0:
448,192,108998,1,0,0:0:0:0:
320,192,109090,1,0,0:0:0:0:
64,192,109183,1,0,0:0:0:0:
192,192,109183,1,0,0:0:0:0:
448,192,109183,1,0,0:0:0:0:
320,192,109322,1,0,0:0:0:0:
64,192,109461,1,0,0:0:0:0:
448,192,109461,1,0,0:0:0:0:
192,192,109507,1,0,0:0:0:0:
448,192,109553,1,0,0:0:0:0:
192,192,109600,1,0,0:0:0:0:
320,192,109739,1,0,0:0:0:0:
320,192,109878,1,0,0:0:0:0:
64,192,109924,1,0,0:0:0:0:
192,192,109970,1,0,0:0:0:0:
320,192,110016,1,0,0:0:0:0:
448,192,110016,1,0,0:0:0:0:
64,192,110063,1,0,0:0:0:0:
320,192,110109,1,0,0:0:0:0:
448,192,110155,1,0,0:0:0:0:
192,192,110202,1,0,0:0:0:0:
320,192,110248,1,0,0:0:0:0:
64,192,110294,1,0,0:0:0:0:
448,192,110340,1,0,0:0:0:0:
192,192,110387,1,0,0:0:0:0:
64,192,110433,1,0,0:0:0:0:
320,192,110479,1,0,0:0:0:0:
448,192,110526,1,0,0:0:0:0:
64,192,110572,1,0,0:0:0:0:
192,192,110572,1,0,0:0:0:0:
320,192,110641,1,0,0:0:0:0:
192,192,110850,1,0,0:0:0:0:
192,192,110989,1,0,0:0:0:0:
448,192,111128,1,0,0:0:0:0:
320,192,111128,1,0,0:0:0:0:
64,192,111174,1,0,0:0:0:0:
320,192,111220,1,0,0:0:0:0:
64,192,111266,1,0,0:0:0:0:
192,192,111405,1,0,0:0:0:0:
320,192,111544,1,0,0:0:0:0:
448,192,111683,1,0,0:0:0:0:
192,192,111729,1,0,0:0:0:0:
448,192,111776,1,0,0:0:0:0:
192,192,111822,1,0,0:0:0:0:
320,192,111961,1,0,0:0:0:0:
320,192,112100,1,0,0:0:0:0:
64,192,112239,1,0,0:0:0:0:
192,192,112308,1,0,0:0:0:0:
320,192,112516,1,0,0:0:0:0:
192,192,112563,1,0,0:0:0:0:
320,192,112609,1,0,0:0:0:0:
192,192,112655,1,0,0:0:0:0:
448,192,112794,1,0,0:0:0:0:
320,192,112864,1,0,0:0:0:0:
192,192,113072,1,0,0:0:0:0:
192,192,113211,1,0,0:0:0:0:
320,192,113350,1,0,0:0:0:0:
64,192,113396,1,0,0:0:0:0:
320,192,113442,1,0,0:0:0:0:
64,192,113489,1,0,0:0:0:0:
192,192,113628,1,0,0:0:0:0:
64,192,113634,1,0,0:0:0:0:
448,192,113634,1,0,0:0:0:0:
192,192,113766,1,0,0:0:0:0:
320,192,113905,128,0,113998:0:0:0:0:
448,192,113905,128,0,113998:0:0:0:0:
64,192,113998,1,0,0:0:0:0:
192,192,114090,1,0,0:0:0:0:
448,192,114183,1,0,0:0:0:0:
192,192,114276,1,0,0:0:0:0:
64,192,114368,1,0,0:0:0:0:
320,192,114461,1,0,0:0:0:0:
448,192,114461,128,0,114553:0:0:0:0:
64,192,114553,1,0,0:0:0:0:
192,192,114646,1,0,0:0:0:0:
448,192,114739,1,0,0:0:0:0:
192,192,114831,1,0,0:0:0:0:
64,192,114924,1,0,0:0:0:0:
320,192,115016,128,0,115109:0:0:0:0:
448,192,115016,128,0,115109:0:0:0:0:
64,192,115109,1,0,0:0:0:0:
192,192,115202,1,0,0:0:0:0:
448,192,115294,1,0,0:0:0:0:
192,192,115387,1,0,0:0:0:0:
64,192,115479,1,0,0:0:0:0:
320,192,115572,1,0,0:0:0:0:
448,192,115572,128,0,115665:0:0:0:0:
64,192,115665,1,0,0:0:0:0:
192,192,115757,1,0,0:0:0:0:
448,192,115850,1,0,0:0:0:0:
192,192,115942,1,0,0:0:0:0:
64,192,116035,1,0,0:0:0:0:
320,192,116128,1,0,0:0:0:0:
448,192,116128,128,0,116220:0:0:0:0:
64,192,116220,1,0,0:0:0:0:
192,192,116313,1,0,0:0:0:0:
320,192,116405,128,0,116498:0:0:0:0:
192,192,116498,1,0,0:0:0:0:
64,192,116590,1,0,0:0:0:0:
320,192,116683,1,0,0:0:0:0:
448,192,116683,128,0,116776:0:0:0:0:
64,192,116776,1,0,0:0:0:0:
192,192,116868,1,0,0:0:0:0:
320,192,116961,128,0,117053:0:0:0:0:
192,192,117053,1,0,0:0:0:0:
64,192,117146,1,0,0:0:0:0:
320,192,117239,1,0,0:0:0:0:
448,192,117239,128,0,117331:0:0:0:0:
64,192,117331,1,0,0:0:0:0:
192,192,117424,1,0,0:0:0:0:
320,192,117516,1,0,0:0:0:0:
192,192,117609,1,0,0:0:0:0:
64,192,117702,1,0,0:0:0:0:
320,192,117794,1,0,0:0:0:0:
448,192,117794,1,0,0:0:0:0:
64,192,117887,1,0,0:0:0:0:
192,192,117979,1,0,0:0:0:0:
64,192,118072,1,0,0:0:0:0:
320,192,118072,1,0,0:0:0:0:
448,192,118072,1,0,0:0:0:0:
192,192,118211,1,0,0:0:0:0:
64,192,118350,1,0,0:0:0:0:
448,192,118350,1,0,0:0:0:0:
192,192,118396,1,0,0:0:0:0:
448,192,118442,1,0,0:0:0:0:
192,192,118489,1,0,0:0:0:0:
320,192,118622,1,0,0:0:0:0:
320,192,118761,1,0,0:0:0:0:
64,192,118905,1,0,0:0:0:0:
448,192,118905,1,0,0:0:0:0:
192,192,118975,1,0,0:0:0:0:
320,192,119183,1,0,0:0:0:0:
192,192,119229,1,0,0:0:0:0:
320,192,119276,1,0,0:0:0:0:
192,192,119322,1,0,0:0:0:0:
64,192,119461,1,0,0:0:0:0:
448,192,119461,1,0,0:0:0:0:
320,192,119530,1,0,0:0:0:0:
192,192,119733,1,0,0:0:0:0:
192,192,119872,1,0,0:0:0:0:
320,192,120016,1,0,0:0:0:0:
448,192,120016,1,0,0:0:0:0:
64,192,120063,1,0,0:0:0:0:
320,192,120109,1,0,0:0:0:0:
64,192,120155,1,0,0:0:0:0:
192,192,120289,1,0,0:0:0:0:
320,192,120428,1,0,0:0:0:0:
64,192,120572,1,0,0:0:0:0:
448,192,120572,1,0,0:0:0:0:
192,192,120618,1,0,0:0:0:0:
448,192,120665,1,0,0:0:0:0:
192,192,120711,1,0,0:0:0:0:
320,192,120844,1,0,0:0:0:0:
320,192,120983,1,0,0:0:0:0:
64,192,121128,1,0,0:0:0:0:
448,192,121128,1,0,0:0:0:0:
192,192,121197,1,0,0:0:0:0:
64,192,121405,1,0,0:0:0:0:
192,192,121405,1,0,0:0:0:0:
320,192,121509,1,0,0:0:0:0:
448,192,121509,1,0,0:0:0:0:
192,192,121590,1,0,0:0:0:0:
64,192,121683,1,0,0:0:0:0:
448,192,121683,1,0,0:0:0:0:
320,192,121753,1,0,0:0:0:0:
192,192,121955,1,0,0:0:0:0:
320,192,121961,1,0,0:0:0:0:
192,192,122094,1,0,0:0:0:0:
64,192,122100,1,0,0:0:0:0:
448,192,122239,1,0,0:0:0:0:
320,192,122245,1,0,0:0:0:0:
64,192,122378,1,0,0:0:0:0:
448,192,122378,1,0,0:0:0:0:
192,192,122511,1,0,0:0:0:0:
320,192,122516,1,0,0:0:0:0:
192,192,122650,1,0,0:0:0:0:
64,192,122801,1,0,0:0:0:0:
192,192,122801,1,0,0:0:0:0:
448,192,122801,1,0,0:0:0:0:
320,192,122893,1,0,0:0:0:0:
448,192,122939,1,0,0:0:0:0:
64,192,122986,1,0,0:0:0:0:
192,192,123078,1,0,0:0:0:0:
448,192,123171,1,0,0:0:0:0:
320,192,123217,1,0,0:0:0:0:
64,192,123263,1,0,0:0:0:0:
192,192,123356,1,0,0:0:0:0:
448,192,123356,1,0,0:0:0:0:
320,192,123449,1,0,0:0:0:0:
64,192,123495,1,0,0:0:0:0:
448,192,123541,1,0,0:0:0:0:
192,192,123634,1,0,0:0:0:0:
448,192,123726,1,0,0:0:0:0:
320,192,123773,1,0,0:0:0:0:
64,192,123819,1,0,0:0:0:0:
192,192,123912,1,0,0:0:0:0:
320,192,124004,1,0,0:0:0:0:
64,192,124051,1,0,0:0:0:0:
192,192,124097,1,0,0:0:0:0:
448,192,124189,1,0,0:0:0:0:
320,192,124282,1,0,0:0:0:0:
64,192,124328,1,0,0:0:0:0:
448,192,124375,1,0,0:0:0:0:
192,192,124467,1,0,0:0:0:0:
320,192,124467,1,0,0:0:0:0:
64,192,124560,1,0,0:0:0:0:
320,192,124606,1,0,0:0:0:0:
448,192,124652,1,0,0:0:0:0:
192,192,124745,1,0,0:0:0:0:
64,192,124838,1,0,0:0:0:0:
448,192,124884,1,0,0:0:0:0:
320,192,124930,1,0,0:0:0:0:
192,192,125023,1,0,0:0:0:0:
448,192,125115,1,0,0:0:0:0:
320,192,125162,1,0,0:0:0:0:
192,192,125208,1,0,0:0:0:0:
64,192,125301,1,0,0:0:0:0:
320,192,125393,1,0,0:0:0:0:
192,192,125439,1,0,0:0:0:0:
448,192,125486,1,0,0:0:0:0:
64,192,125578,1,0,0:0:0:0:
320,192,125578,1,0,0:0:0:0:
192,192,125671,1,0,0:0:0:0:
448,192,125717,1,0,0:0:0:0:
64,192,125763,1,0,0:0:0:0:
448,192,125856,1,0,0:0:0:0:
320,192,125949,1,0,0:0:0:0:
64,192,125995,1,0,0:0:0:0:
192,192,126041,1,0,0:0:0:0:
320,192,126134,1,0,0:0:0:0:
192,192,126226,1,0,0:0:0:0:
64,192,126273,1,0,0:0:0:0:
448,192,126319,1,0,0:0:0:0:
320,192,126412,1,0,0:0:0:0:
64,192,126504,1,0,0:0:0:0:
192,192,126551,1,0,0:0:0:0:
320,192,126597,1,0,0:0:0:0:
64,192,126689,1,0,0:0:0:0:
448,192,126689,1,0,0:0:0:0:
192,192,126782,1,0,0:0:0:0:
448,192,126828,1,0,0:0:0:0:
320,192,126875,1,0,0:0:0:0:
192,192,126967,1,0,0:0:0:0:
64,192,127060,1,0,0:0:0:0:
320,192,127106,1,0,0:0:0:0:
192,192,127152,1,0,0:0:0:0:
64,192,127245,1,0,0:0:0:0:
448,192,127245,1,0,0:0:0:0:
192,192,127291,1,0,0:0:0:0:
448,192,127337,1,0,0:0:0:0:
192,192,127383,1,0,0:0:0:0:
320,192,127517,1,0,0:0:0:0:
320,192,127656,1,0,0:0:0:0:
64,192,127800,1,0,0:0:0:0:
320,192,127800,1,0,0:0:0:0:
448,192,127800,1,0,0:0:0:0:
192,192,127870,1,0,0:0:0:0:
320,192,128078,1,0,0:0:0:0:
192,192,128124,1,0,0:0:0:0:
320,192,128170,1,0,0:0:0:0:
192,192,128217,1,0,0:0:0:0:
64,192,128356,1,0,0:0:0:0:
448,192,128356,1,0,0:0:0:0:
320,192,128425,1,0,0:0:0:0:
192,192,128628,1,0,0:0:0:0:
192,192,128767,1,0,0:0:0:0:
320,192,128911,1,0,0:0:0:0:
192,192,128911,1,0,0:0:0:0:
448,192,128911,1,0,0:0:0:0:
64,192,128957,1,0,0:0:0:0:
320,192,129004,1,0,0:0:0:0:
64,192,129050,1,0,0:0:0:0:
192,192,129184,1,0,0:0:0:0:
320,192,129323,1,0,0:0:0:0:
64,192,129467,1,0,0:0:0:0:
448,192,129467,1,0,0:0:0:0:
192,192,129513,1,0,0:0:0:0:
448,192,129559,1,0,0:0:0:0:
192,192,129606,1,0,0:0:0:0:
320,192,129739,1,0,0:0:0:0:
320,192,129878,1,0,0:0:0:0:
64,192,130022,1,0,0:0:0:0:
320,192,130022,1,0,0:0:0:0:
448,192,130022,1,0,0:0:0:0:
192,192,130092,1,0,0:0:0:0:
320,192,130300,1,0,0:0:0:0:
192,192,130346,1,0,0:0:0:0:
320,192,130393,1,0,0:0:0:0:
192,192,130439,1,0,0:0:0:0:
64,192,130578,1,0,0:0:0:0:
448,192,130578,1,0,0:0:0:0:
320,192,130647,1,0,0:0:0:0:
192,192,130851,1,0,0:0:0:0:
192,192,130989,1,0,0:0:0:0:
320,192,131133,1,0,0:0:0:0:
192,192,131133,1,0,0:0:0:0:
448,192,131133,1,0,0:0:0:0:
64,192,131180,1,0,0:0:0:0:
320,192,131226,1,0,0:0:0:0:
64,192,131272,1,0,0:0:0:0:
192,192,131406,1,0,0:0:0:0:
448,192,131411,1,0,0:0:0:0:
64,192,131411,1,0,0:0:0:0:
192,192,131545,1,0,0:0:0:0:
64,192,131689,128,0,131782:0:0:0:0:
192,192,131689,1,0,0:0:0:0:
448,192,131782,1,0,0:0:0:0:
320,192,131874,1,0,0:0:0:0:
64,192,131967,1,0,0:0:0:0:
320,192,132059,1,0,0:0:0:0:
448,192,132152,1,0,0:0:0:0:
64,192,132245,128,0,132337:0:0:0:0:
192,192,132245,1,0,0:0:0:0:
448,192,132337,1,0,0:0:0:0:
320,192,132430,1,0,0:0:0:0:
64,192,132522,1,0,0:0:0:0:
320,192,132615,1,0,0:0:0:0:
448,192,132707,1,0,0:0:0:0:
64,192,132800,128,0,132893:0:0:0:0:
192,192,132800,128,0,132893:0:0:0:0:
448,192,132893,1,0,0:0:0:0:
320,192,132985,1,0,0:0:0:0:
64,192,133078,1,0,0:0:0:0:
320,192,133170,1,0,0:0:0:0:
448,192,133263,1,0,0:0:0:0:
64,192,133356,128,0,133448:0:0:0:0:
192,192,133356,1,0,0:0:0:0:
448,192,133448,1,0,0:0:0:0:
320,192,133541,1,0,0:0:0:0:
64,192,133633,1,0,0:0:0:0:
320,192,133726,1,0,0:0:0:0:
448,192,133819,1,0,0:0:0:0:
192,192,133911,1,0,0:0:0:0:
64,192,133911,1,0,0:0:0:0:
448,192,134004,1,0,0:0:0:0:
320,192,134096,1,0,0:0:0:0:
192,192,134189,128,0,134282:0:0:0:0:
320,192,134282,1,0,0:0:0:0:
448,192,134374,1,0,0:0:0:0:
192,192,134467,1,0,0:0:0:0:
64,192,134467,1,0,0:0:0:0:
448,192,134559,1,0,0:0:0:0:
320,192,134652,1,0,0:0:0:0:
192,192,134745,128,0,134837:0:0:0:0:
320,192,134837,1,0,0:0:0:0:
448,192,134930,1,0,0:0:0:0:
64,192,135022,128,0,135115:0:0:0:0:
192,192,135022,1,0,0:0:0:0:
320,192,135069,1,0,0:0:0:0:
448,192,135115,1,0,0:0:0:0:
320,192,135207,1,0,0:0:0:0:
64,192,135300,1,0,0:0:0:0:
320,192,135393,1,0,0:0:0:0:
448,192,135485,1,0,0:0:0:0:
192,192,135578,1,0,0:0:0:0:
64,192,135578,128,0,135670:0:0:0:0:
320,192,135624,1,0,0:0:0:0:
448,192,135670,1,0,0:0:0:0:
320,192,135763,1,0,0:0:0:0:
64,192,135856,1,0,0:0:0:0:
192,192,135856,1,0,0:0:0:0:
448,192,135856,1,0,0:0:0:0:
320,192,135995,1,0,0:0:0:0:
448,192,136133,1,0,0:0:0:0:
64,192,136133,1,0,0:0:0:0:
192,192,136180,1,0,0:0:0:0:
448,192,136226,1,0,0:0:0:0:
192,192,136272,1,0,0:0:0:0:
320,192,136406,1,0,0:0:0:0:
320,192,136545,1,0,0:0:0:0:
64,192,136689,1,0,0:0:0:0:
320,192,136689,1,0,0:0:0:0:
448,192,136689,1,0,0:0:0:0:
192,192,136758,1,0,0:0:0:0:
320,192,136967,1,0,0:0:0:0:
192,192,137013,1,0,0:0:0:0:
320,192,137059,1,0,0:0:0:0:
192,192,137106,1,0,0:0:0:0:
64,192,137245,1,0,0:0:0:0:
448,192,137245,1,0,0:0:0:0:
320,192,137314,1,0,0:0:0:0:
192,192,137517,1,0,0:0:0:0:
192,192,137656,1,0,0:0:0:0:
320,192,137800,1,0,0:0:0:0:
192,192,137800,1,0,0:0:0:0:
448,192,137800,1,0,0:0:0:0:
64,192,137846,1,0,0:0:0:0:
320,192,137893,1,0,0:0:0:0:
64,192,137939,1,0,0:0:0:0:
192,192,138073,1,0,0:0:0:0:
320,192,138212,1,0,0:0:0:0:
448,192,138356,1,0,0:0:0:0:
192,192,138402,1,0,0:0:0:0:
448,192,138448,1,0,0:0:0:0:
192,192,138495,1,0,0:0:0:0:
320,192,138628,1,0,0:0:0:0:
320,192,138767,1,0,0:0:0:0:
64,192,138911,1,0,0:0:0:0:
192,192,138981,1,0,0:0:0:0:
320,192,139189,1,0,0:0:0:0:
192,192,139235,1,0,0:0:0:0:
320,192,139282,1,0,0:0:0:0:
192,192,139328,1,0,0:0:0:0:
64,192,139467,1,0,0:0:0:0:
448,192,139467,1,0,0:0:0:0:
320,192,139513,1,0,0:0:0:0:
192,192,139559,1,0,0:0:0:0:
64,192,139606,1,0,0:0:0:0:
448,192,139606,1,0,0:0:0:0:
320,192,139675,1,0,0:0:0:0:
192,192,139745,1,0,0:0:0:0:
448,192,139814,1,0,0:0:0:0:
192,192,139883,1,0,0:0:0:0:
320,192,139953,1,0,0:0:0:0:
64,192,140022,1,0,0:0:0:0:
448,192,140022,1,0,0:0:0:0:
192,192,140069,1,0,0:0:0:0:
320,192,140115,1,0,0:0:0:0:
64,192,140161,1,0,0:0:0:0:
448,192,140161,1,0,0:0:0:0:
192,192,140231,1,0,0:0:0:0:
320,192,140300,1,0,0:0:0:0:
64,192,140370,1,0,0:0:0:0:
320,192,140439,1,0,0:0:0:0:
192,192,140508,1,0,0:0:0:0:
64,192,140578,1,0,0:0:0:0:
320,192,140578,1,0,0:0:0:0:
448,192,140578,1,0,0:0:0:0:
192,192,140647,1,0,0:0:0:0:
448,192,140717,1,0,0:0:0:0:
64,192,140786,1,0,0:0:0:0:
192,192,140856,1,0,0:0:0:0:
448,192,140856,1,0,0:0:0:0:
320,192,140925,1,0,0:0:0:0:
64,192,140995,1,0,0:0:0:0:
192,192,141064,1,0,0:0:0:0:
64,192,141133,1,0,0:0:0:0:
320,192,141133,1,0,0:0:0:0:
448,192,141133,1,0,0:0:0:0:
192,192,141203,1,0,0:0:0:0:
448,192,141272,1,0,0:0:0:0:
320,192,141342,1,0,0:0:0:0:
64,192,141411,1,0,0:0:0:0:
192,192,141411,1,0,0:0:0:0:
448,192,141411,1,0,0:0:0:0:
320,192,141481,1,0,0:0:0:0:
64,192,141550,1,0,0:0:0:0:
192,192,141620,1,0,0:0:0:0:
64,192,141689,1,0,0:0:0:0:
320,192,141689,1,0,0:0:0:0:
448,192,141689,1,0,0:0:0:0:
192,192,141758,1,0,0:0:0:0:
320,192,141828,1,0,0:0:0:0:
448,192,141897,1,0,0:0:0:0:
64,192,141967,1,0,0:0:0:0:
192,192,141967,1,0,0:0:0:0:
320,192,142036,1,0,0:0:0:0:
192,192,142106,1,0,0:0:0:0:
64,192,142175,1,0,0:0:0:0:
192,192,142245,1,0,0:0:0:0:
320,192,142245,1,0,0:0:0:0:
448,192,142245,1,0,0:0:0:0:
64,192,142314,1,0,0:0:0:0:
320,192,142383,1,0,0:0:0:0:
448,192,142453,1,0,0:0:0:0:
64,192,142522,1,0,0:0:0:0:
192,192,142522,1,0,0:0:0:0:
320,192,142522,1,0,0:0:0:0:
448,192,142592,1,0,0:0:0:0:
64,192,142661,1,0,0:0:0:0:
192,192,142731,1,0,0:0:0:0:
64,192,142800,1,0,0:0:0:0:
320,192,142800,1,0,0:0:0:0:
448,192,142800,1,0,0:0:0:0:
192,192,142870,1,0,0:0:0:0:
448,192,142939,1,0,0:0:0:0:
64,192,143008,1,0,0:0:0:0:
320,192,143078,1,0,0:0:0:0:
448,192,143078,1,0,0:0:0:0:
192,192,143124,1,0,0:0:0:0:
64,192,143170,1,0,0:0:0:0:
320,192,143217,1,0,0:0:0:0:
448,192,143286,1,0,0:0:0:0:
64,192,143356,1,0,0:0:0:0:
320,192,143402,1,0,0:0:0:0:
448,192,143448,1,0,0:0:0:0:
192,192,143495,1,0,0:0:0:0:
64,192,143564,1,0,0:0:0:0:
448,192,143633,1,0,0:0:0:0:
192,192,143680,1,0,0:0:0:0:
320,192,143726,1,0,0:0:0:0:
64,192,143772,1,0,0:0:0:0:
192,192,143842,1,0,0:0:0:0:
64,192,143911,1,0,0:0:0:0:
320,192,143911,1,0,0:0:0:0:
448,192,143911,1,0,0:0:0:0:
192,192,143963,1,0,0:0:0:0:
448,192,144015,1,0,0:0:0:0:
320,192,144085,1,0,0:0:0:0:
64,192,144137,1,0,0:0:0:0:
192,192,144189,1,0,0:0:0:0:
320,192,144241,1,0,0:0:0:0:
64,192,144293,1,0,0:0:0:0:
448,192,144328,1,0,0:0:0:0:
192,192,144397,1,0,0:0:0:0:
64,192,144467,1,0,0:0:0:0:
448,192,144467,1,0,0:0:0:0:
320,192,144536,1,0,0:0:0:0:
64,192,144606,1,0,0:0:0:0:
192,192,144675,1,0,0:0:0:0:
320,192,144745,1,0,0:0:0:0:
448,192,144745,1,0,0:0:0:0:
192,192,144814,1,0,0:0:0:0:
64,192,144883,1,0,0:0:0:0:
320,192,144953,1,0,0:0:0:0:
64,192,145022,1,0,0:0:0:0:
192,192,145022,1,0,0:0:0:0:
448,192,145069,1,0,0:0:0:0:
320,192,145115,1,0,0:0:0:0:
64,192,145161,1,0,0:0:0:0:
192,192,145207,1,0,0:0:0:0:
448,192,145254,1,0,0:0:0:0:
320,192,145300,1,0,0:0:0:0:
64,192,145346,1,0,0:0:0:0:
320,192,145393,1,0,0:0:0:0:
192,192,145439,1,0,0:0:0:0:
64,192,145485,1,0,0:0:0:0:
448,192,145532,1,0,0:0:0:0:
192,192,145578,1,0,0:0:0:0:
320,192,145624,1,0,0:0:0:0:
192,192,145670,1,0,0:0:0:0:
64,192,145717,1,0,0:0:0:0:
448,192,145763,1,0,0:0:0:0:
320,192,145809,1,0,0:0:0:0:
192,192,145856,1,0,0:0:0:0:
448,192,145908,1,0,0:0:0:0:
320,192,145948,1,0,0:0:0:0:
448,192,145995,1,0,0:0:0:0:
64,192,146041,1,0,0:0:0:0:
192,192,146087,1,0,0:0:0:0:
320,192,146133,1,0,0:0:0:0:
448,192,146180,1,0,0:0:0:0:
192,192,146226,1,0,0:0:0:0:
64,192,146272,1,0,0:0:0:0:
448,192,146319,1,0,0:0:0:0:
64,192,146365,1,0,0:0:0:0:
192,192,146411,1,0,0:0:0:0:
320,192,146457,1,0,0:0:0:0:
64,192,146550,1,0,0:0:0:0:
192,192,146550,1,0,0:0:0:0:
448,192,146620,1,0,0:0:0:0:
64,192,146689,1,0,0:0:0:0:
192,192,146689,1,0,0:0:0:0:
320,192,146689,1,0,0:0:0:0:
448,192,146758,1,0,0:0:0:0:
64,192,146828,1,0,0:0:0:0:
320,192,146897,1,0,0:0:0:0:
64,192,146967,1,0,0:0:0:0:
448,192,146967,1,0,0:0:0:0:
192,192,147036,1,0,0:0:0:0:
320,192,147106,1,0,0:0:0:0:
64,192,147175,1,0,0:0:0:0:
320,192,147245,1,0,0:0:0:0:
448,192,147291,1,0,0:0:0:0:
192,192,147337,1,0,0:0:0:0:
320,192,147383,1,0,0:0:0:0:
448,192,147430,1,0,0:0:0:0:
192,192,147476,1,0,0:0:0:0:
64,192,147522,1,0,0:0:0:0:
320,192,147569,1,0,0:0:0:0:
192,192,147615,1,0,0:0:0:0:
448,192,147661,1,0,0:0:0:0:
64,192,147707,1,0,0:0:0:0:
320,192,147754,1,0,0:0:0:0:
192,192,147800,1,0,0:0:0:0:
320,192,147846,1,0,0:0:0:0:
448,192,147893,1,0,0:0:0:0:
64,192,147939,1,0,0:0:0:0:
192,192,147985,1,0,0:0:0:0:
320,192,148032,1,0,0:0:0:0:
64,192,148078,1,0,0:0:0:0:
192,192,148124,1,0,0:0:0:0:
64,192,148170,1,0,0:0:0:0:
448,192,148217,1,0,0:0:0:0:
320,192,148263,1,0,0:0:0:0:
192,192,148309,1,0,0:0:0:0:
64,192,148356,1,0,0:0:0:0:
320,192,148402,1,0,0:0:0:0:
192,192,148448,1,0,0:0:0:0:
64,192,148495,1,0,0:0:0:0:
448,192,148541,1,0,0:0:0:0:
320,192,148587,1,0,0:0:0:0:
192,192,148633,1,0,0:0:0:0:
448,192,148680,1,0,0:0:0:0:
64,192,148772,1,0,0:0:0:0:
192,192,148772,1,0,0:0:0:0:
320,192,148842,1,0,0:0:0:0:
64,192,148911,1,0,0:0:0:0:
192,192,148911,1,0,0:0:0:0:
448,192,148911,1,0,0:0:0:0:
320,192,148981,1,0,0:0:0:0:
192,192,149050,1,0,0:0:0:0:
64,192,149120,1,0,0:0:0:0:
192,192,149189,1,0,0:0:0:0:
320,192,149189,1,0,0:0:0:0:
448,192,149189,1,0,0:0:0:0:
64,192,149258,1,0,0:0:0:0:
448,192,149328,1,0,0:0:0:0:
320,192,149397,1,0,0:0:0:0:
64,192,149467,1,0,0:0:0:0:
192,192,149467,1,0,0:0:0:0:
448,192,149467,1,0,0:0:0:0:
320,192,149536,1,0,0:0:0:0:
64,192,149606,1,0,0:0:0:0:
192,192,149675,1,0,0:0:0:0:
64,192,149745,1,0,0:0:0:0:
320,192,149745,1,0,0:0:0:0:
448,192,149745,1,0,0:0:0:0:
192,192,149814,1,0,0:0:0:0:
320,192,149883,1,0,0:0:0:0:
64,192,149953,1,0,0:0:0:0:
192,192,150022,1,0,0:0:0:0:
320,192,150022,1,0,0:0:0:0:
448,192,150022,1,0,0:0:0:0:
64,192,150092,1,0,0:0:0:0:
192,192,150161,1,0,0:0:0:0:
320,192,150231,1,0,0:0:0:0:
64,192,150300,1,0,0:0:0:0:
192,192,150300,1,0,0:0:0:0:
448,192,150300,1,0,0:0:0:0:
320,192,150370,1,0,0:0:0:0:
448,192,150439,1,0,0:0:0:0:
192,192,150508,1,0,0:0:0:0:
64,192,150578,1,0,0:0:0:0:
320,192,150578,1,0,0:0:0:0:
448,192,150578,1,0,0:0:0:0:
192,192,150647,1,0,0:0:0:0:
320,192,150717,1,0,0:0:0:0:
192,192,150786,1,0,0:0:0:0:
64,192,150856,1,0,0:0:0:0:
448,192,150856,1,0,0:0:0:0:
320,192,150925,1,0,0:0:0:0:
192,192,150995,1,0,0:0:0:0:
320,192,151064,1,0,0:0:0:0:
64,192,151133,1,0,0:0:0:0:
192,192,151133,1,0,0:0:0:0:
448,192,151133,1,0,0:0:0:0:
320,192,151203,1,0,0:0:0:0:
64,192,151272,1,0,0:0:0:0:
192,192,151342,1,0,0:0:0:0:
64,192,151411,1,0,0:0:0:0:
320,192,151411,1,0,0:0:0:0:
448,192,151411,1,0,0:0:0:0:
192,192,151481,1,0,0:0:0:0:
320,192,151550,1,0,0:0:0:0:
64,192,151620,1,0,0:0:0:0:
192,192,151689,1,0,0:0:0:0:
320,192,151689,1,0,0:0:0:0:
448,192,151689,1,0,0:0:0:0:
64,192,151758,1,0,0:0:0:0:
192,192,151828,1,0,0:0:0:0:
320,192,151897,1,0,0:0:0:0:
64,192,151967,1,0,0:0:0:0:
192,192,151967,1,0,0:0:0:0:
448,192,151967,1,0,0:0:0:0:
320,192,152036,1,0,0:0:0:0:
448,192,152106,1,0,0:0:0:0:
192,192,152175,1,0,0:0:0:0:
64,192,152245,1,0,0:0:0:0:
320,192,152245,1,0,0:0:0:0:
448,192,152245,1,0,0:0:0:0:
192,192,152314,1,0,0:0:0:0:
64,192,152383,1,0,0:0:0:0:
448,192,152453,1,0,0:0:0:0:
64,192,152522,1,0,0:0:0:0:
192,192,152522,1,0,0:0:0:0:
320,192,152522,1,0,0:0:0:0:
448,192,152592,1,0,0:0:0:0:
320,192,152661,1,0,0:0:0:0:
192,192,152731,1,0,0:0:0:0:
64,192,152800,1,0,0:0:0:0:
320,192,152800,1,0,0:0:0:0:
448,192,152800,1,0,0:0:0:0:
192,192,152870,1,0,0:0:0:0:
448,192,152939,1,0,0:0:0:0:
320,192,153008,1,0,0:0:0:0:
64,192,153078,1,0,0:0:0:0:
192,192,153078,1,0,0:0:0:0:
320,192,153147,1,0,0:0:0:0:
448,192,153217,1,0,0:0:0:0:
192,192,153286,1,0,0:0:0:0:
64,192,153356,1,0,0:0:0:0:
448,192,153356,1,0,0:0:0:0:
320,192,153425,1,0,0:0:0:0:
64,192,153495,1,0,0:0:0:0:
192,192,153564,1,0,0:0:0:0:
320,192,153633,1,0,0:0:0:0:
448,192,153633,1,0,0:0:0:0:
192,192,153703,1,0,0:0:0:0:
64,192,153772,1,0,0:0:0:0:
320,192,153842,1,0,0:0:0:0:
64,192,153911,1,0,0:0:0:0:
448,192,153911,1,0,0:0:0:0:
192,192,153957,1,0,0:0:0:0:
320,192,154004,1,0,0:0:0:0:
64,192,154050,1,0,0:0:0:0:
448,192,154096,1,0,0:0:0:0:
192,192,154143,1,0,0:0:0:0:
320,192,154189,1,0,0:0:0:0:
192,192,154235,1,0,0:0:0:0:
448,192,154282,1,0,0:0:0:0:
64,192,154328,1,0,0:0:0:0:
320,192,154374,1,0,0:0:0:0:
448,192,154420,1,0,0:0:0:0:
192,192,154467,1,0,0:0:0:0:
320,192,154513,1,0,0:0:0:0:
64,192,154559,1,0,0:0:0:0:
448,192,154606,1,0,0:0:0:0:
192,192,154652,1,0,0:0:0:0:
320,192,154698,1,0,0:0:0:0:
448,192,154745,1,0,0:0:0:0:
192,192,154791,1,0,0:0:0:0:
448,192,154837,1,0,0:0:0:0:
64,192,154883,1,0,0:0:0:0:
320,192,154930,1,0,0:0:0:0:
192,192,154976,1,0,0:0:0:0:
448,192,155022,1,0,0:0:0:0:
320,192,155069,1,0,0:0:0:0:
64,192,155115,1,0,0:0:0:0:
448,192,155161,1,0,0:0:0:0:
64,192,155207,1,0,0:0:0:0:
320,192,155254,1,0,0:0:0:0:
192,192,155300,1,0,0:0:0:0:
448,192,155346,1,0,0:0:0:0:
64,192,155439,1,0,0:0:0:0:
192,192,155439,1,0,0:0:0:0:
320,192,155508,1,0,0:0:0:0:
64,192,155578,1,0,0:0:0:0:
192,192,155578,1,0,0:0:0:0:
448,192,155578,1,0,0:0:0:0:
320,192,155647,1,0,0:0:0:0:
64,192,155717,1,0,0:0:0:0:
448,192,155786,1,0,0:0:0:0:
64,192,155856,1,0,0:0:0:0:
192,192,155856,1,0,0:0:0:0:
320,192,155925,1,0,0:0:0:0:
64,192,155995,1,0,0:0:0:0:
448,192,156133,128,0,156411:0:0:0:0:
64,192,156411,128,0,156481:0:0:0:0:
448,192,156550,128,0,156620:0:0:0:0:
64,192,156828,128,0,156897:0:0:0:0:
448,192,156967,128,0,157175:0:0:0:0:
64,192,157245,1,0,0:0:0:0:
448,192,157245,128,0,157314:0:0:0:0:
64,192,157383,1,0,0:0:0:0:
448,192,157383,128,0,157453:0:0:0:0:
192,192,157522,128,0,157800:0:0:0:0:
64,192,157800,1,0,0:0:0:0:
320,192,157800,1,0,0:0:0:0:
448,192,157800,128,0,157870:0:0:0:0:
64,192,157939,1,0,0:0:0:0:
448,192,157939,128,0,158008:0:0:0:0:
192,192,158078,128,0,158217:0:0:0:0:
64,192,158356,1,0,0:0:0:0:
192,192,158356,128,0,159467:0:0:0:0:
320,192,158356,128,0,159467:0:0:0:0:
448,192,158356,1,0,0:0:0:0:
64,192,159189,1,0,0:0:0:0:
448,192,159189,1,0,0:0:0:0:
64,192,159467,1,0,0:0:0:0:
448,192,159467,1,0,0:0:0:0:
64,192,159606,1,0,0:0:0:0:
192,192,159744,1,0,0:0:0:0:
192,192,159883,1,0,0:0:0:0:
320,192,160022,1,0,0:0:0:0:
320,192,160115,1,0,0:0:0:0:
64,192,160161,1,0,0:0:0:0:
192,192,160231,1,0,0:0:0:0:
320,192,160300,1,0,0:0:0:0:
448,192,160300,1,0,0:0:0:0:
448,192,160439,1,0,0:0:0:0:
448,192,160578,1,0,0:0:0:0:
448,192,160717,1,0,0:0:0:0:
64,192,160856,1,0,0:0:0:0:
64,192,160994,1,0,0:0:0:0:
320,192,161133,1,0,0:0:0:0:
448,192,161133,1,0,0:0:0:0:
320,192,161226,1,0,0:0:0:0:
64,192,161272,1,0,0:0:0:0:
192,192,161411,1,0,0:0:0:0:
448,192,161411,1,0,0:0:0:0:
192,192,161550,1,0,0:0:0:0:
192,192,161689,1,0,0:0:0:0:
320,192,161689,1,0,0:0:0:0:
192,192,161828,1,0,0:0:0:0:
192,192,161967,1,0,0:0:0:0:
192,192,162106,1,0,0:0:0:0:
64,192,162244,1,0,0:0:0:0:
64,192,162383,1,0,0:0:0:0:
320,192,162522,1,0,0:0:0:0:
448,192,162615,1,0,0:0:0:0:
320,192,162707,1,0,0:0:0:0:
64,192,162800,1,0,0:0:0:0:
448,192,162835,1,0,0:0:0:0:
192,192,162893,1,0,0:0:0:0:
64,192,162985,1,0,0:0:0:0:
64,192,163170,1,0,0:0:0:0:
64,192,163356,1,0,0:0:0:0:
64,192,163633,1,0,0:0:0:0:
192,192,163633,1,0,0:0:0:0:
64,192,163911,1,0,0:0:0:0:
448,192,163911,1,0,0:0:0:0:
64,192,164050,1,0,0:0:0:0:
192,192,164189,1,0,0:0:0:0:
192,192,164328,1,0,0:0:0:0:
320,192,164467,1,0,0:0:0:0:
320,192,164559,1,0,0:0:0:0:
64,192,164606,1,0,0:0:0:0:
192,192,164675,1,0,0:0:0:0:
320,192,164744,1,0,0:0:0:0:
448,192,164744,1,0,0:0:0:0:
64,192,164837,1,0,0:0:0:0:
448,192,164883,1,0,0:0:0:0:
192,192,164930,1,0,0:0:0:0:
448,192,165022,1,0,0:0:0:0:
320,192,165115,1,0,0:0:0:0:
448,192,165161,1,0,0:0:0:0:
192,192,165207,1,0,0:0:0:0:
64,192,165300,1,0,0:0:0:0:
320,192,165393,1,0,0:0:0:0:
64,192,165439,1,0,0:0:0:0:
320,192,165578,1,0,0:0:0:0:
448,192,165578,1,0,0:0:0:0:
320,192,165670,1,0,0:0:0:0:
64,192,165717,1,0,0:0:0:0:
192,192,165856,1,0,0:0:0:0:
320,192,165856,1,0,0:0:0:0:
448,192,165948,1,0,0:0:0:0:
192,192,165994,1,0,0:0:0:0:
64,192,166041,1,0,0:0:0:0:
320,192,166133,1,0,0:0:0:0:
192,192,166133,1,0,0:0:0:0:
448,192,166226,1,0,0:0:0:0:
192,192,166272,1,0,0:0:0:0:
320,192,166318,1,0,0:0:0:0:
192,192,166411,1,0,0:0:0:0:
64,192,166504,1,0,0:0:0:0:
192,192,166550,1,0,0:0:0:0:
64,192,166689,1,0,0:0:0:0:
64,192,166828,1,0,0:0:0:0:
320,192,166967,1,0,0:0:0:0:
448,192,167059,1,0,0:0:0:0:
320,192,167152,1,0,0:0:0:0:
64,192,167244,1,0,0:0:0:0:
448,192,167279,1,0,0:0:0:0:
192,192,167337,1,0,0:0:0:0:
64,192,167430,1,0,0:0:0:0:
64,192,167615,1,0,0:0:0:0:
64,192,167800,1,0,0:0:0:0:
64,192,168078,1,0,0:0:0:0:
192,192,168078,1,0,0:0:0:0:
64,192,168356,1,0,0:0:0:0:
448,192,168356,1,0,0:0:0:0:
64,192,168494,1,0,0:0:0:0:
192,192,168633,1,0,0:0:0:0:
192,192,168772,1,0,0:0:0:0:
320,192,168911,1,0,0:0:0:0:
320,192,169004,1,0,0:0:0:0:
64,192,169050,1,0,0:0:0:0:
192,192,169119,1,0,0:0:0:0:
320,192,169189,1,0,0:0:0:0:
448,192,169189,1,0,0:0:0:0:
64,192,169258,1,0,0:0:0:0:
448,192,169328,1,0,0:0:0:0:
192,192,169397,1,0,0:0:0:0:
448,192,169467,1,0,0:0:0:0:
448,192,169606,1,0,0:0:0:0:
448,192,169744,1,0,0:0:0:0:
448,192,169883,1,0,0:0:0:0:
320,192,170022,1,0,0:0:0:0:
448,192,170022,1,0,0:0:0:0:
320,192,170115,1,0,0:0:0:0:
64,192,170161,1,0,0:0:0:0:
192,192,170300,1,0,0:0:0:0:
448,192,170300,1,0,0:0:0:0:
192,192,170439,1,0,0:0:0:0:
192,192,170578,1,0,0:0:0:0:
320,192,170578,1,0,0:0:0:0:
192,192,170717,1,0,0:0:0:0:
192,192,170856,1,0,0:0:0:0:
192,192,170994,1,0,0:0:0:0:
64,192,171133,1,0,0:0:0:0:
64,192,171272,1,0,0:0:0:0:
320,192,171411,1,0,0:0:0:0:
448,192,171504,1,0,0:0:0:0:
320,192,171596,1,0,0:0:0:0:
64,192,171689,1,0,0:0:0:0:
448,192,171724,1,0,0:0:0:0:
192,192,171781,1,0,0:0:0:0:
64,192,171874,1,0,0:0:0:0:
64,192,172059,1,0,0:0:0:0:
64,192,172244,1,0,0:0:0:0:
64,192,172522,1,0,0:0:0:0:
192,192,172522,1,0,0:0:0:0:
64,192,172800,1,0,0:0:0:0:
448,192,172800,1,0,0:0:0:0:
64,192,172939,1,0,0:0:0:0:
192,192,173078,1,0,0:0:0:0:
192,192,173217,1,0,0:0:0:0:
320,192,173356,1,0,0:0:0:0:
320,192,173448,1,0,0:0:0:0:
64,192,173494,1,0,0:0:0:0:
192,192,173564,1,0,0:0:0:0:
320,192,173633,1,0,0:0:0:0:
448,192,173633,1,0,0:0:0:0:
192,192,173911,1,0,0:0:0:0:
320,192,173911,1,0,0:0:0:0:
448,192,173981,1,0,0:0:0:0:
64,192,174050,1,0,0:0:0:0:
320,192,174119,1,0,0:0:0:0:
64,192,174189,1,0,0:0:0:0:
64,192,174328,1,0,0:0:0:0:
320,192,174467,1,0,0:0:0:0:
448,192,174467,1,0,0:0:0:0:
320,192,174559,1,0,0:0:0:0:
64,192,174606,1,0,0:0:0:0:
192,192,174744,1,0,0:0:0:0:
320,192,174744,1,0,0:0:0:0:
448,192,174814,1,0,0:0:0:0:
64,192,174883,1,0,0:0:0:0:
320,192,174953,1,0,0:0:0:0:
64,192,175022,1,0,0:0:0:0:
192,192,175022,1,0,0:0:0:0:
448,192,175092,1,0,0:0:0:0:
64,192,175161,1,0,0:0:0:0:
320,192,175231,1,0,0:0:0:0:
192,192,175300,1,0,0:0:0:0:
448,192,175300,1,0,0:0:0:0:
192,192,175439,1,0,0:0:0:0:
64,192,175578,1,0,0:0:0:0:
320,192,175578,1,0,0:0:0:0:
64,192,175717,1,0,0:0:0:0:
192,192,175856,1,0,0:0:0:0:
320,192,175856,1,0,0:0:0:0:
64,192,176133,1,0,0:0:0:0:
320,192,176133,1,0,0:0:0:0:
448,192,176168,1,0,0:0:0:0:
448,192,176411,128,0,176689:0:0:0:0:
320,192,176689,128,0,176967:0:0:0:0:
192,192,176967,128,0,177244:0:0:0:0:
64,192,177244,1,0,0:0:0:0:
448,192,177244,1,0,0:0:0:0:
320,192,177314,1,0,0:0:0:0:
64,192,177383,1,0,0:0:0:0:
192,192,177522,1,0,0:0:0:0:
448,192,177592,1,0,0:0:0:0:
192,192,177661,1,0,0:0:0:0:
320,192,177800,1,0,0:0:0:0:
320,192,177893,1,0,0:0:0:0:
64,192,177939,1,0,0:0:0:0:
192,192,178008,1,0,0:0:0:0:
320,192,178078,1,0,0:0:0:0:
448,192,178078,1,0,0:0:0:0:
64,192,178147,1,0,0:0:0:0:
448,192,178217,1,0,0:0:0:0:
64,192,178286,1,0,0:0:0:0:
192,192,178356,1,0,0:0:0:0:
320,192,178356,1,0,0:0:0:0:
448,192,178425,1,0,0:0:0:0:
64,192,178494,1,0,0:0:0:0:
320,192,178564,1,0,0:0:0:0:
64,192,178633,1,0,0:0:0:0:
64,192,178772,1,0,0:0:0:0:
320,192,178911,1,0,0:0:0:0:
448,192,178911,1,0,0:0:0:0:
320,192,179004,1,0,0:0:0:0:
64,192,179050,1,0,0:0:0:0:
192,192,179189,1,0,0:0:0:0:
320,192,179189,1,0,0:0:0:0:
448,192,179258,1,0,0:0:0:0:
64,192,179328,1,0,0:0:0:0:
320,192,179397,1,0,0:0:0:0:
64,192,179467,1,0,0:0:0:0:
192,192,179467,1,0,0:0:0:0:
448,192,179536,1,0,0:0:0:0:
64,192,179606,1,0,0:0:0:0:
320,192,179675,1,0,0:0:0:0:
192,192,179744,1,0,0:0:0:0:
448,192,179744,1,0,0:0:0:0:
192,192,179883,1,0,0:0:0:0:
64,192,180022,1,0,0:0:0:0:
320,192,180022,1,0,0:0:0:0:
64,192,180161,1,0,0:0:0:0:
192,192,180300,1,0,0:0:0:0:
320,192,180300,1,0,0:0:0:0:
64,192,180369,1,0,0:0:0:0:
448,192,180439,1,0,0:0:0:0:
192,192,180508,1,0,0:0:0:0:
64,192,180578,1,0,0:0:0:0:
320,192,180578,1,0,0:0:0:0:
448,192,180612,1,0,0:0:0:0:
192,192,180647,1,0,0:0:0:0:
320,192,180717,1,0,0:0:0:0:
64,192,180786,1,0,0:0:0:0:
448,192,180856,128,0,181133:0:0:0:0:
320,192,181133,128,0,181411:0:0:0:0:
192,192,181411,128,0,181689:0:0:0:0:
64,192,181689,1,0,0:0:0:0:
448,192,181689,1,0,0:0:0:0:
64,192,181828,1,0,0:0:0:0:
192,192,181967,1,0,0:0:0:0:
192,192,182106,1,0,0:0:0:0:
320,192,182244,1,0,0:0:0:0:
320,192,182337,1,0,0:0:0:0:
64,192,182383,1,0,0:0:0:0:
192,192,182453,1,0,0:0:0:0:
320,192,182522,1,0,0:0:0:0:
448,192,182522,1,0,0:0:0:0:
64,192,182615,1,0,0:0:0:0:
448,192,182661,1,0,0:0:0:0:
192,192,182707,1,0,0:0:0:0:
448,192,182800,1,0,0:0:0:0:
320,192,182893,1,0,0:0:0:0:
448,192,182939,1,0,0:0:0:0:
192,192,182985,1,0,0:0:0:0:
64,192,183078,1,0,0:0:0:0:
320,192,183170,1,0,0:0:0:0:
64,192,183217,1,0,0:0:0:0:
320,192,183356,1,0,0:0:0:0:
448,192,183356,1,0,0:0:0:0:
320,192,183448,1,0,0:0:0:0:
64,192,183494,1,0,0:0:0:0:
192,192,183633,1,0,0:0:0:0:
320,192,183633,1,0,0:0:0:0:
448,192,183726,1,0,0:0:0:0:
192,192,183772,1,0,0:0:0:0:
64,192,183818,1,0,0:0:0:0:
192,192,183911,1,0,0:0:0:0:
320,192,183911,1,0,0:0:0:0:
448,192,184004,1,0,0:0:0:0:
192,192,184050,1,0,0:0:0:0:
320,192,184096,1,0,0:0:0:0:
192,192,184189,1,0,0:0:0:0:
64,192,184281,1,0,0:0:0:0:
192,192,184328,1,0,0:0:0:0:
64,192,184467,1,0,0:0:0:0:
64,192,184606,1,0,0:0:0:0:
320,192,184744,1,0,0:0:0:0:
448,192,184837,1,0,0:0:0:0:
320,192,184930,1,0,0:0:0:0:
64,192,185022,1,0,0:0:0:0:
448,192,185057,1,0,0:0:0:0:
192,192,185115,1,0,0:0:0:0:
64,192,185207,1,0,0:0:0:0:
448,192,185300,128,0,185578:0:0:0:0:
320,192,185578,128,0,185856:0:0:0:0:
64,192,185856,1,0,0:0:0:0:
192,192,185856,128,0,186133:0:0:0:0:
64,192,186133,1,0,0:0:0:0:
448,192,186133,1,0,0:0:0:0:
320,192,186203,1,0,0:0:0:0:
64,192,186272,1,0,0:0:0:0:
192,192,186411,1,0,0:0:0:0:
448,192,186481,1,0,0:0:0:0:
192,192,186550,1,0,0:0:0:0:
320,192,186689,1,0,0:0:0:0:
320,192,186781,1,0,0:0:0:0:
64,192,186828,1,0,0:0:0:0:
192,192,186897,1,0,0:0:0:0:
320,192,186967,1,0,0:0:0:0:
448,192,186967,1,0,0:0:0:0:
64,192,187036,1,0,0:0:0:0:
448,192,187106,1,0,0:0:0:0:
64,192,187175,1,0,0:0:0:0:
192,192,187244,1,0,0:0:0:0:
320,192,187244,1,0,0:0:0:0:
448,192,187314,1,0,0:0:0:0:
64,192,187383,1,0,0:0:0:0:
320,192,187453,1,0,0:0:0:0:
64,192,187522,1,0,0:0:0:0:
64,192,187661,1,0,0:0:0:0:
320,192,187800,1,0,0:0:0:0:
448,192,187800,1,0,0:0:0:0:
320,192,187893,1,0,0:0:0:0:
64,192,187939,1,0,0:0:0:0:
192,192,188078,1,0,0:0:0:0:
320,192,188078,1,0,0:0:0:0:
448,192,188147,1,0,0:0:0:0:
64,192,188217,1,0,0:0:0:0:
320,192,188286,1,0,0:0:0:0:
64,192,188356,1,0,0:0:0:0:
192,192,188356,1,0,0:0:0:0:
448,192,188425,1,0,0:0:0:0:
64,192,188494,1,0,0:0:0:0:
320,192,188564,1,0,0:0:0:0:
192,192,188633,1,0,0:0:0:0:
448,192,188633,1,0,0:0:0:0:
192,192,188772,1,0,0:0:0:0:
64,192,188911,1,0,0:0:0:0:
320,192,188911,1,0,0:0:0:0:
64,192,189050,1,0,0:0:0:0:
192,192,189189,1,0,0:0:0:0:
320,192,189189,1,0,0:0:0:0:
64,192,189258,1,0,0:0:0:0:
448,192,189328,1,0,0:0:0:0:
192,192,189397,1,0,0:0:0:0:
64,192,189467,1,0,0:0:0:0:
320,192,189467,1,0,0:0:0:0:
448,192,189501,1,0,0:0:0:0:
192,192,189536,1,0,0:0:0:0:
320,192,189606,1,0,0:0:0:0:
64,192,189675,1,0,0:0:0:0:
320,192,189744,1,0,0:0:0:0:
64,192,189814,1,0,0:0:0:0:
192,192,189907,1,0,0:0:0:0:
64,192,190022,1,0,0:0:0:0:
192,192,190161,1,0,0:0:0:0:
320,192,190300,1,0,0:0:0:0:
448,192,190300,1,0,0:0:0:0:
64,192,190578,1,0,0:0:0:0:
448,192,190578,1,0,0:0:0:0:
64,192,190717,1,0,0:0:0:0:
320,192,190856,1,0,0:0:0:0:
320,192,190994,1,0,0:0:0:0:
448,192,191133,1,0,0:0:0:0:
192,192,191203,1,0,0:0:0:0:
320,192,191272,1,0,0:0:0:0:
64,192,191411,1,0,0:0:0:0:
192,192,191411,1,0,0:0:0:0:
64,192,191689,1,0,0:0:0:0:
192,192,191689,1,0,0:0:0:0:
320,192,191758,1,0,0:0:0:0:
448,192,191828,1,0,0:0:0:0:
192,192,191967,1,0,0:0:0:0:
320,192,192036,1,0,0:0:0:0:
64,192,192244,1,0,0:0:0:0:
192,192,192314,1,0,0:0:0:0:
64,192,192522,1,0,0:0:0:0:
192,192,192522,1,0,0:0:0:0:
320,192,192592,1,0,0:0:0:0:
448,192,192661,1,0,0:0:0:0:
64,192,192800,1,0,0:0:0:0:
192,192,192800,1,0,0:0:0:0:
320,192,192869,1,0,0:0:0:0:
192,192,193078,1,0,0:0:0:0:
320,192,193147,1,0,0:0:0:0:
64,192,193217,1,0,0:0:0:0:
448,192,193217,1,0,0:0:0:0:
64,192,193356,1,0,0:0:0:0:
448,192,193356,1,0,0:0:0:0:
192,192,193425,1,0,0:0:0:0:
320,192,193494,1,0,0:0:0:0:
448,192,193494,1,0,0:0:0:0:
192,192,193564,1,0,0:0:0:0:
64,192,193633,1,0,0:0:0:0:
320,192,193633,1,0,0:0:0:0:
448,192,193703,1,0,0:0:0:0:
64,192,193772,1,0,0:0:0:0:
192,192,193772,1,0,0:0:0:0:
192,192,193911,1,0,0:0:0:0:
64,192,198356,5,0,0:0:0:0:
64,192,198634,1,0,0:0:0:0:
64,192,198912,1,0,0:0:0:0:
64,192,199189,1,0,0:0:0:0:
64,192,199467,1,0,0:0:0:0:
64,192,199745,1,0,0:0:0:0:
448,192,199899,1,0,0:0:0:0:
192,192,200023,1,0,0:0:0:0:
192,192,200162,1,0,0:0:0:0:
320,192,200300,1,0,0:0:0:0:
320,192,200439,1,0,0:0:0:0:
64,192,200578,1,0,0:0:0:0:
64,192,200856,1,0,0:0:0:0:
64,192,201134,1,0,0:0:0:0:
64,192,201412,1,0,0:0:0:0:
64,192,201689,5,0,0:0:0:0:
64,192,201967,1,0,0:0:0:0:
448,192,202106,1,0,0:0:0:0:
192,192,202245,1,0,0:0:0:0:
192,192,202384,1,0,0:0:0:0:
320,192,202523,1,0,0:0:0:0:
320,192,202662,1,0,0:0:0:0:
64,192,202800,128,0,202939:0:0:0:0:
448,192,202870,1,0,0:0:0:0:
64,192,203078,128,0,203217:0:0:0:0:
64,192,203356,128,0,203495:0:0:0:0:
320,192,203356,1,0,0:0:0:0:
448,192,203425,1,0,0:0:0:0:
192,192,203495,1,0,0:0:0:0:
64,192,203634,128,0,203773:0:0:0:0:
64,192,203912,128,0,204050:0:0:0:0:
320,192,203912,1,0,0:0:0:0:
448,192,203981,1,0,0:0:0:0:
192,192,204189,128,0,204259:0:0:0:0:
192,192,204328,128,0,204398:0:0:0:0:
64,192,204374,1,0,0:0:0:0:
448,192,204421,1,0,0:0:0:0:
192,192,204467,1,0,0:0:0:0:
320,192,204467,128,0,204537:0:0:0:0:
64,192,204537,1,0,0:0:0:0:
320,192,204606,128,0,204675:0:0:0:0:
448,192,204745,128,0,204814:0:0:0:0:
192,192,204814,1,0,0:0:0:0:
448,192,204884,128,0,204953:0:0:0:0:
64,192,205023,128,0,205162:0:0:0:0:
320,192,205092,1,0,0:0:0:0:
64,192,205300,128,0,205439:0:0:0:0:
448,192,205370,1,0,0:0:0:0:
64,192,205578,128,0,205717:0:0:0:0:
320,192,205578,1,0,0:0:0:0:
192,192,205648,1,0,0:0:0:0:
64,192,205856,128,0,205995:0:0:0:0:
192,192,205925,1,0,0:0:0:0:
320,192,205995,1,0,0:0:0:0:
448,192,206064,1,0,0:0:0:0:
64,192,206134,128,0,206273:0:0:0:0:
192,192,206134,1,0,0:0:0:0:
320,192,206203,1,0,0:0:0:0:
448,192,206273,1,0,0:0:0:0:
192,192,206412,128,0,206481:0:0:0:0:
192,192,206550,128,0,206620:0:0:0:0:
64,192,206597,1,0,0:0:0:0:
448,192,206643,1,0,0:0:0:0:
192,192,206689,1,0,0:0:0:0:
320,192,206689,128,0,206759:0:0:0:0:
320,192,206828,128,0,206898:0:0:0:0:
448,192,206967,128,0,207037:0:0:0:0:
448,192,207106,128,0,207175:0:0:0:0:
64,192,207245,128,0,207384:0:0:0:0:
320,192,207314,1,0,0:0:0:0:
192,192,207384,1,0,0:0:0:0:
320,192,207453,1,0,0:0:0:0:
64,192,207523,128,0,207662:0:0:0:0:
448,192,207523,1,0,0:0:0:0:
192,192,207592,1,0,0:0:0:0:
448,192,207662,1,0,0:0:0:0:
192,192,207731,1,0,0:0:0:0:
64,192,207800,128,0,207939:0:0:0:0:
320,192,207800,1,0,0:0:0:0:
448,192,207870,1,0,0:0:0:0:
320,192,207939,1,0,0:0:0:0:
192,192,208026,1,0,0:0:0:0:
64,192,208078,128,0,208217:0:0:0:0:
448,192,208078,1,0,0:0:0:0:
320,192,208194,1,0,0:0:0:0:
64,192,208356,128,0,208495:0:0:0:0:
448,192,208356,1,0,0:0:0:0:
320,192,208425,1,0,0:0:0:0:
192,192,208495,1,0,0:0:0:0:
448,192,208564,1,0,0:0:0:0:
192,192,208634,128,0,208703:0:0:0:0:
320,192,208703,1,0,0:0:0:0:
192,192,208773,128,0,208842:0:0:0:0:
64,192,208819,1,0,0:0:0:0:
448,192,208865,1,0,0:0:0:0:
192,192,208912,1,0,0:0:0:0:
320,192,208912,128,0,208981:0:0:0:0:
320,192,209050,128,0,209120:0:0:0:0:
448,192,209189,128,0,209259:0:0:0:0:
448,192,209328,128,0,209398:0:0:0:0:
64,192,209467,128,0,209606:0:0:0:0:
320,192,209537,1,0,0:0:0:0:
192,192,209606,1,0,0:0:0:0:
320,192,209675,1,0,0:0:0:0:
64,192,209745,128,0,209884:0:0:0:0:
448,192,209745,1,0,0:0:0:0:
192,192,209814,1,0,0:0:0:0:
448,192,209884,1,0,0:0:0:0:
192,192,209953,1,0,0:0:0:0:
64,192,210023,128,0,210162:0:0:0:0:
320,192,210023,1,0,0:0:0:0:
448,192,210092,1,0,0:0:0:0:
320,192,210162,1,0,0:0:0:0:
192,192,210248,1,0,0:0:0:0:
64,192,210300,128,0,210439:0:0:0:0:
448,192,210300,1,0,0:0:0:0:
320,192,210416,1,0,0:0:0:0:
64,192,210578,128,0,210717:0:0:0:0:
448,192,210578,1,0,0:0:0:0:
320,192,210648,1,0,0:0:0:0:
192,192,210717,1,0,0:0:0:0:
448,192,210787,1,0,0:0:0:0:
192,192,210856,128,0,210925:0:0:0:0:
320,192,210925,1,0,0:0:0:0:
192,192,210995,128,0,211064:0:0:0:0:
64,192,211041,1,0,0:0:0:0:
448,192,211087,1,0,0:0:0:0:
192,192,211134,1,0,0:0:0:0:
320,192,211134,128,0,211203:0:0:0:0:
320,192,211273,128,0,211342:0:0:0:0:
448,192,211412,128,0,211481:0:0:0:0:
448,192,211550,128,0,211620:0:0:0:0:
64,192,211689,128,0,211828:0:0:0:0:
448,192,211759,1,0,0:0:0:0:
64,192,211967,128,0,212106:0:0:0:0:
64,192,212245,128,0,212384:0:0:0:0:
320,192,212245,1,0,0:0:0:0:
448,192,212314,1,0,0:0:0:0:
192,192,212384,1,0,0:0:0:0:
64,192,212523,128,0,212662:0:0:0:0:
64,192,212800,128,0,212939:0:0:0:0:
320,192,212800,1,0,0:0:0:0:
448,192,212870,1,0,0:0:0:0:
192,192,213078,128,0,213148:0:0:0:0:
192,192,213217,128,0,213287:0:0:0:0:
64,192,213263,1,0,0:0:0:0:
448,192,213310,1,0,0:0:0:0:
192,192,213356,1,0,0:0:0:0:
320,192,213356,128,0,213425:0:0:0:0:
64,192,213425,1,0,0:0:0:0:
320,192,213495,128,0,213564:0:0:0:0:
448,192,213634,128,0,213703:0:0:0:0:
192,192,213703,1,0,0:0:0:0:
448,192,213773,128,0,213842:0:0:0:0:
64,192,213912,128,0,214050:0:0:0:0:
320,192,213981,1,0,0:0:0:0:
64,192,214189,128,0,214328:0:0:0:0:
448,192,214259,1,0,0:0:0:0:
64,192,214467,128,0,214606:0:0:0:0:
320,192,214467,1,0,0:0:0:0:
192,192,214537,1,0,0:0:0:0:
64,192,214745,128,0,214884:0:0:0:0:
192,192,214814,1,0,0:0:0:0:
320,192,214884,1,0,0:0:0:0:
448,192,214953,1,0,0:0:0:0:
64,192,215023,128,0,215162:0:0:0:0:
192,192,215023,1,0,0:0:0:0:
320,192,215092,1,0,0:0:0:0:
448,192,215162,1,0,0:0:0:0:
192,192,215300,128,0,215370:0:0:0:0:
192,192,215439,128,0,215509:0:0:0:0:
64,192,215486,1,0,0:0:0:0:
448,192,215532,1,0,0:0:0:0:
192,192,215578,1,0,0:0:0:0:
320,192,215578,128,0,215648:0:0:0:0:
320,192,215717,128,0,215787:0:0:0:0:
448,192,215856,128,0,215925:0:0:0:0:
448,192,215995,128,0,216064:0:0:0:0:
64,192,216134,128,0,216273:0:0:0:0:
320,192,216203,1,0,0:0:0:0:
192,192,216273,1,0,0:0:0:0:
320,192,216342,1,0,0:0:0:0:
64,192,216412,128,0,216550:0:0:0:0:
448,192,216412,1,0,0:0:0:0:
192,192,216481,1,0,0:0:0:0:
448,192,216550,1,0,0:0:0:0:
192,192,216620,1,0,0:0:0:0:
64,192,216689,128,0,216828:0:0:0:0:
320,192,216689,1,0,0:0:0:0:
448,192,216759,1,0,0:0:0:0:
320,192,216828,1,0,0:0:0:0:
192,192,216915,1,0,0:0:0:0:
64,192,216967,128,0,217106:0:0:0:0:
448,192,216967,1,0,0:0:0:0:
320,192,217071,1,0,0:0:0:0:
64,192,217245,128,0,217384:0:0:0:0:
448,192,217245,1,0,0:0:0:0:
320,192,217314,1,0,0:0:0:0:
192,192,217384,1,0,0:0:0:0:
448,192,217453,1,0,0:0:0:0:
192,192,217523,128,0,217592:0:0:0:0:
320,192,217592,1,0,0:0:0:0:
192,192,217662,128,0,217731:0:0:0:0:
64,192,217708,1,0,0:0:0:0:
448,192,217754,1,0,0:0:0:0:
192,192,217800,1,0,0:0:0:0:
320,192,217800,128,0,217870:0:0:0:0:
320,192,217939,128,0,218009:0:0:0:0:
64,192,218078,128,0,218148:0:0:0:0:
64,192,218217,128,0,218287:0:0:0:0:
448,192,218356,128,0,218634:0:0:0:0:
64,192,218634,128,0,218703:0:0:0:0:
448,192,218773,128,0,218842:0:0:0:0:
64,192,219050,128,0,219120:0:0:0:0:
448,192,219189,128,0,219398:0:0:0:0:
64,192,219467,1,0,0:0:0:0:
448,192,219467,128,0,219537:0:0:0:0:
64,192,219606,1,0,0:0:0:0:
448,192,219606,128,0,219675:0:0:0:0:
192,192,219745,128,0,220023:0:0:0:0:
64,192,220023,1,0,0:0:0:0:
320,192,220023,1,0,0:0:0:0:
448,192,220023,128,0,220092:0:0:0:0:
64,192,220162,1,0,0:0:0:0:
448,192,220162,128,0,220231:0:0:0:0:
192,192,220300,128,0,220439:0:0:0:0:
64,192,220578,1,0,0:0:0:0:
320,192,220578,1,0,0:0:0:0:
448,192,220578,1,0,0:0:0:0:
192,192,220648,1,0,0:0:0:0:
448,192,220717,1,0,0:0:0:0:
64,192,220787,1,0,0:0:0:0:
192,192,220856,1,0,0:0:0:0:
448,192,220856,1,0,0:0:0:0:
320,192,220925,1,0,0:0:0:0:
64,192,220995,1,0,0:0:0:0:
192,192,221064,1,0,0:0:0:0:
64,192,221134,1,0,0:0:0:0:
320,192,221134,1,0,0:0:0:0:
448,192,221134,1,0,0:0:0:0:
192,192,221203,1,0,0:0:0:0:
448,192,221273,1,0,0:0:0:0:
320,192,221342,1,0,0:0:0:0:
64,192,221412,1,0,0:0:0:0:
192,192,221412,1,0,0:0:0:0:
448,192,221412,1,0,0:0:0:0:
320,192,221481,1,0,0:0:0:0:
64,192,221550,1,0,0:0:0:0:
192,192,221620,1,0,0:0:0:0:
64,192,221689,1,0,0:0:0:0:
320,192,221689,1,0,0:0:0:0:
448,192,221689,1,0,0:0:0:0:
192,192,221759,1,0,0:0:0:0:
320,192,221828,1,0,0:0:0:0:
448,192,221898,1,0,0:0:0:0:
64,192,221967,1,0,0:0:0:0:
192,192,221967,1,0,0:0:0:0:
320,192,222037,1,0,0:0:0:0:
192,192,222106,1,0,0:0:0:0:
64,192,222175,1,0,0:0:0:0:
192,192,222245,1,0,0:0:0:0:
320,192,222245,1,0,0:0:0:0:
448,192,222245,1,0,0:0:0:0:
64,192,222314,1,0,0:0:0:0:
320,192,222384,1,0,0:0:0:0:
448,192,222453,1,0,0:0:0:0:
64,192,222523,1,0,0:0:0:0:
192,192,222523,1,0,0:0:0:0:
320,192,222523,1,0,0:0:0:0:
448,192,222592,1,0,0:0:0:0:
64,192,222662,1,0,0:0:0:0:
192,192,222731,1,0,0:0:0:0:
64,192,222800,1,0,0:0:0:0:
320,192,222800,1,0,0:0:0:0:
448,192,222800,1,0,0:0:0:0:
192,192,222870,1,0,0:0:0:0:
448,192,222939,1,0,0:0:0:0:
64,192,223009,1,0,0:0:0:0:
320,192,223078,1,0,0:0:0:0:
448,192,223078,1,0,0:0:0:0:
64,192,223124,1,0,0:0:0:0:
192,192,223171,1,0,0:0:0:0:
320,192,223217,1,0,0:0:0:0:
448,192,223287,1,0,0:0:0:0:
64,192,223356,1,0,0:0:0:0:
448,192,223402,1,0,0:0:0:0:
320,192,223449,1,0,0:0:0:0:
192,192,223495,1,0,0:0:0:0:
64,192,223564,1,0,0:0:0:0:
448,192,223634,1,0,0:0:0:0:
192,192,223680,1,0,0:0:0:0:
320,192,223726,1,0,0:0:0:0:
64,192,223773,1,0,0:0:0:0:
192,192,223842,1,0,0:0:0:0:
64,192,223912,1,0,0:0:0:0:
320,192,223912,1,0,0:0:0:0:
448,192,223912,1,0,0:0:0:0:
192,192,223964,1,0,0:0:0:0:
448,192,224016,1,0,0:0:0:0:
64,192,224074,1,0,0:0:0:0:
448,192,224137,1,0,0:0:0:0:
192,192,224189,1,0,0:0:0:0:
320,192,224241,1,0,0:0:0:0:
64,192,224293,1,0,0:0:0:0:
448,192,224328,1,0,0:0:0:0:
192,192,224398,1,0,0:0:0:0:
64,192,224467,1,0,0:0:0:0:
448,192,224467,1,0,0:0:0:0:
320,192,224537,1,0,0:0:0:0:
64,192,224606,1,0,0:0:0:0:
192,192,224675,1,0,0:0:0:0:
320,192,224745,1,0,0:0:0:0:
448,192,224745,1,0,0:0:0:0:
192,192,224814,1,0,0:0:0:0:
64,192,224884,1,0,0:0:0:0:
320,192,224953,1,0,0:0:0:0:
64,192,225023,1,0,0:0:0:0:
192,192,225023,1,0,0:0:0:0:
448,192,225069,1,0,0:0:0:0:
320,192,225115,1,0,0:0:0:0:
64,192,225162,1,0,0:0:0:0:
192,192,225208,1,0,0:0:0:0:
448,192,225254,1,0,0:0:0:0:
64,192,225300,1,0,0:0:0:0:
448,192,225347,1,0,0:0:0:0:
320,192,225393,1,0,0:0:0:0:
64,192,225439,1,0,0:0:0:0:
192,192,225486,1,0,0:0:0:0:
448,192,225532,1,0,0:0:0:0:
64,192,225578,1,0,0:0:0:0:
320,192,225624,1,0,0:0:0:0:
192,192,225671,1,0,0:0:0:0:
64,192,225717,1,0,0:0:0:0:
448,192,225763,1,0,0:0:0:0:
320,192,225810,1,0,0:0:0:0:
64,192,225856,1,0,0:0:0:0:
192,192,225902,1,0,0:0:0:0:
448,192,225949,1,0,0:0:0:0:
320,192,225995,1,0,0:0:0:0:
64,192,226041,1,0,0:0:0:0:
192,192,226087,1,0,0:0:0:0:
320,192,226134,1,0,0:0:0:0:
448,192,226180,1,0,0:0:0:0:
192,192,226226,1,0,0:0:0:0:
64,192,226273,1,0,0:0:0:0:
448,192,226319,1,0,0:0:0:0:
64,192,226365,1,0,0:0:0:0:
192,192,226412,1,0,0:0:0:0:
320,192,226458,1,0,0:0:0:0:
64,192,226550,1,0,0:0:0:0:
192,192,226550,1,0,0:0:0:0:
448,192,226620,1,0,0:0:0:0:
64,192,226689,1,0,0:0:0:0:
192,192,226689,1,0,0:0:0:0:
320,192,226689,1,0,0:0:0:0:
448,192,226759,1,0,0:0:0:0:
64,192,226828,1,0,0:0:0:0:
320,192,226898,1,0,0:0:0:0:
64,192,226967,1,0,0:0:0:0:
448,192,226967,1,0,0:0:0:0:
192,192,227037,1,0,0:0:0:0:
320,192,227106,1,0,0:0:0:0:
64,192,227175,1,0,0:0:0:0:
320,192,227245,1,0,0:0:0:0:
448,192,227291,1,0,0:0:0:0:
192,192,227337,1,0,0:0:0:0:
320,192,227384,1,0,0:0:0:0:
448,192,227430,1,0,0:0:0:0:
192,192,227476,1,0,0:0:0:0:
64,192,227523,1,0,0:0:0:0:
320,192,227569,1,0,0:0:0:0:
192,192,227615,1,0,0:0:0:0:
448,192,227662,1,0,0:0:0:0:
64,192,227708,1,0,0:0:0:0:
320,192,227754,1,0,0:0:0:0:
192,192,227800,1,0,0:0:0:0:
448,192,227847,1,0,0:0:0:0:
320,192,227893,1,0,0:0:0:0:
64,192,227939,1,0,0:0:0:0:
192,192,227986,1,0,0:0:0:0:
320,192,228032,1,0,0:0:0:0:
64,192,228078,1,0,0:0:0:0:
192,192,228124,1,0,0:0:0:0:
64,192,228171,1,0,0:0:0:0:
448,192,228217,1,0,0:0:0:0:
320,192,228263,1,0,0:0:0:0:
192,192,228310,1,0,0:0:0:0:
64,192,228356,1,0,0:0:0:0:
320,192,228402,1,0,0:0:0:0:
192,192,228449,1,0,0:0:0:0:
448,192,228495,1,0,0:0:0:0:
64,192,228541,1,0,0:0:0:0:
320,192,228587,1,0,0:0:0:0:
192,192,228634,1,0,0:0:0:0:
448,192,228680,1,0,0:0:0:0:
64,192,228773,1,0,0:0:0:0:
192,192,228773,1,0,0:0:0:0:
320,192,228842,1,0,0:0:0:0:
64,192,228912,1,0,0:0:0:0:
192,192,228912,1,0,0:0:0:0:
448,192,228912,1,0,0:0:0:0:
64,192,229189,1,0,0:0:0:0:
320,192,229189,1,0,0:0:0:0:
448,192,229189,1,0,0:0:0:0:
192,192,229328,1,0,0:0:0:0:
320,192,229328,1,0,0:0:0:0:
64,192,229467,1,0,0:0:0:0:
192,192,229467,1,0,0:0:0:0:
448,192,229467,1,0,0:0:0:0:
320,192,229537,1,0,0:0:0:0:
64,192,229606,1,0,0:0:0:0:
192,192,229675,1,0,0:0:0:0:
64,192,229745,1,0,0:0:0:0:
320,192,229745,1,0,0:0:0:0:
448,192,229745,1,0,0:0:0:0:
192,192,229814,1,0,0:0:0:0:
320,192,229884,1,0,0:0:0:0:
64,192,229953,1,0,0:0:0:0:
192,192,230023,1,0,0:0:0:0:
320,192,230023,1,0,0:0:0:0:
448,192,230023,1,0,0:0:0:0:
64,192,230092,1,0,0:0:0:0:
192,192,230162,1,0,0:0:0:0:
320,192,230231,1,0,0:0:0:0:
64,192,230300,1,0,0:0:0:0:
192,192,230300,1,0,0:0:0:0:
448,192,230300,1,0,0:0:0:0:
320,192,230370,1,0,0:0:0:0:
448,192,230439,1,0,0:0:0:0:
192,192,230509,1,0,0:0:0:0:
64,192,230578,1,0,0:0:0:0:
320,192,230578,1,0,0:0:0:0:
448,192,230578,1,0,0:0:0:0:
192,192,230648,1,0,0:0:0:0:
320,192,230717,1,0,0:0:0:0:
192,192,230787,1,0,0:0:0:0:
64,192,230856,1,0,0:0:0:0:
448,192,230856,1,0,0:0:0:0:
320,192,230925,1,0,0:0:0:0:
192,192,230995,1,0,0:0:0:0:
320,192,231064,1,0,0:0:0:0:
64,192,231134,1,0,0:0:0:0:
192,192,231134,1,0,0:0:0:0:
448,192,231134,1,0,0:0:0:0:
320,192,231203,1,0,0:0:0:0:
64,192,231273,1,0,0:0:0:0:
192,192,231342,1,0,0:0:0:0:
64,192,231412,1,0,0:0:0:0:
320,192,231412,1,0,0:0:0:0:
448,192,231412,1,0,0:0:0:0:
192,192,231481,1,0,0:0:0:0:
320,192,231550,1,0,0:0:0:0:
64,192,231620,1,0,0:0:0:0:
192,192,231689,1,0,0:0:0:0:
320,192,231689,1,0,0:0:0:0:
448,192,231689,1,0,0:0:0:0:
64,192,231759,1,0,0:0:0:0:
192,192,231828,1,0,0:0:0:0:
320,192,231898,1,0,0:0:0:0:
64,192,231967,1,0,0:0:0:0:
192,192,231967,1,0,0:0:0:0:
448,192,231967,1,0,0:0:0:0:
320,192,232037,1,0,0:0:0:0:
448,192,232106,1,0,0:0:0:0:
192,192,232175,1,0,0:0:0:0:
64,192,232245,1,0,0:0:0:0:
320,192,232245,1,0,0:0:0:0:
448,192,232245,1,0,0:0:0:0:
192,192,232314,1,0,0:0:0:0:
64,192,232384,1,0,0:0:0:0:
448,192,232453,1,0,0:0:0:0:
64,192,232523,1,0,0:0:0:0:
192,192,232523,1,0,0:0:0:0:
320,192,232523,1,0,0:0:0:0:
448,192,232592,1,0,0:0:0:0:
320,192,232662,1,0,0:0:0:0:
192,192,232731,1,0,0:0:0:0:
64,192,232800,1,0,0:0:0:0:
320,192,232800,1,0,0:0:0:0:
448,192,232800,1,0,0:0:0:0:
192,192,232870,1,0,0:0:0:0:
448,192,232939,1,0,0:0:0:0:
320,192,233009,1,0,0:0:0:0:
64,192,233078,1,0,0:0:0:0:
192,192,233078,1,0,0:0:0:0:
320,192,233148,1,0,0:0:0:0:
448,192,233217,1,0,0:0:0:0:
192,192,233287,1,0,0:0:0:0:
64,192,233356,1,0,0:0:0:0:
448,192,233356,1,0,0:0:0:0:
320,192,233425,1,0,0:0:0:0:
64,192,233495,1,0,0:0:0:0:
192,192,233564,1,0,0:0:0:0:
320,192,233634,1,0,0:0:0:0:
448,192,233634,1,0,0:0:0:0:
192,192,233703,1,0,0:0:0:0:
64,192,233773,1,0,0:0:0:0:
320,192,233842,1,0,0:0:0:0:
64,192,233912,1,0,0:0:0:0:
448,192,233912,1,0,0:0:0:0:
192,192,233958,1,0,0:0:0:0:
320,192,234004,1,0,0:0:0:0:
64,192,234050,1,0,0:0:0:0:
448,192,234097,1,0,0:0:0:0:
192,192,234143,1,0,0:0:0:0:
320,192,234189,1,0,0:0:0:0:
192,192,234236,1,0,0:0:0:0:
448,192,234282,1,0,0:0:0:0:
320,192,234328,1,0,0:0:0:0:
64,192,234374,1,0,0:0:0:0:
448,192,234421,1,0,0:0:0:0:
192,192,234467,1,0,0:0:0:0:
320,192,234513,1,0,0:0:0:0:
64,192,234560,1,0,0:0:0:0:
448,192,234606,1,0,0:0:0:0:
192,192,234652,1,0,0:0:0:0:
320,192,234699,1,0,0:0:0:0:
64,192,234745,1,0,0:0:0:0:
192,192,234791,1,0,0:0:0:0:
448,192,234837,1,0,0:0:0:0:
320,192,234884,1,0,0:0:0:0:
192,192,234930,1,0,0:0:0:0:
64,192,234976,1,0,0:0:0:0:
448,192,235023,1,0,0:0:0:0:
320,192,235069,1,0,0:0:0:0:
192,192,235115,1,0,0:0:0:0:
448,192,235162,1,0,0:0:0:0:
192,192,235208,1,0,0:0:0:0:
64,192,235254,1,0,0:0:0:0:
320,192,235300,1,0,0:0:0:0:
448,192,235347,1,0,0:0:0:0:
64,192,235439,1,0,0:0:0:0:
192,192,235439,1,0,0:0:0:0:
320,192,235509,1,0,0:0:0:0:
64,192,235578,1,0,0:0:0:0:
192,192,235578,1,0,0:0:0:0:
448,192,235578,1,0,0:0:0:0:
320,192,235648,1,0,0:0:0:0:
448,192,235717,1,0,0:0:0:0:
64,192,235787,1,0,0:0:0:0:
192,192,235856,1,0,0:0:0:0:
320,192,235856,1,0,0:0:0:0:
448,192,235925,1,0,0:0:0:0:
64,192,235995,1,0,0:0:0:0:
192,192,236064,1,0,0:0:0:0:
320,192,236134,1,0,0:0:0:0:
448,192,236134,1,0,0:0:0:0:
64,192,236180,1,0,0:0:0:0:
192,192,236226,1,0,0:0:0:0:
448,192,236273,1,0,0:0:0:0:
320,192,236319,1,0,0:0:0:0:
64,192,236365,1,0,0:0:0:0:
192,192,236412,1,0,0:0:0:0:
448,192,236458,1,0,0:0:0:0:
64,192,236504,1,0,0:0:0:0:
320,192,236550,1,0,0:0:0:0:
448,192,236597,1,0,0:0:0:0:
64,192,236643,1,0,0:0:0:0:
320,192,236689,1,0,0:0:0:0:
192,192,236736,1,0,0:0:0:0:
320,192,236782,1,0,0:0:0:0:
448,192,236828,1,0,0:0:0:0:
64,192,236874,1,0,0:0:0:0:
192,192,236921,1,0,0:0:0:0:
320,192,236967,1,0,0:0:0:0:
64,192,237013,1,0,0:0:0:0:
192,192,237060,1,0,0:0:0:0:
64,192,237106,1,0,0:0:0:0:
448,192,237152,1,0,0:0:0:0:
320,192,237199,1,0,0:0:0:0:
192,192,237245,1,0,0:0:0:0:
64,192,237291,1,0,0:0:0:0:
320,192,237337,1,0,0:0:0:0:
448,192,237384,1,0,0:0:0:0:
64,192,237430,1,0,0:0:0:0:
448,192,237476,1,0,0:0:0:0:
320,192,237523,1,0,0:0:0:0:
192,192,237569,1,0,0:0:0:0:
320,192,237662,1,0,0:0:0:0:
448,192,237662,1,0,0:0:0:0:
64,192,237731,1,0,0:0:0:0:
192,192,237800,1,0,0:0:0:0:
320,192,237800,1,0,0:0:0:0:
448,192,237800,1,0,0:0:0:0:
64,192,237870,1,0,0:0:0:0:
448,192,237939,1,0,0:0:0:0:
192,192,238009,1,0,0:0:0:0:
64,192,238078,1,0,0:0:0:0:
448,192,238078,1,0,0:0:0:0:
320,192,238148,1,0,0:0:0:0:
192,192,238217,1,0,0:0:0:0:
320,192,238287,1,0,0:0:0:0:
64,192,238356,1,0,0:0:0:0:
192,192,238356,1,0,0:0:0:0:
448,192,238425,1,0,0:0:0:0:
64,192,238495,1,0,0:0:0:0:
448,192,238564,1,0,0:0:0:0:
192,192,238634,1,0,0:0:0:0:
320,192,238634,1,0,0:0:0:0:
64,192,238703,1,0,0:0:0:0:
192,192,238773,1,0,0:0:0:0:
448,192,238773,1,0,0:0:0:0:
320,192,238842,1,0,0:0:0:0:
64,192,238912,1,0,0:0:0:0:
320,192,238981,1,0,0:0:0:0:
192,192,239050,1,0,0:0:0:0:
448,192,239050,1,0,0:0:0:0:
64,192,239120,1,0,0:0:0:0:
320,192,239189,1,0,0:0:0:0:
448,192,239189,1,0,0:0:0:0:
192,192,239259,1,0,0:0:0:0:
64,192,239328,1,0,0:0:0:0:
320,192,239398,1,0,0:0:0:0:
192,192,239467,1,0,0:0:0:0:
448,192,239467,1,0,0:0:0:0:
64,192,239537,1,0,0:0:0:0:
448,192,239606,1,0,0:0:0:0:
192,192,239675,1,0,0:0:0:0:
64,192,239745,1,0,0:0:0:0:
320,192,239745,1,0,0:0:0:0:
448,192,239814,1,0,0:0:0:0:
192,192,239884,1,0,0:0:0:0:
320,192,239953,1,0,0:0:0:0:
64,192,240023,1,0,0:0:0:0:
192,192,240023,1,0,0:0:0:0:
448,192,240023,1,0,0:0:0:0:
320,192,240069,1,0,0:0:0:0:
64,192,240115,1,0,0:0:0:0:
448,192,240162,1,0,0:0:0:0:
192,192,240208,1,0,0:0:0:0:
320,192,240254,1,0,0:0:0:0:
448,192,240300,1,0,0:0:0:0:
64,192,240352,1,0,0:0:0:0:
320,192,240405,1,0,0:0:0:0:
192,192,240474,1,0,0:0:0:0:
448,192,240526,1,0,0:0:0:0:
64,192,240578,1,0,0:0:0:0:
192,192,240578,1,0,0:0:0:0:
448,192,240648,1,0,0:0:0:0:
64,192,240717,1,0,0:0:0:0:
448,192,240787,1,0,0:0:0:0:
192,192,240856,1,0,0:0:0:0:
320,192,240856,1,0,0:0:0:0:
64,192,240925,1,0,0:0:0:0:
192,192,240995,1,0,0:0:0:0:
448,192,240995,1,0,0:0:0:0:
320,192,241064,1,0,0:0:0:0:
64,192,241134,1,0,0:0:0:0:
320,192,241203,1,0,0:0:0:0:
192,192,241273,1,0,0:0:0:0:
448,192,241273,1,0,0:0:0:0:
64,192,241342,1,0,0:0:0:0:
320,192,241412,1,0,0:0:0:0:
448,192,241412,1,0,0:0:0:0:
192,192,241481,1,0,0:0:0:0:
64,192,241550,1,0,0:0:0:0:
320,192,241620,1,0,0:0:0:0:
192,192,241689,1,0,0:0:0:0:
448,192,241689,1,0,0:0:0:0:
64,192,241759,1,0,0:0:0:0:
448,192,241828,1,0,0:0:0:0:
192,192,241898,1,0,0:0:0:0:
64,192,241967,1,0,0:0:0:0:
320,192,241967,1,0,0:0:0:0:
448,192,242037,1,0,0:0:0:0:
192,192,242106,1,0,0:0:0:0:
320,192,242175,1,0,0:0:0:0:
64,192,242245,1,0,0:0:0:0:
192,192,242245,1,0,0:0:0:0:
448,192,242245,1,0,0:0:0:0:
320,192,242291,1,0,0:0:0:0:
64,192,242337,1,0,0:0:0:0:
448,192,242384,1,0,0:0:0:0:
192,192,242430,1,0,0:0:0:0:
320,192,242476,1,0,0:0:0:0:
448,192,242523,1,0,0:0:0:0:
64,192,242575,1,0,0:0:0:0:
320,192,242627,1,0,0:0:0:0:
192,192,242685,1,0,0:0:0:0:
448,192,242748,1,0,0:0:0:0:
64,192,242800,1,0,0:0:0:0:
192,192,242800,1,0,0:0:0:0:
448,192,242870,1,0,0:0:0:0:
64,192,242939,1,0,0:0:0:0:
448,192,243009,1,0,0:0:0:0:
192,192,243078,1,0,0:0:0:0:
320,192,243078,1,0,0:0:0:0:
64,192,243148,1,0,0:0:0:0:
192,192,243217,1,0,0:0:0:0:
448,192,243217,1,0,0:0:0:0:
320,192,243287,1,0,0:0:0:0:
64,192,243356,1,0,0:0:0:0:
320,192,243425,1,0,0:0:0:0:
192,192,243495,1,0,0:0:0:0:
448,192,243495,1,0,0:0:0:0:
64,192,243564,1,0,0:0:0:0:
320,192,243634,1,0,0:0:0:0:
448,192,243634,1,0,0:0:0:0:
192,192,243703,1,0,0:0:0:0:
64,192,243773,1,0,0:0:0:0:
320,192,243842,1,0,0:0:0:0:
192,192,243912,1,0,0:0:0:0:
448,192,243912,1,0,0:0:0:0:
64,192,243981,1,0,0:0:0:0:
448,192,244050,1,0,0:0:0:0:
192,192,244120,1,0,0:0:0:0:
64,192,244189,1,0,0:0:0:0:
320,192,244189,1,0,0:0:0:0:
448,192,244259,1,0,0:0:0:0:
192,192,244328,1,0,0:0:0:0:
320,192,244398,1,0,0:0:0:0:
64,192,244467,1,0,0:0:0:0:
192,192,244467,1,0,0:0:0:0:
448,192,244467,1,0,0:0:0:0:
320,192,244513,1,0,0:0:0:0:
64,192,244560,1,0,0:0:0:0:
448,192,244606,1,0,0:0:0:0:
192,192,244652,1,0,0:0:0:0:
320,192,244699,1,0,0:0:0:0:
448,192,244745,1,0,0:0:0:0:
64,192,244797,1,0,0:0:0:0:
320,192,244849,1,0,0:0:0:0:
192,192,244907,1,0,0:0:0:0:
448,192,244971,1,0,0:0:0:0:
64,192,245023,1,0,0:0:0:0:
192,192,245023,1,0,0:0:0:0:
448,192,245092,1,0,0:0:0:0:
64,192,245162,1,0,0:0:0:0:
448,192,245231,1,0,0:0:0:0:
192,192,245300,1,0,0:0:0:0:
320,192,245300,1,0,0:0:0:0:
64,192,245370,1,0,0:0:0:0:
192,192,245439,1,0,0:0:0:0:
448,192,245439,1,0,0:0:0:0:
320,192,245509,1,0,0:0:0:0:
64,192,245578,1,0,0:0:0:0:
320,192,245648,1,0,0:0:0:0:
192,192,245717,1,0,0:0:0:0:
448,192,245717,1,0,0:0:0:0:
64,192,245787,1,0,0:0:0:0:
320,192,245856,1,0,0:0:0:0:
448,192,245856,1,0,0:0:0:0:
192,192,245925,1,0,0:0:0:0:
64,192,245995,1,0,0:0:0:0:
320,192,246064,1,0,0:0:0:0:
192,192,246134,1,0,0:0:0:0:
448,192,246134,1,0,0:0:0:0:
64,192,246203,1,0,0:0:0:0:
448,192,246273,1,0,0:0:0:0:
192,192,246342,1,0,0:0:0:0:
64,192,246412,1,0,0:0:0:0:
320,192,246412,1,0,0:0:0:0:
448,192,246481,1,0,0:0:0:0:
192,192,246550,1,0,0:0:0:0:
320,192,246620,1,0,0:0:0:0:
64,192,246689,1,0,0:0:0:0:
192,192,246689,1,0,0:0:0:0:
448,192,246689,1,0,0:0:0:0:
320,192,246736,1,0,0:0:0:0:
64,192,246782,1,0,0:0:0:0:
448,192,246828,1,0,0:0:0:0:
192,192,246874,1,0,0:0:0:0:
320,192,246921,1,0,0:0:0:0:
448,192,246967,1,0,0:0:0:0:
64,192,247019,1,0,0:0:0:0:
320,192,247071,1,0,0:0:0:0:
192,192,247129,1,0,0:0:0:0:
448,192,247193,1,0,0:0:0:0:
64,192,247245,1,0,0:0:0:0:
192,192,247245,1,0,0:0:0:0:
448,192,247314,1,0,0:0:0:0:
64,192,247384,1,0,0:0:0:0:
448,192,247453,1,0,0:0:0:0:
192,192,247523,1,0,0:0:0:0:
320,192,247523,1,0,0:0:0:0:
64,192,247592,1,0,0:0:0:0:
192,192,247662,1,0,0:0:0:0:
448,192,247662,1,0,0:0:0:0:
320,192,247731,1,0,0:0:0:0:
64,192,247800,1,0,0:0:0:0:
320,192,247870,1,0,0:0:0:0:
192,192,247939,1,0,0:0:0:0:
448,192,247939,1,0,0:0:0:0:
64,192,248009,1,0,0:0:0:0:
320,192,248078,1,0,0:0:0:0:
448,192,248078,1,0,0:0:0:0:
192,192,248148,1,0,0:0:0:0:
64,192,248217,1,0,0:0:0:0:
320,192,248287,1,0,0:0:0:0:
192,192,248356,1,0,0:0:0:0:
448,192,248356,1,0,0:0:0:0:
64,192,248425,1,0,0:0:0:0:
448,192,248495,1,0,0:0:0:0:
192,192,248564,1,0,0:0:0:0:
64,192,248634,1,0,0:0:0:0:
320,192,248634,1,0,0:0:0:0:
448,192,248703,1,0,0:0:0:0:
192,192,248773,1,0,0:0:0:0:
320,192,248842,1,0,0:0:0:0:
64,192,248912,1,0,0:0:0:0:
192,192,248912,1,0,0:0:0:0:
448,192,248912,1,0,0:0:0:0:
320,192,248958,1,0,0:0:0:0:
64,192,249004,1,0,0:0:0:0:
448,192,249050,1,0,0:0:0:0:
192,192,249097,1,0,0:0:0:0:
320,192,249143,1,0,0:0:0:0:
448,192,249189,1,0,0:0:0:0:
64,192,249241,1,0,0:0:0:0:
320,192,249293,1,0,0:0:0:0:
192,192,249351,1,0,0:0:0:0:
448,192,249415,1,0,0:0:0:0:
64,192,249467,1,0,0:0:0:0:
192,192,249467,1,0,0:0:0:0:
448,192,249537,1,0,0:0:0:0:
64,192,249606,1,0,0:0:0:0:
448,192,249675,1,0,0:0:0:0:
192,192,249745,1,0,0:0:0:0:
320,192,249745,1,0,0:0:0:0:
64,192,249814,1,0,0:0:0:0:
192,192,249884,1,0,0:0:0:0:
448,192,249884,1,0,0:0:0:0:
320,192,249953,1,0,0:0:0:0:
64,192,250023,1,0,0:0:0:0:
320,192,250092,1,0,0:0:0:0:
192,192,250162,1,0,0:0:0:0:
448,192,250162,1,0,0:0:0:0:
64,192,250231,1,0,0:0:0:0:
320,192,250300,1,0,0:0:0:0:
448,192,250300,1,0,0:0:0:0:
192,192,250370,1,0,0:0:0:0:
64,192,250439,1,0,0:0:0:0:
320,192,250509,1,0,0:0:0:0:
192,192,250578,1,0,0:0:0:0:
448,192,250578,1,0,0:0:0:0:
64,192,250648,1,0,0:0:0:0:
448,192,250717,1,0,0:0:0:0:
192,192,250787,1,0,0:0:0:0:
64,192,250856,1,0,0:0:0:0:
320,192,250856,1,0,0:0:0:0:
448,192,250925,1,0,0:0:0:0:
192,192,250995,1,0,0:0:0:0:
320,192,251064,1,0,0:0:0:0:
64,192,251134,1,0,0:0:0:0:
192,192,251134,1,0,0:0:0:0:
448,192,251134,1,0,0:0:0:0:
320,192,251180,1,0,0:0:0:0:
64,192,251226,1,0,0:0:0:0:
448,192,251273,1,0,0:0:0:0:
192,192,251319,1,0,0:0:0:0:
320,192,251365,1,0,0:0:0:0:
448,192,251412,1,0,0:0:0:0:
64,192,251464,1,0,0:0:0:0:
320,192,251516,1,0,0:0:0:0:
192,192,251574,1,0,0:0:0:0:
448,192,251637,1,0,0:0:0:0:
64,192,251689,1,0,0:0:0:0:
192,192,251689,1,0,0:0:0:0:
448,192,251759,1,0,0:0:0:0:
64,192,251828,1,0,0:0:0:0:
448,192,251898,1,0,0:0:0:0:
192,192,251967,1,0,0:0:0:0:
320,192,251967,1,0,0:0:0:0:
64,192,252037,1,0,0:0:0:0:
192,192,252106,1,0,0:0:0:0:
448,192,252106,1,0,0:0:0:0:
320,192,252175,1,0,0:0:0:0:
64,192,252245,1,0,0:0:0:0:
320,192,252314,1,0,0:0:0:0:
192,192,252384,1,0,0:0:0:0:
448,192,252384,1,0,0:0:0:0:
64,192,252453,1,0,0:0:0:0:
320,192,252523,1,0,0:0:0:0:
448,192,252523,1,0,0:0:0:0:
192,192,252592,1,0,0:0:0:0:
64,192,252662,1,0,0:0:0:0:
320,192,252731,1,0,0:0:0:0:
192,192,252800,1,0,0:0:0:0:
448,192,252800,1,0,0:0:0:0:
64,192,252870,1,0,0:0:0:0:
448,192,252939,1,0,0:0:0:0:
192,192,253009,1,0,0:0:0:0:
64,192,253078,1,0,0:0:0:0:
320,192,253078,1,0,0:0:0:0:
448,192,253148,1,0,0:0:0:0:
192,192,253217,1,0,0:0:0:0:
320,192,253287,1,0,0:0:0:0:
64,192,253356,1,0,0:0:0:0:
192,192,253356,1,0,0:0:0:0:
448,192,253356,1,0,0:0:0:0:
320,192,253402,1,0,0:0:0:0:
64,192,253449,1,0,0:0:0:0:
448,192,253495,1,0,0:0:0:0:
192,192,253541,1,0,0:0:0:0:
320,192,253587,1,0,0:0:0:0:
448,192,253634,1,0,0:0:0:0:
64,192,253686,1,0,0:0:0:0:
320,192,253738,1,0,0:0:0:0:
192,192,253796,1,0,0:0:0:0:
448,192,253859,1,0,0:0:0:0:
64,192,253912,1,0,0:0:0:0:
192,192,253912,1,0,0:0:0:0:
448,192,253981,1,0,0:0:0:0:
64,192,254050,1,0,0:0:0:0:
448,192,254120,1,0,0:0:0:0:
192,192,254189,1,0,0:0:0:0:
320,192,254189,1,0,0:0:0:0:
64,192,254259,1,0,0:0:0:0:
192,192,254328,1,0,0:0:0:0:
448,192,254328,1,0,0:0:0:0:
320,192,254398,1,0,0:0:0:0:
64,192,254467,1,0,0:0:0:0:
320,192,254537,1,0,0:0:0:0:
192,192,254606,1,0,0:0:0:0:
448,192,254606,1,0,0:0:0:0:
64,192,254675,1,0,0:0:0:0:
320,192,254745,1,0,0:0:0:0:
448,192,254745,1,0,0:0:0:0:
192,192,254814,1,0,0:0:0:0:
64,192,254884,1,0,0:0:0:0:
320,192,254953,1,0,0:0:0:0:
192,192,255023,1,0,0:0:0:0:
448,192,255023,1,0,0:0:0:0:
64,192,255092,1,0,0:0:0:0:
448,192,255162,1,0,0:0:0:0:
192,192,255231,1,0,0:0:0:0:
64,192,255300,1,0,0:0:0:0:
320,192,255300,1,0,0:0:0:0:
448,192,255370,1,0,0:0:0:0:
192,192,255439,1,0,0:0:0:0:
320,192,255509,1,0,0:0:0:0:
64,192,255578,1,0,0:0:0:0:
192,192,255578,1,0,0:0:0:0:
448,192,255578,1,0,0:0:0:0:
320,192,255624,1,0,0:0:0:0:
64,192,255671,1,0,0:0:0:0:
448,192,255717,1,0,0:0:0:0:
192,192,255763,1,0,0:0:0:0:
320,192,255810,1,0,0:0:0:0:
448,192,255856,1,0,0:0:0:0:
64,192,255912,1,0,0:0:0:0:
320,192,255967,1,0,0:0:0:0:
192,192,256023,1,0,0:0:0:0:
448,192,256078,1,0,0:0:0:0:
320,192,256134,1,0,0:0:0:0:
64,192,256186,1,0,0:0:0:0:
192,192,256245,1,0,0:0:0:0:
448,192,256296,1,0,0:0:0:0:
320,192,256356,1,0,0:0:0:0:
64,192,256412,1,0,0:0:0:0:
192,192,256481,1,0,0:0:0:0:
320,192,256550,1,0,0:0:0:0:
448,192,256620,1,0,0:0:0:0:
64,192,256689,1,0,0:0:0:0:
192,192,256689,1,0,0:0:0:0:
320,192,256745,1,0,0:0:0:0:
192,192,256800,1,0,0:0:0:0:
448,192,256856,1,0,0:0:0:0:
64,192,256912,1,0,0:0:0:0:
320,192,256967,1,0,0:0:0:0:
448,192,257037,1,0,0:0:0:0:
192,192,257106,1,0,0:0:0:0:
64,192,257175,1,0,0:0:0:0:
320,192,257245,1,0,0:0:0:0:
192,192,257314,1,0,0:0:0:0:
320,192,257384,1,0,0:0:0:0:
64,192,257453,1,0,0:0:0:0:
448,192,257523,1,0,0:0:0:0:
320,192,257578,1,0,0:0:0:0:
64,192,257634,1,0,0:0:0:0:
192,192,257714,1,0,0:0:0:0:
320,192,257800,1,0,0:0:0:0:
64,192,257800,1,0,0:0:0:0:
448,192,257856,1,0,0:0:0:0:
192,192,257912,1,0,0:0:0:0:
320,192,257986,1,0,0:0:0:0:
64,192,258078,1,0,0:0:0:0:
448,192,258148,1,0,0:0:0:0:
64,192,258217,1,0,0:0:0:0:
192,192,258287,1,0,0:0:0:0:
448,192,258356,1,0,0:0:0:0:
320,192,258425,1,0,0:0:0:0:
64,192,258495,1,0,0:0:0:0:
192,192,258564,1,0,0:0:0:0:
448,192,258634,1,0,0:0:0:0:
64,192,258689,1,0,0:0:0:0:
192,192,258745,1,0,0:0:0:0:
320,192,258819,1,0,0:0:0:0:
64,192,258912,1,0,0:0:0:0:
192,192,258912,1,0,0:0:0:0:
448,192,258967,1,0,0:0:0:0:
320,192,259023,1,0,0:0:0:0:
64,192,259097,1,0,0:0:0:0:
192,192,259189,1,0,0:0:0:0:
64,192,259259,1,0,0:0:0:0:
320,192,259328,1,0,0:0:0:0:
448,192,259398,1,0,0:0:0:0:
64,192,259467,1,0,0:0:0:0:
192,192,259537,1,0,0:0:0:0:
320,192,259606,1,0,0:0:0:0:
64,192,259675,1,0,0:0:0:0:
320,192,259745,1,0,0:0:0:0:
192,192,259800,1,0,0:0:0:0:
64,192,259856,1,0,0:0:0:0:
320,192,259930,1,0,0:0:0:0:
192,192,260023,1,0,0:0:0:0:
448,192,260023,1,0,0:0:0:0:
320,192,260092,1,0,0:0:0:0:
64,192,260133,1,0,0:0:0:0:
192,192,260208,1,0,0:0:0:0:
320,192,260300,1,0,0:0:0:0:
448,192,260370,1,0,0:0:0:0:
192,192,260439,1,0,0:0:0:0:
320,192,260509,1,0,0:0:0:0:
64,192,260578,1,0,0:0:0:0:
448,192,260624,1,0,0:0:0:0:
320,192,260648,1,0,0:0:0:0:
192,192,260717,1,0,0:0:0:0:
448,192,260763,1,0,0:0:0:0:
64,192,260787,1,0,0:0:0:0:
320,192,260856,1,0,0:0:0:0:
448,192,260925,1,0,0:0:0:0:
64,192,260949,1,0,0:0:0:0:
192,192,260995,1,0,0:0:0:0:
320,192,261064,1,0,0:0:0:0:
448,192,261134,1,0,0:0:0:0:
192,192,261180,1,0,0:0:0:0:
64,192,261203,1,0,0:0:0:0:
320,192,261273,1,0,0:0:0:0:
64,192,261319,1,0,0:0:0:0:
192,192,261342,1,0,0:0:0:0:
448,192,261412,1,0,0:0:0:0:
320,192,261481,1,0,0:0:0:0:
192,192,261504,1,0,0:0:0:0:
64,192,261550,1,0,0:0:0:0:
448,192,261620,1,0,0:0:0:0:
192,192,261689,1,0,0:0:0:0:
448,192,261736,1,0,0:0:0:0:
64,192,261759,1,0,0:0:0:0:
320,192,261828,1,0,0:0:0:0:
448,192,261874,1,0,0:0:0:0:
64,192,261898,1,0,0:0:0:0:
192,192,261967,1,0,0:0:0:0:
320,192,262037,1,0,0:0:0:0:
64,192,262106,1,0,0:0:0:0:
448,192,262106,1,0,0:0:0:0:
192,192,262175,1,0,0:0:0:0:
64,192,262245,1,0,0:0:0:0:
320,192,262245,1,0,0:0:0:0:
448,192,262245,1,0,0:0:0:0:
192,192,262314,1,0,0:0:0:0:
320,192,262384,1,0,0:0:0:0:
448,192,262453,1,0,0:0:0:0:
192,192,262523,1,0,0:0:0:0:
64,192,262592,1,0,0:0:0:0:
320,192,262662,1,0,0:0:0:0:
448,192,262731,1,0,0:0:0:0:
64,192,262800,128,0,262870:0:0:0:0:
192,192,262800,1,0,0:0:0:0:
320,192,262870,128,0,262939:0:0:0:0:
64,192,262939,128,0,263009:0:0:0:0:
192,192,263009,128,0,263078:0:0:0:0:
320,192,263078,128,0,263148:0:0:0:0:
448,192,263148,128,0,263217:0:0:0:0:
64,192,263217,128,0,263287:0:0:0:0:
192,192,263287,128,0,263356:0:0:0:0:
320,192,263356,128,0,263425:0:0:0:0:
448,192,263356,1,0,0:0:0:0:
64,192,263425,128,0,263495:0:0:0:0:
192,192,263495,128,0,263564:0:0:0:0:
320,192,263564,128,0,263634:0:0:0:0:
448,192,263634,128,0,263703:0:0:0:0:
192,192,263703,128,0,263773:0:0:0:0:
448,192,263773,128,0,263842:0:0:0:0:
64,192,263842,128,0,263912:0:0:0:0:
320,192,263912,128,0,263981:0:0:0:0:
448,192,263981,128,0,264050:0:0:0:0:
64,192,264050,128,0,264120:0:0:0:0:
192,192,264120,128,0,264189:0:0:0:0:
320,192,264189,128,0,264259:0:0:0:0:
448,192,264259,128,0,264328:0:0:0:0:
64,192,264328,128,0,264398:0:0:0:0:
320,192,264328,1,0,0:0:0:0:
192,192,264398,128,0,264467:0:0:0:0:
64,192,264467,1,0,0:0:0:0:
320,192,264467,128,0,264537:0:0:0:0:
448,192,264467,1,0,0:0:0:0:
192,192,264537,128,0,264606:0:0:0:0:
64,192,264606,128,0,264675:0:0:0:0:
448,192,264675,128,0,264745:0:0:0:0:
320,192,264745,128,0,264814:0:0:0:0:
192,192,264814,128,0,264884:0:0:0:0:
64,192,264884,128,0,264953:0:0:0:0:
448,192,264953,128,0,265023:0:0:0:0:
320,192,265023,1,0,0:0:0:0:
64,192,265078,1,0,0:0:0:0:
192,192,265134,1,0,0:0:0:0:
448,192,265189,1,0,0:0:0:0:
320,192,265245,1,0,0:0:0:0:
64,192,265300,1,0,0:0:0:0:
192,192,265370,1,0,0:0:0:0:
320,192,265439,1,0,0:0:0:0:
448,192,265509,1,0,0:0:0:0:
64,192,265578,1,0,0:0:0:0:
192,192,265578,1,0,0:0:0:0:
320,192,265634,1,0,0:0:0:0:
192,192,265689,1,0,0:0:0:0:
448,192,265740,1,0,0:0:0:0:
64,192,265800,1,0,0:0:0:0:
320,192,265856,1,0,0:0:0:0:
448,192,265925,1,0,0:0:0:0:
192,192,265995,1,0,0:0:0:0:
64,192,266064,1,0,0:0:0:0:
320,192,266134,1,0,0:0:0:0:
192,192,266203,1,0,0:0:0:0:
320,192,266273,1,0,0:0:0:0:
64,192,266342,1,0,0:0:0:0:
448,192,266412,1,0,0:0:0:0:
320,192,266467,1,0,0:0:0:0:
64,192,266523,1,0,0:0:0:0:
192,192,266597,1,0,0:0:0:0:
64,192,266689,1,0,0:0:0:0:
320,192,266689,1,0,0:0:0:0:
448,192,266745,1,0,0:0:0:0:
192,192,266800,1,0,0:0:0:0:
320,192,266874,1,0,0:0:0:0:
64,192,266967,1,0,0:0:0:0:
448,192,267037,1,0,0:0:0:0:
64,192,267106,1,0,0:0:0:0:
192,192,267175,1,0,0:0:0:0:
448,192,267245,1,0,0:0:0:0:
320,192,267314,1,0,0:0:0:0:
64,192,267384,1,0,0:0:0:0:
192,192,267453,1,0,0:0:0:0:
448,192,267523,1,0,0:0:0:0:
64,192,267578,1,0,0:0:0:0:
192,192,267634,1,0,0:0:0:0:
320,192,267708,1,0,0:0:0:0:
64,192,267800,1,0,0:0:0:0:
192,192,267800,1,0,0:0:0:0:
448,192,267856,1,0,0:0:0:0:
320,192,267912,1,0,0:0:0:0:
64,192,267986,1,0,0:0:0:0:
192,192,268078,1,0,0:0:0:0:
64,192,268148,1,0,0:0:0:0:
320,192,268217,1,0,0:0:0:0:
448,192,268287,1,0,0:0:0:0:
64,192,268356,1,0,0:0:0:0:
192,192,268425,1,0,0:0:0:0:
320,192,268495,1,0,0:0:0:0:
64,192,268564,1,0,0:0:0:0:
320,192,268634,1,0,0:0:0:0:
192,192,268689,1,0,0:0:0:0:
64,192,268745,1,0,0:0:0:0:
320,192,268819,1,0,0:0:0:0:
192,192,268912,1,0,0:0:0:0:
448,192,268912,1,0,0:0:0:0:
320,192,268967,1,0,0:0:0:0:
64,192,269023,1,0,0:0:0:0:
192,192,269097,1,0,0:0:0:0:
320,192,269189,1,0,0:0:0:0:
448,192,269259,1,0,0:0:0:0:
192,192,269328,1,0,0:0:0:0:
320,192,269398,1,0,0:0:0:0:
64,192,269467,1,0,0:0:0:0:
448,192,269519,1,0,0:0:0:0:
320,192,269537,1,0,0:0:0:0:
192,192,269606,1,0,0:0:0:0:
448,192,269658,1,0,0:0:0:0:
64,192,269675,1,0,0:0:0:0:
320,192,269745,1,0,0:0:0:0:
448,192,269814,1,0,0:0:0:0:
64,192,269832,1,0,0:0:0:0:
192,192,269884,1,0,0:0:0:0:
320,192,269953,1,0,0:0:0:0:
448,192,270023,1,0,0:0:0:0:
192,192,270069,1,0,0:0:0:0:
64,192,270092,1,0,0:0:0:0:
320,192,270162,1,0,0:0:0:0:
64,192,270208,1,0,0:0:0:0:
192,192,270231,1,0,0:0:0:0:
448,192,270300,1,0,0:0:0:0:
320,192,270370,1,0,0:0:0:0:
192,192,270393,1,0,0:0:0:0:
64,192,270439,1,0,0:0:0:0:
448,192,270509,1,0,0:0:0:0:
320,192,270578,1,0,0:0:0:0:
448,192,270624,1,0,0:0:0:0:
64,192,270648,1,0,0:0:0:0:
320,192,270717,1,0,0:0:0:0:
448,192,270763,1,0,0:0:0:0:
64,192,270787,1,0,0:0:0:0:
192,192,270856,128,0,270925:0:0:0:0:
192,192,270995,128,0,271064:0:0:0:0:
64,192,271041,1,0,0:0:0:0:
448,192,271087,1,0,0:0:0:0:
192,192,271134,1,0,0:0:0:0:
320,192,271134,128,0,271203:0:0:0:0:
320,192,271273,128,0,271342:0:0:0:0:
448,192,271412,128,0,271481:0:0:0:0:
448,192,271550,128,0,271620:0:0:0:0:
64,192,271689,128,0,271828:0:0:0:0:
64,192,271967,128,0,272106:0:0:0:0:
64,192,272245,128,0,272384:0:0:0:0:
320,192,272245,1,0,0:0:0:0:
64,192,272523,128,0,272662:0:0:0:0:
64,192,272800,128,0,272939:0:0:0:0:
192,192,273078,128,0,273148:0:0:0:0:
192,192,273217,128,0,273287:0:0:0:0:
64,192,273263,1,0,0:0:0:0:
448,192,273310,1,0,0:0:0:0:
192,192,273356,1,0,0:0:0:0:
320,192,273356,128,0,273425:0:0:0:0:
320,192,273495,128,0,273564:0:0:0:0:
448,192,273634,128,0,273703:0:0:0:0:
448,192,273773,128,0,273842:0:0:0:0:
64,192,273912,128,0,274050:0:0:0:0:
320,192,273912,1,0,0:0:0:0:
192,192,273981,1,0,0:0:0:0:
448,192,274189,1,0,0:0:0:0:
64,192,274189,128,0,274328:0:0:0:0:
448,192,274328,1,0,0:0:0:0:
64,192,274467,128,0,274606:0:0:0:0:
320,192,274467,1,0,0:0:0:0:
448,192,274745,1,0,0:0:0:0:
64,192,274745,128,0,274884:0:0:0:0:
448,192,274884,1,0,0:0:0:0:
64,192,275023,128,0,275162:0:0:0:0:
320,192,275023,1,0,0:0:0:0:
192,192,275092,1,0,0:0:0:0:
192,192,275300,128,0,275370:0:0:0:0:
192,192,275439,128,0,275509:0:0:0:0:
64,192,275486,1,0,0:0:0:0:
448,192,275532,1,0,0:0:0:0:
192,192,275578,1,0,0:0:0:0:
320,192,275578,128,0,275648:0:0:0:0:
320,192,275717,128,0,275787:0:0:0:0:
448,192,275856,128,0,275925:0:0:0:0:
448,192,275995,128,0,276064:0:0:0:0:
64,192,276134,128,0,276273:0:0:0:0:
320,192,276134,1,0,0:0:0:0:
192,192,276203,1,0,0:0:0:0:
448,192,276412,1,0,0:0:0:0:
64,192,276412,128,0,276550:0:0:0:0:
448,192,276550,1,0,0:0:0:0:
64,192,276689,128,0,276828:0:0:0:0:
320,192,276689,1,0,0:0:0:0:
64,192,276967,1,0,0:0:0:0:
192,192,276967,1,0,0:0:0:0:
320,192,277071,1,0,0:0:0:0:
448,192,277071,1,0,0:0:0:0:
192,192,277152,1,0,0:0:0:0:
64,192,277245,1,0,0:0:0:0:
448,192,277245,1,0,0:0:0:0:
320,192,277314,1,0,0:0:0:0:
192,192,277517,1,0,0:0:0:0:
320,192,277523,1,0,0:0:0:0:
192,192,277656,1,0,0:0:0:0:
64,192,277662,1,0,0:0:0:0:
448,192,277800,1,0,0:0:0:0:
320,192,277807,1,0,0:0:0:0:
64,192,277939,1,0,0:0:0:0:
448,192,277939,1,0,0:0:0:0:
192,192,278073,1,0,0:0:0:0:
320,192,278078,1,0,0:0:0:0:
192,192,278212,1,0,0:0:0:0:
64,192,278356,1,0,0:0:0:0:
320,192,278356,1,0,0:0:0:0:
192,192,278402,1,0,0:0:0:0:
448,192,278449,1,0,0:0:0:0:
64,192,278495,1,0,0:0:0:0:
320,192,278541,1,0,0:0:0:0:
448,192,278587,1,0,0:0:0:0:
192,192,278634,1,0,0:0:0:0:
320,192,278680,1,0,0:0:0:0:
64,192,278726,1,0,0:0:0:0:
448,192,278773,1,0,0:0:0:0:
192,192,278819,1,0,0:0:0:0:
320,192,278865,1,0,0:0:0:0:
448,192,278912,1,0,0:0:0:0:
64,192,278958,1,0,0:0:0:0:
192,192,279004,1,0,0:0:0:0:
320,192,279050,1,0,0:0:0:0:
64,192,279097,1,0,0:0:0:0:
448,192,279143,1,0,0:0:0:0:
192,192,279189,1,0,0:0:0:0:
320,192,279236,1,0,0:0:0:0:
448,192,279282,1,0,0:0:0:0:
64,192,279328,1,0,0:0:0:0:
192,192,279374,1,0,0:0:0:0:
320,192,279421,1,0,0:0:0:0:
448,192,279467,1,0,0:0:0:0:
64,192,279513,1,0,0:0:0:0:
320,192,279560,1,0,0:0:0:0:
448,192,279606,1,0,0:0:0:0:
192,192,279652,1,0,0:0:0:0:
320,192,279699,1,0,0:0:0:0:
64,192,279745,1,0,0:0:0:0:
192,192,279791,1,0,0:0:0:0:
448,192,279837,1,0,0:0:0:0:
64,192,279884,1,0,0:0:0:0:
320,192,279930,1,0,0:0:0:0:
448,192,279976,1,0,0:0:0:0:
192,192,280023,1,0,0:0:0:0:
320,192,280069,1,0,0:0:0:0:
64,192,280115,1,0,0:0:0:0:
448,192,280162,1,0,0:0:0:0:
192,192,280208,1,0,0:0:0:0:
320,192,280254,1,0,0:0:0:0:
448,192,280300,1,0,0:0:0:0:
192,192,280370,1,0,0:0:0:0:
320,192,280439,1,0,0:0:0:0:
64,192,280509,1,0,0:0:0:0:
192,192,280578,1,0,0:0:0:0:
448,192,280578,1,0,0:0:0:0:
320,192,280624,1,0,0:0:0:0:
64,192,280671,1,0,0:0:0:0:
448,192,280717,1,0,0:0:0:0:
192,192,280763,1,0,0:0:0:0:
64,192,280810,1,0,0:0:0:0:
320,192,280856,1,0,0:0:0:0:
192,192,280902,1,0,0:0:0:0:
448,192,280949,1,0,0:0:0:0:
64,192,280995,1,0,0:0:0:0:
320,192,281041,1,0,0:0:0:0:
192,192,281087,1,0,0:0:0:0:
64,192,281134,1,0,0:0:0:0:
448,192,281180,1,0,0:0:0:0:
320,192,281226,1,0,0:0:0:0:
192,192,281273,1,0,0:0:0:0:
448,192,281319,1,0,0:0:0:0:
64,192,281365,1,0,0:0:0:0:
320,192,281412,1,0,0:0:0:0:
192,192,281458,1,0,0:0:0:0:
64,192,281504,1,0,0:0:0:0:
448,192,281550,1,0,0:0:0:0:
320,192,281597,1,0,0:0:0:0:
192,192,281643,1,0,0:0:0:0:
448,192,281689,1,0,0:0:0:0:
320,192,281736,1,0,0:0:0:0:
64,192,281782,1,0,0:0:0:0:
448,192,281828,1,0,0:0:0:0:
192,192,281874,1,0,0:0:0:0:
64,192,281921,1,0,0:0:0:0:
320,192,281967,1,0,0:0:0:0:
192,192,282013,1,0,0:0:0:0:
448,192,282060,1,0,0:0:0:0:
64,192,282106,1,0,0:0:0:0:
320,192,282152,1,0,0:0:0:0:
192,192,282199,1,0,0:0:0:0:
64,192,282245,1,0,0:0:0:0:
448,192,282291,1,0,0:0:0:0:
320,192,282337,1,0,0:0:0:0:
192,192,282384,1,0,0:0:0:0:
448,192,282430,1,0,0:0:0:0:
64,192,282476,1,0,0:0:0:0:
320,192,282523,1,0,0:0:0:0:
192,192,282592,1,0,0:0:0:0:
448,192,282662,1,0,0:0:0:0:
320,192,282731,1,0,0:0:0:0:
64,192,282800,1,0,0:0:0:0:
192,192,282847,1,0,0:0:0:0:
448,192,282893,1,0,0:0:0:0:
64,192,282939,1,0,0:0:0:0:
320,192,282986,1,0,0:0:0:0:
448,192,283032,1,0,0:0:0:0:
192,192,283078,1,0,0:0:0:0:
320,192,283124,1,0,0:0:0:0:
64,192,283171,1,0,0:0:0:0:
448,192,283217,1,0,0:0:0:0:
192,192,283263,1,0,0:0:0:0:
320,192,283310,1,0,0:0:0:0:
448,192,283356,1,0,0:0:0:0:
64,192,283402,1,0,0:0:0:0:
192,192,283449,1,0,0:0:0:0:
320,192,283495,1,0,0:0:0:0:
64,192,283541,1,0,0:0:0:0:
448,192,283587,1,0,0:0:0:0:
192,192,283634,1,0,0:0:0:0:
320,192,283680,1,0,0:0:0:0:
448,192,283726,1,0,0:0:0:0:
64,192,283773,1,0,0:0:0:0:
192,192,283819,1,0,0:0:0:0:
320,192,283865,1,0,0:0:0:0:
448,192,283912,1,0,0:0:0:0:
64,192,283958,1,0,0:0:0:0:
320,192,284004,1,0,0:0:0:0:
448,192,284050,1,0,0:0:0:0:
192,192,284097,1,0,0:0:0:0:
320,192,284143,1,0,0:0:0:0:
64,192,284189,1,0,0:0:0:0:
192,192,284236,1,0,0:0:0:0:
448,192,284282,1,0,0:0:0:0:
64,192,284328,1,0,0:0:0:0:
320,192,284374,1,0,0:0:0:0:
448,192,284421,1,0,0:0:0:0:
192,192,284467,1,0,0:0:0:0:
320,192,284513,1,0,0:0:0:0:
64,192,284560,1,0,0:0:0:0:
448,192,284606,1,0,0:0:0:0:
192,192,284652,1,0,0:0:0:0:
320,192,284699,1,0,0:0:0:0:
448,192,284745,1,0,0:0:0:0:
192,192,284814,1,0,0:0:0:0:
320,192,284884,1,0,0:0:0:0:
64,192,284953,1,0,0:0:0:0:
448,192,285023,1,0,0:0:0:0:
320,192,285069,1,0,0:0:0:0:
64,192,285115,1,0,0:0:0:0:
448,192,285162,1,0,0:0:0:0:
192,192,285208,1,0,0:0:0:0:
64,192,285254,1,0,0:0:0:0:
320,192,285300,1,0,0:0:0:0:
192,192,285347,1,0,0:0:0:0:
448,192,285393,1,0,0:0:0:0:
64,192,285439,1,0,0:0:0:0:
320,192,285486,1,0,0:0:0:0:
192,192,285532,1,0,0:0:0:0:
64,192,285578,1,0,0:0:0:0:
448,192,285624,1,0,0:0:0:0:
320,192,285671,1,0,0:0:0:0:
192,192,285717,1,0,0:0:0:0:
448,192,285763,1,0,0:0:0:0:
64,192,285810,1,0,0:0:0:0:
320,192,285856,1,0,0:0:0:0:
192,192,285902,1,0,0:0:0:0:
64,192,285949,1,0,0:0:0:0:
448,192,285995,1,0,0:0:0:0:
320,192,286041,1,0,0:0:0:0:
192,192,286087,1,0,0:0:0:0:
448,192,286134,1,0,0:0:0:0:
320,192,286180,1,0,0:0:0:0:
64,192,286226,1,0,0:0:0:0:
448,192,286273,1,0,0:0:0:0:
192,192,286319,1,0,0:0:0:0:
64,192,286365,1,0,0:0:0:0:
320,192,286412,1,0,0:0:0:0:
192,192,286458,1,0,0:0:0:0:
448,192,286504,1,0,0:0:0:0:
64,192,286550,1,0,0:0:0:0:
320,192,286597,1,0,0:0:0:0:
192,192,286643,1,0,0:0:0:0:
64,192,286689,1,0,0:0:0:0:
448,192,286736,1,0,0:0:0:0:
320,192,286782,1,0,0:0:0:0:
192,192,286828,1,0,0:0:0:0:
448,192,286874,1,0,0:0:0:0:
64,192,286921,1,0,0:0:0:0:
192,192,286967,1,0,0:0:0:0:
320,192,286967,1,0,0:0:0:0:
448,192,287037,1,0,0:0:0:0:
64,192,287106,1,0,0:0:0:0:
320,192,287175,1,0,0:0:0:0:
64,192,287245,1,0,0:0:0:0:
448,192,287245,1,0,0:0:0:0:
192,192,287314,1,0,0:0:0:0:
320,192,287384,1,0,0:0:0:0:
192,192,287430,1,0,0:0:0:0:
448,192,287430,1,0,0:0:0:0:
64,192,287453,1,0,0:0:0:0:
320,192,287523,1,0,0:0:0:0:
64,192,287592,1,0,0:0:0:0:
192,192,287662,1,0,0:0:0:0:
448,192,287662,1,0,0:0:0:0:
320,192,287708,1,0,0:0:0:0:
64,192,287754,1,0,0:0:0:0:
448,192,287800,1,0,0:0:0:0:
192,192,287847,1,0,0:0:0:0:
320,192,287893,1,0,0:0:0:0:
64,192,287939,1,0,0:0:0:0:
448,192,288009,1,0,0:0:0:0:
64,192,288078,1,0,0:0:0:0:
192,192,288078,1,0,0:0:0:0:
320,192,288148,1,0,0:0:0:0:
448,192,288217,1,0,0:0:0:0:
192,192,288287,1,0,0:0:0:0:
64,192,288356,1,0,0:0:0:0:
320,192,288356,1,0,0:0:0:0:
448,192,288356,1,0,0:0:0:0:
192,192,288425,1,0,0:0:0:0:
320,192,288495,1,0,0:0:0:0:
448,192,288495,1,0,0:0:0:0:
64,192,288564,1,0,0:0:0:0:
192,192,288634,1,0,0:0:0:0:
320,192,288703,1,0,0:0:0:0:
64,192,288773,1,0,0:0:0:0:
192,192,288773,1,0,0:0:0:0:
448,192,288773,1,0,0:0:0:0:
320,192,288819,1,0,0:0:0:0:
64,192,288865,1,0,0:0:0:0:
448,192,288912,1,0,0:0:0:0:
192,192,288958,1,0,0:0:0:0:
320,192,289004,1,0,0:0:0:0:
64,192,289050,1,0,0:0:0:0:
192,192,289097,1,0,0:0:0:0:
448,192,289143,1,0,0:0:0:0:
320,192,289189,1,0,0:0:0:0:
64,192,289259,1,0,0:0:0:0:
448,192,289328,1,0,0:0:0:0:
192,192,289398,1,0,0:0:0:0:
64,192,289467,1,0,0:0:0:0:
448,192,289467,1,0,0:0:0:0:
320,192,289537,1,0,0:0:0:0:
192,192,289606,1,0,0:0:0:0:
320,192,289652,1,0,0:0:0:0:
448,192,289652,1,0,0:0:0:0:
64,192,289675,1,0,0:0:0:0:
192,192,289745,1,0,0:0:0:0:
320,192,289814,1,0,0:0:0:0:
448,192,289814,1,0,0:0:0:0:
64,192,289884,1,0,0:0:0:0:
192,192,289953,1,0,0:0:0:0:
64,192,290023,1,0,0:0:0:0:
320,192,290023,1,0,0:0:0:0:
448,192,290023,1,0,0:0:0:0:
192,192,290092,1,0,0:0:0:0:
448,192,290162,1,0,0:0:0:0:
320,192,290231,1,0,0:0:0:0:
64,192,290300,1,0,0:0:0:0:
448,192,290370,1,0,0:0:0:0:
192,192,290439,1,0,0:0:0:0:
320,192,290509,1,0,0:0:0:0:
64,192,290578,1,0,0:0:0:0:
192,192,290578,1,0,0:0:0:0:
448,192,290578,1,0,0:0:0:0:
320,192,290624,1,0,0:0:0:0:
64,192,290671,1,0,0:0:0:0:
448,192,290717,1,0,0:0:0:0:
192,192,290763,1,0,0:0:0:0:
320,192,290810,1,0,0:0:0:0:
64,192,290856,1,0,0:0:0:0:
448,192,290925,1,0,0:0:0:0:
64,192,290995,1,0,0:0:0:0:
192,192,290995,1,0,0:0:0:0:
320,192,291064,1,0,0:0:0:0:
64,192,291134,1,0,0:0:0:0:
192,192,291134,1,0,0:0:0:0:
448,192,291134,1,0,0:0:0:0:
320,192,291180,1,0,0:0:0:0:
64,192,291226,1,0,0:0:0:0:
448,192,291273,1,0,0:0:0:0:
320,192,291319,1,0,0:0:0:0:
192,192,291365,1,0,0:0:0:0:
64,192,291412,1,0,0:0:0:0:
192,192,291481,1,0,0:0:0:0:
320,192,291550,1,0,0:0:0:0:
448,192,291550,1,0,0:0:0:0:
64,192,291620,1,0,0:0:0:0:
192,192,291689,1,0,0:0:0:0:
448,192,291689,1,0,0:0:0:0:
320,192,291759,1,0,0:0:0:0:
64,192,291828,1,0,0:0:0:0:
192,192,291874,1,0,0:0:0:0:
320,192,291874,1,0,0:0:0:0:
448,192,291898,1,0,0:0:0:0:
64,192,291967,1,0,0:0:0:0:
448,192,292037,1,0,0:0:0:0:
64,192,292106,1,0,0:0:0:0:
192,192,292106,1,0,0:0:0:0:
320,192,292175,1,0,0:0:0:0:
64,192,292245,1,0,0:0:0:0:
192,192,292245,1,0,0:0:0:0:
448,192,292245,1,0,0:0:0:0:
320,192,292314,1,0,0:0:0:0:
192,192,292384,1,0,0:0:0:0:
64,192,292453,1,0,0:0:0:0:
320,192,292523,1,0,0:0:0:0:
448,192,292523,1,0,0:0:0:0:
192,192,292592,1,0,0:0:0:0:
320,192,292662,1,0,0:0:0:0:
448,192,292731,1,0,0:0:0:0:
64,192,292800,1,0,0:0:0:0:
192,192,292800,1,0,0:0:0:0:
320,192,292870,1,0,0:0:0:0:
64,192,292939,1,0,0:0:0:0:
192,192,292986,1,0,0:0:0:0:
448,192,292986,1,0,0:0:0:0:
320,192,293078,1,0,0:0:0:0:
64,192,293148,1,0,0:0:0:0:
192,192,293171,1,0,0:0:0:0:
448,192,293171,1,0,0:0:0:0:
320,192,293217,1,0,0:0:0:0:
448,192,293287,1,0,0:0:0:0:
64,192,293356,1,0,0:0:0:0:
192,192,293356,1,0,0:0:0:0:
320,192,293425,1,0,0:0:0:0:
448,192,293495,1,0,0:0:0:0:
192,192,293564,1,0,0:0:0:0:
320,192,293634,1,0,0:0:0:0:
64,192,293703,1,0,0:0:0:0:
192,192,293773,1,0,0:0:0:0:
448,192,293842,1,0,0:0:0:0:
64,192,293912,1,0,0:0:0:0:
320,192,293912,1,0,0:0:0:0:
192,192,293981,1,0,0:0:0:0:
64,192,294050,1,0,0:0:0:0:
448,192,294050,1,0,0:0:0:0:
320,192,294120,1,0,0:0:0:0:
192,192,294189,1,0,0:0:0:0:
320,192,294259,1,0,0:0:0:0:
448,192,294259,1,0,0:0:0:0:
64,192,294328,1,0,0:0:0:0:
192,192,294398,1,0,0:0:0:0:
448,192,294467,1,0,0:0:0:0:
320,192,294537,1,0,0:0:0:0:
64,192,294606,1,0,0:0:0:0:
192,192,294606,1,0,0:0:0:0:
448,192,294675,1,0,0:0:0:0:
192,192,294745,1,0,0:0:0:0:
64,192,294814,1,0,0:0:0:0:
320,192,294884,1,0,0:0:0:0:
192,192,294953,1,0,0:0:0:0:
64,192,295023,1,0,0:0:0:0:
320,192,295023,1,0,0:0:0:0:
448,192,295023,1,0,0:0:0:0:
192,192,295069,1,0,0:0:0:0:
448,192,295115,1,0,0:0:0:0:
64,192,295162,1,0,0:0:0:0:
320,192,295208,1,0,0:0:0:0:
192,192,295254,1,0,0:0:0:0:
448,192,295300,1,0,0:0:0:0:
64,192,295393,1,0,0:0:0:0:
320,192,295393,1,0,0:0:0:0:
448,192,295439,1,0,0:0:0:0:
192,192,295509,1,0,0:0:0:0:
64,192,295578,1,0,0:0:0:0:
320,192,295578,1,0,0:0:0:0:
448,192,295578,1,0,0:0:0:0:
192,192,295624,1,0,0:0:0:0:
448,192,295671,1,0,0:0:0:0:
64,192,295717,1,0,0:0:0:0:
192,192,295763,1,0,0:0:0:0:
320,192,295810,1,0,0:0:0:0:
448,192,295856,1,0,0:0:0:0:
64,192,295925,1,0,0:0:0:0:
192,192,295995,1,0,0:0:0:0:
320,192,296064,1,0,0:0:0:0:
64,192,296134,1,0,0:0:0:0:
192,192,296134,1,0,0:0:0:0:
448,192,296203,1,0,0:0:0:0:
320,192,296273,1,0,0:0:0:0:
192,192,296342,1,0,0:0:0:0:
320,192,296412,1,0,0:0:0:0:
64,192,296481,1,0,0:0:0:0:
192,192,296550,1,0,0:0:0:0:
320,192,296620,1,0,0:0:0:0:
64,192,296689,1,0,0:0:0:0:
448,192,296689,1,0,0:0:0:0:
192,192,296759,1,0,0:0:0:0:
320,192,296828,1,0,0:0:0:0:
448,192,296874,1,0,0:0:0:0:
192,192,296921,1,0,0:0:0:0:
320,192,296967,1,0,0:0:0:0:
448,192,297013,1,0,0:0:0:0:
192,192,297060,1,0,0:0:0:0:
320,192,297106,1,0,0:0:0:0:
64,192,297152,1,0,0:0:0:0:
192,192,297199,1,0,0:0:0:0:
448,192,297245,1,0,0:0:0:0:
320,192,297291,1,0,0:0:0:0:
192,192,297337,1,0,0:0:0:0:
64,192,297384,1,0,0:0:0:0:
448,192,297430,1,0,0:0:0:0:
192,192,297476,1,0,0:0:0:0:
320,192,297523,1,0,0:0:0:0:
448,192,297592,1,0,0:0:0:0:
64,192,297662,1,0,0:0:0:0:
192,192,297662,1,0,0:0:0:0:
320,192,297731,1,0,0:0:0:0:
64,192,297800,1,0,0:0:0:0:
192,192,297800,1,0,0:0:0:0:
448,192,297800,1,0,0:0:0:0:
320,192,297870,1,0,0:0:0:0:
64,192,297939,1,0,0:0:0:0:
448,192,298009,1,0,0:0:0:0:
192,192,298078,1,0,0:0:0:0:
320,192,298148,1,0,0:0:0:0:
64,192,298217,1,0,0:0:0:0:
192,192,298287,1,0,0:0:0:0:
320,192,298356,1,0,0:0:0:0:
448,192,298356,1,0,0:0:0:0:
64,192,298425,1,0,0:0:0:0:
448,192,298495,1,0,0:0:0:0:
192,192,298564,1,0,0:0:0:0:
320,192,298634,1,0,0:0:0:0:
64,192,298703,1,0,0:0:0:0:
192,192,298773,1,0,0:0:0:0:
320,192,298842,1,0,0:0:0:0:
64,192,298912,1,0,0:0:0:0:
448,192,298912,1,0,0:0:0:0:
192,192,298981,1,0,0:0:0:0:
320,192,299050,1,0,0:0:0:0:
448,192,299097,1,0,0:0:0:0:
192,192,299143,1,0,0:0:0:0:
320,192,299189,1,0,0:0:0:0:
448,192,299236,1,0,0:0:0:0:
192,192,299282,1,0,0:0:0:0:
320,192,299328,1,0,0:0:0:0:
64,192,299374,1,0,0:0:0:0:
192,192,299421,1,0,0:0:0:0:
448,192,299467,1,0,0:0:0:0:
320,192,299513,1,0,0:0:0:0:
192,192,299560,1,0,0:0:0:0:
64,192,299606,1,0,0:0:0:0:
448,192,299652,1,0,0:0:0:0:
192,192,299699,1,0,0:0:0:0:
320,192,299745,1,0,0:0:0:0:
448,192,299814,1,0,0:0:0:0:
64,192,299884,1,0,0:0:0:0:
192,192,299884,1,0,0:0:0:0:
320,192,299953,1,0,0:0:0:0:
64,192,300023,1,0,0:0:0:0:
192,192,300023,1,0,0:0:0:0:
448,192,300023,1,0,0:0:0:0:
320,192,300092,1,0,0:0:0:0:
64,192,300162,1,0,0:0:0:0:
448,192,300231,1,0,0:0:0:0:
192,192,300300,1,0,0:0:0:0:
320,192,300300,1,0,0:0:0:0:
64,192,300370,1,0,0:0:0:0:
448,192,300439,1,0,0:0:0:0:
320,192,300509,1,0,0:0:0:0:
64,192,300578,1,0,0:0:0:0:
192,192,300578,1,0,0:0:0:0:
320,192,300648,1,0,0:0:0:0:
448,192,300717,1,0,0:0:0:0:
64,192,300787,1,0,0:0:0:0:
320,192,300856,1,0,0:0:0:0:
448,192,300925,1,0,0:0:0:0:
192,192,300995,1,0,0:0:0:0:
320,192,301064,1,0,0:0:0:0:
64,192,301134,1,0,0:0:0:0:
448,192,301134,1,0,0:0:0:0:
192,192,301203,1,0,0:0:0:0:
320,192,301273,1,0,0:0:0:0:
448,192,301319,1,0,0:0:0:0:
192,192,301365,1,0,0:0:0:0:
320,192,301412,1,0,0:0:0:0:
448,192,301458,1,0,0:0:0:0:
192,192,301504,1,0,0:0:0:0:
320,192,301550,1,0,0:0:0:0:
64,192,301597,1,0,0:0:0:0:
192,192,301643,1,0,0:0:0:0:
448,192,301689,1,0,0:0:0:0:
320,192,301736,1,0,0:0:0:0:
192,192,301782,1,0,0:0:0:0:
64,192,301828,1,0,0:0:0:0:
448,192,301874,1,0,0:0:0:0:
192,192,301921,1,0,0:0:0:0:
320,192,301967,1,0,0:0:0:0:
448,192,302037,1,0,0:0:0:0:
192,192,302106,1,0,0:0:0:0:
320,192,302175,1,0,0:0:0:0:
64,192,302245,1,0,0:0:0:0:
192,192,302245,1,0,0:0:0:0:
448,192,302245,1,0,0:0:0:0:
320,192,302314,1,0,0:0:0:0:
192,192,302384,1,0,0:0:0:0:
448,192,302453,1,0,0:0:0:0:
64,192,302523,1,0,0:0:0:0:
192,192,302592,1,0,0:0:0:0:
448,192,302662,1,0,0:0:0:0:
320,192,302731,1,0,0:0:0:0:
64,192,302800,1,0,0:0:0:0:
192,192,302800,1,0,0:0:0:0:
448,192,302870,1,0,0:0:0:0:
320,192,302939,1,0,0:0:0:0:
192,192,303009,1,0,0:0:0:0:
448,192,303078,1,0,0:0:0:0:
64,192,303148,1,0,0:0:0:0:
192,192,303217,1,0,0:0:0:0:
320,192,303287,1,0,0:0:0:0:
64,192,303356,1,0,0:0:0:0:
448,192,303356,1,0,0:0:0:0:
192,192,303425,1,0,0:0:0:0:
320,192,303495,1,0,0:0:0:0:
448,192,303541,1,0,0:0:0:0:
192,192,303587,1,0,0:0:0:0:
320,192,303634,1,0,0:0:0:0:
448,192,303680,1,0,0:0:0:0:
192,192,303726,1,0,0:0:0:0:
320,192,303773,1,0,0:0:0:0:
64,192,303819,1,0,0:0:0:0:
192,192,303865,1,0,0:0:0:0:
448,192,303912,1,0,0:0:0:0:
320,192,303958,1,0,0:0:0:0:
192,192,304004,1,0,0:0:0:0:
64,192,304050,1,0,0:0:0:0:
448,192,304097,1,0,0:0:0:0:
192,192,304143,1,0,0:0:0:0:
320,192,304189,1,0,0:0:0:0:
448,192,304259,1,0,0:0:0:0:
192,192,304328,1,0,0:0:0:0:
320,192,304398,1,0,0:0:0:0:
64,192,304467,1,0,0:0:0:0:
192,192,304467,1,0,0:0:0:0:
448,192,304467,1,0,0:0:0:0:
320,192,304537,1,0,0:0:0:0:
64,192,304606,1,0,0:0:0:0:
448,192,304675,1,0,0:0:0:0:
192,192,304745,1,0,0:0:0:0:
320,192,304745,1,0,0:0:0:0:
64,192,304814,1,0,0:0:0:0:
448,192,304884,1,0,0:0:0:0:
64,192,305023,1,0,0:0:0:0:
192,192,305023,1,0,0:0:0:0:
