osu file format v14

[General]
AudioFilename: audio.mp3
AudioLeadIn: 0
PreviewTime: 57391
Countdown: 1
SampleSet: Soft
StackLeniency: 0.7
Mode: 0
LetterboxInBreaks: 0
WidescreenStoryboard: 0

[Editor]
Bookmarks: 12727,57503,86160,114816,143473,157801,172130,215115,229443,243772
DistanceSpacing: 0.6
BeatDivisor: 4
GridSize: 32
TimelineZoom: 1

[Metadata]
Title:Kill V. Maim
TitleUnicode:Kill V. Maim
Artist:Grimes
ArtistUnicode:Grimes
Creator:Alvieee
Version:Insane
Source:
Tags:
BeatmapID:1889069
BeatmapSetID:905060

[Difficulty]
HPDrainRate:6.3
CircleSize:4.2
OverallDifficulty:9
ApproachRate:8.8
SliderMultiplier:1.6
SliderTickRate:1

[Events]
//Background and Video events
0,0,"bg.jpg",0,0
//Break Periods
2,143673,157172
//Storyboard Layer 0 (Background)
//Storyboard Layer 1 (Fail)
//Storyboard Layer 2 (Pass)
//Storyboard Layer 3 (Foreground)
//Storyboard Sound Samples

[TimingPoints]
190,447.761194029851,4,2,1,45,1,0
53025,-142.857142857143,4,2,1,45,0,0
56607,-71.4285714285714,4,2,1,45,0,0
57503,-71.4285714285714,4,2,1,60,0,1
85712,-62.5,4,2,1,45,0,0
86160,-100,4,2,1,45,0,0
114816,-71.4285714285714,4,2,1,60,0,1
143473,-100,4,2,1,45,0,0
172130,-71.4285714285714,4,2,1,60,0,1
215115,-76.9230769230769,4,2,1,45,0,0

[Colours]
Combo1 : 255,177,100
Combo2 : 255,128,255
Combo3 : 255,177,100
Combo4 : 201,147,255

[HitObjects]
256,192,12727,12,0,14294,0:0:0:0:
324,335,14518,6,0,L|412:342,1,80,8|0,0:0|0:0,0:0:0:0:
416,216,14966,1,0,0:0:0:0:
244,328,15190,2,0,L|332:335,1,80,8|0,0:0|0:0,0:0:0:0:
338,169,15637,1,8,0:0:0:0:
403,341,15861,1,0,0:0:0:0:
188,49,16309,6,0,L|100:42,1,80,8|0,0:0|0:0,0:0:0:0:
96,168,16757,1,0,0:0:0:0:
268,56,16981,2,0,L|180:49,1,80,8|0,0:0|0:0,0:0:0:0:
174,215,17428,1,8,0:0:0:0:
109,43,17652,1,0,0:0:0:0:
324,335,18100,6,0,L|412:342,1,80,8|0,0:0|0:0,0:0:0:0:
416,216,18548,1,0,0:0:0:0:
244,328,18772,2,0,L|332:335,1,80,8|0,0:0|0:0,0:0:0:0:
338,169,19219,1,8,0:0:0:0:
403,341,19443,1,0,0:0:0:0:
475,268,19667,1,0,0:0:0:0:
363,165,19891,6,0,L|372:264,1,80,8|0,0:0|0:0,0:0:0:0:
488,130,20339,2,0,L|497:31,1,80,0|8,0:0|0:0,0:0:0:0:
388,158,20787,2,0,L|400:303,1,120
401,301,21234,1,0,0:0:0:0:
291,213,21458,1,8,0:0:0:0:
167,364,21682,6,0,L|41:352,1,120,8|0,0:0|0:0,0:0:0:0:
26,354,22130,1,0,0:0:0:0:
26,354,22354,2,0,L|19:267,1,80,8|0,0:0|0:0,0:0:0:0:
186,238,22801,1,8,0:0:0:0:
33,253,23025,2,0,L|21:127,1,120
20,108,23473,5,8,0:0:0:0:
320,0,23921,5,0,0:0:0:0:
309,111,24145,1,8,0:0:0:0:
512,264,24592,5,8,0:0:0:0:
501,153,24816,2,0,L|406:166,1,80
272,307,25264,6,0,L|441:319,1,160,8|0,0:0|0:0,0:0:0:0:
364,193,25936,2,0,L|352:362,1,160,8|8,0:0|0:0,0:0:0:0:
267,207,26607,2,0,L|172:220,1,80
202,333,27055,5,8,0:0:0:0:
384,70,27503,5,0,0:0:0:0:
273,59,27727,1,8,0:0:0:0:
64,256,28175,5,8,0:0:0:0:
175,245,28399,1,0,0:0:0:0:
56,75,28622,1,8,0:0:0:0:
14,339,28846,6,0,L|115:346,1,80,8|0,0:0|0:0,0:0:0:0:
53,101,29294,1,0,0:0:0:0:
184,348,29518,2,0,L|193:221,1,120,8|0,0:0|0:0,0:0:0:0:
195,203,29966,1,8,0:0:0:0:
498,261,30190,2,0,L|397:268,1,80
276,155,30637,6,0,L|377:162,1,80,8|0,0:0|0:0,0:0:0:0:
255,382,31085,1,0,0:0:0:0:
428,359,31309,2,0,L|415:212,1,120,8|0,0:0|0:0,0:0:0:0:
415,215,31757,1,8,0:0:0:0:
230,384,31981,1,0,0:0:0:0:
156,73,32428,5,8,0:0:0:0:
63,203,32652,1,0,0:0:0:0:
303,127,32876,1,0,0:0:0:0:
181,80,33100,2,0,L|176:211,1,120,8|0,0:0|0:0,0:0:0:0:
176,224,33548,1,8,0:0:0:0:
324,114,33772,1,0,0:0:0:0:
52,47,33995,1,0,0:0:0:0:
350,121,34219,6,0,B|355:162|355:162|344:200,1,80,8|0,0:0|0:0,0:0:0:0:
172,55,34667,6,0,B|206:36|206:36|248:32,1,80,0|8,0:0|0:0,0:0:0:0:
186,246,35115,6,0,B|156:220|156:220|138:183,1,80,0|8,0:0|0:0,0:0:0:0:
350,121,35563,1,0,0:0:0:0:
76,101,35787,1,8,0:0:0:0:
273,213,36010,6,0,L|265:312,1,80,8|0,0:0|0:0,0:0:0:0:
166,76,36458,1,0,0:0:0:0:
101,185,36682,1,8,0:0:0:0:
443,109,37130,1,8,0:0:0:0:
378,0,37354,2,0,L|292:8,1,80
433,90,37801,5,8,0:0:0:0:
307,384,38249,5,0,0:0:0:0:
361,259,38473,1,8,0:0:0:0:
193,335,38697,1,8,0:0:0:0:
405,348,38921,1,8,0:0:0:0:
154,246,39145,1,0,0:0:0:0:
100,371,39369,1,0,0:0:0:0:
165,223,39592,6,0,L|154:133,1,80,8|0,0:0|0:0,0:0:0:0:
10,305,40040,2,0,L|0:384,1,80,0|8,0:0|0:0,0:0:0:0:
243,183,40488,1,0,0:0:0:0:
72,155,40712,1,8,0:0:0:0:
193,384,40936,1,0,0:0:0:0:
193,384,42279,5,8,0:0:0:0:
512,186,42503,1,8,0:0:0:0:
152,236,42727,1,8,0:0:0:0:
512,339,42951,1,8,0:0:0:0:
332,178,43175,6,0,P|313:218|316:287,1,80,8|0,0:0|0:0,0:0:0:0:
512,363,43622,1,0,0:0:0:0:
235,299,43846,2,0,P|292:340|330:338,1,80,8|0,0:0|0:0,0:0:0:0:
512,123,44294,1,8,0:0:0:0:
221,215,44518,2,0,L|212:125,1,80
450,240,44966,6,0,P|446:307|408:354,1,120,8|0,0:0|0:0,0:0:0:0:
393,360,45413,1,0,0:0:0:0:
327,202,45637,1,8,0:0:0:0:
175,340,45861,2,0,L|270:349,1,80,0|8,0:0|0:0,0:0:0:0:
359,121,46309,1,0,0:0:0:0:
80,330,46533,1,0,0:0:0:0:
142,135,46757,5,8,0:0:0:0:
208,265,46981,1,0,0:0:0:0:
168,48,47204,1,0,0:0:0:0:
117,223,47428,1,8,0:0:0:0:
301,15,47652,2,0,P|336:72|331:114,1,80,0|8,0:0|0:0,0:0:0:0:
57,90,48100,2,0,P|82:24|116:2,1,80
202,185,48548,5,8,0:0:0:0:
0,164,48772,1,0,0:0:0:0:
274,28,48995,1,0,0:0:0:0:
292,192,49219,1,8,0:0:0:0:
113,176,49443,1,0,0:0:0:0:
252,47,49667,1,8,0:0:0:0:
143,316,49891,1,0,0:0:0:0:
75,35,50115,1,0,0:0:0:0:
290,134,50339,6,0,P|333:96|345:46,1,80,8|0,0:0|0:0,0:0:0:0:
97,118,50787,1,0,0:0:0:0:
421,104,51010,2,0,P|418:41|389:9,1,80,8|0,0:0|0:0,0:0:0:0:
188,116,51458,1,8,0:0:0:0:
413,260,51682,2,0,L|407:345,1,80
241,275,52130,5,8,0:0:0:0:
241,275,52354,1,8,0:0:0:0:
321,216,52801,5,8,0:0:0:0:
321,216,53025,2,0,P|331:150|255:195,1,195.999994018555,8|0,0:0|0:0,0:0:0:0:
240,212,53921,5,0,0:0:0:0:
429,167,54145,1,0,0:0:0:0:
315,296,54369,1,0,0:0:0:0:
352,83,54592,1,0,0:0:0:0:
312,320,54816,5,0,0:0:0:0:
488,104,55040,1,0,0:0:0:0:
248,249,55264,1,0,0:0:0:0:
512,194,55488,1,0,0:0:0:0:
204,54,55712,5,0,0:0:0:0:
448,266,55936,1,0,0:0:0:0:
184,36,56160,1,0,0:0:0:0:
467,284,56384,1,0,0:0:0:0:
32,232,56607,6,0,P|17:280|98:254,1,167.999994873047
101,184,57055,2,0,P|119:185|140:192,1,27.9999991455078,2|8,0:0|0:0,0:0:0:0:
485,177,57503,6,0,P|415:178|324:248,1,167.999994873047,8|0,0:0|0:0,0:0:0:0:
324,252,57951,1,2,0:0:0:0:
265,62,58175,1,8,0:0:0:0:
417,277,58398,1,0,0:0:0:0:
257,38,58622,1,8,0:0:0:0:
194,333,58846,2,0,P|260:363|356:336,1,167.999994873047,2|0,0:0|0:0,0:0:0:0:
370,326,59294,6,0,P|337:269|219:234,1,167.999994873047,8|8,0:0|0:0,0:0:0:0:
221,235,59742,1,2,0:0:0:0:
512,158,59966,1,8,0:0:0:0:
148,98,60190,2,0,P|112:167|116:224,1,111.999996582031,0|8,0:0|0:0,0:0:0:0:
352,95,60637,2,0,P|338:41|301:0,1,111.999996582031,2|0,0:0|0:0,0:0:0:0:
19,172,61085,6,0,P|36:254|112:301,1,167.999994873047,8|0,0:0|0:0,0:0:0:0:
127,304,61533,1,2,0:0:0:0:
249,64,61757,1,8,0:0:0:0:
111,206,61981,1,0,0:0:0:0:
356,75,62204,1,8,0:0:0:0:
17,0,62428,2,0,P|14:73|31:121,1,111.999996582031,2|0,0:0|0:0,0:0:0:0:
179,300,62876,6,0,P|126:349|23:352,1,167.999994873047,8|8,0:0|0:0,0:0:0:0:
11,340,63324,1,2,0:0:0:0:
99,100,63548,1,8,0:0:0:0:
248,363,63772,2,0,P|270:301|254:246,1,111.999996582031,0|8,0:0|0:0,0:0:0:0:
0,225,64219,2,0,P|48:282|104:287,1,111.999996582031,2|0,0:0|0:0,0:0:0:0:
341,237,64667,6,0,P|418:214|507:258,1,167.999994873047,8|0,0:0|0:0,0:0:0:0:
512,265,65115,1,2,0:0:0:0:
406,75,65339,1,8,0:0:0:0:
421,306,65563,1,0,0:0:0:0:
401,50,65787,1,8,0:0:0:0:
330,346,66010,2,0,P|268:326|220:273,1,111.999996582031,2|0,0:0|0:0,0:0:0:0:
215,25,66458,6,0,P|225:96|166:182,1,167.999994873047,8|8,0:0|0:0,0:0:0:0:
153,187,66906,1,2,0:0:0:0:
367,42,67130,1,8,0:0:0:0:
91,0,67354,1,0,0:0:0:0:
87,237,67578,1,8,0:0:0:0:
252,117,67801,1,2,0:0:0:0:
0,0,68025,1,0,0:0:0:0:
337,152,68249,5,8,0:0:0:0:
0,88,68473,1,0,0:0:0:0:
335,62,68697,1,2,0:0:0:0:
76,147,68921,1,8,0:0:0:0:
262,6,69145,5,0,0:0:0:0:
56,32,69369,1,8,0:0:0:0:
282,117,69592,1,2,0:0:0:0:
0,293,69816,1,0,0:0:0:0:
154,0,70040,5,8,0:0:0:0:
275,293,70264,2,0,L|208:301,1,55.9999982910157,0|8,0:0|0:0,0:0:0:0:
0,106,70488,1,2,0:0:0:0:
298,309,70712,1,8,0:0:0:0:
0,197,70936,6,0,P|75:160|190:202,1,167.999994873047
173,190,71384,1,2,0:0:0:0:
98,384,71607,1,0,0:0:0:0:
108,74,71831,6,0,P|187:56|281:105,1,167.999994873047,8|0,0:0|0:0,0:0:0:0:
282,109,72279,1,2,0:0:0:0:
412,301,72503,2,0,P|485:253|491:104,1,223.999993164063,8|8,0:0|0:0,0:0:0:0:
130,300,73175,1,2,0:0:0:0:
130,300,73622,6,0,P|172:357|283:370,1,167.999994873047,8|8,0:0|0:0,0:0:0:0:
288,369,74070,1,2,0:0:0:0:
260,167,74294,1,8,0:0:0:0:
53,364,74518,1,0,0:0:0:0:
281,149,74742,2,0,L|286:84,1,55.9999982910157,8|0,0:0|0:0,0:0:0:0:
147,283,74966,1,2,0:0:0:0:
485,250,75190,1,0,0:0:0:0:
212,89,75413,6,0,P|192:150|256:244,1,167.999994873047,8|0,0:0|0:0,0:0:0:0:
262,248,75861,1,2,0:0:0:0:
290,31,76085,2,0,P|231:5|81:78,1,223.999993164063,8|8,0:0|0:0,0:0:0:0:
371,160,76757,1,2,0:0:0:0:
435,0,76981,1,0,0:0:0:0:
215,127,77204,6,0,P|210:193|284:286,1,167.999994873047,8|8,0:0|0:0,0:0:0:0:
286,287,77652,1,2,0:0:0:0:
484,103,77876,2,0,P|407:90|299:194,1,223.999993164063,8|8,0:0|0:0,0:0:0:0:
486,290,78548,1,2,0:0:0:0:
209,315,78772,1,0,0:0:0:0:
400,174,78995,6,0,P|411:237|385:307,1,111.999996582031,8|0,0:0|0:0,0:0:0:0:
215,343,79443,1,2,0:0:0:0:
253,163,79667,2,0,P|140:163|67:248,1,223.999993164063,8|8,0:0|0:0,0:0:0:0:
284,384,80339,1,2,0:0:0:0:
284,384,80787,6,0,P|259:306|142:261,1,167.999994873047,8|8,0:0|0:0,0:0:0:0:
163,261,81234,1,2,0:0:0:0:
38,384,81458,2,0,L|29:257,1,111.999996582031,8|0,0:0|0:0,0:0:0:0:
135,13,81906,2,0,L|129:71,1,55.9999982910157,8|0,0:0|0:0,0:0:0:0:
163,261,82130,2,0,P|231:234|264:187,1,111.999996582031,2|0,0:0|0:0,0:0:0:0:
17,112,82578,6,0,P|0:192|39:265,1,167.999994873047,8|0,0:0|0:0,0:0:0:0:
59,279,83025,1,2,0:0:0:0:
162,93,83249,1,8,0:0:0:0:
133,347,83473,1,0,0:0:0:0:
0,221,83697,1,8,0:0:0:0:
92,142,83921,1,2,0:0:0:0:
49,384,84145,1,0,0:0:0:0:
11,101,84369,5,0,0:0:0:0:
100,256,84592,1,0,0:0:0:0:
195,0,84816,1,2,0:0:0:0:
55,176,85040,1,8,0:0:0:0:
179,21,85264,6,0,P|257:36|333:95,1,167.999994873047
339,108,85712,2,0,P|422:122|391:49,1,192,2|0,0:0|0:0,0:0:0:0:
269,144,86160,6,0,P|296:188|324:206,1,80,8|0,0:0|0:0,0:0:0:0:
459,283,86608,1,0,0:0:0:0:
331,44,86832,2,0,L|318:209,1,160,8|8,0:0|0:0,0:0:0:0:
14,123,87504,2,0,L|115:116,1,80
236,229,87951,6,0,L|135:222,1,80,8|0,0:0|0:0,0:0:0:0:
257,2,88399,1,0,0:0:0:0:
84,25,88623,2,0,L|97:192,1,160,8|8,0:0|0:0,0:0:0:0:
282,0,89295,1,0,0:0:0:0:
356,311,89742,5,8,0:0:0:0:
449,181,89966,1,8,0:0:0:0:
209,257,90190,1,0,0:0:0:0:
331,304,90414,2,0,L|337:143,1,160,8|8,0:0|0:0,0:0:0:0:
188,270,91086,1,0,0:0:0:0:
201,108,91309,1,0,0:0:0:0:
162,263,91533,6,0,B|155:178,1,80,8|0,0:0|0:0,0:0:0:0:
271,297,91981,2,0,B|259:391,1,80,0|8,0:0|0:0,0:0:0:0:
140,255,92428,2,0,B|133:170,1,80,0|8,0:0|0:0,0:0:0:0:
264,206,92877,1,0,0:0:0:0:
152,358,93101,1,8,0:0:0:0:
266,178,93324,6,0,L|274:79,1,80,8|0,0:0|0:0,0:0:0:0:
346,308,93772,1,0,0:0:0:0:
411,199,93996,1,8,0:0:0:0:
69,275,94444,5,8,0:0:0:0:
134,384,94668,2,0,L|220:376,1,80
79,294,95115,5,8,0:0:0:0:
205,0,95563,5,0,0:0:0:0:
151,125,95787,1,8,0:0:0:0:
319,49,96011,1,8,0:0:0:0:
107,36,96235,1,8,0:0:0:0:
358,138,96459,1,0,0:0:0:0:
412,13,96683,1,0,0:0:0:0:
347,161,96906,6,0,L|358:251,1,80
502,79,97354,2,0,L|512:0,1,80
260,161,97801,2,0,L|271:251,1,80
415,79,98249,2,0,L|425:0,1,80
319,0,99593,5,8,0:0:0:0:
0,198,99817,1,8,0:0:0:0:
360,148,100041,1,8,0:0:0:0:
0,45,100265,1,8,0:0:0:0:
180,206,100489,6,0,P|199:166|196:97,1,80,8|0,0:0|0:0,0:0:0:0:
0,21,100936,1,2,0:0:0:0:
277,85,101160,2,0,P|220:44|182:46,1,80,8|0,0:0|0:0,0:0:0:0:
0,261,101608,1,8,0:0:0:0:
291,169,101832,2,0,L|300:259,1,80,2|0,0:0|0:0,0:0:0:0:
62,144,102280,6,0,P|66:77|104:30,1,120,8|0,0:0|0:0,0:0:0:0:
119,24,102727,1,2,0:0:0:0:
185,182,102951,1,8,0:0:0:0:
337,44,103175,2,0,L|242:35,1,80,0|8,0:0|0:0,0:0:0:0:
153,263,103623,1,2,0:0:0:0:
432,54,103847,1,0,0:0:0:0:
370,249,104071,5,8,0:0:0:0:
304,119,104295,1,0,0:0:0:0:
344,336,104518,1,2,0:0:0:0:
395,161,104742,1,8,0:0:0:0:
211,369,104966,2,0,P|176:312|181:270,1,80,0|8,0:0|0:0,0:0:0:0:
455,294,105414,2,0,P|430:360|396:382,1,80,2|0,0:0|0:0,0:0:0:0:
310,199,105862,5,8,0:0:0:0:
512,220,106086,1,0,0:0:0:0:
238,356,106309,1,2,0:0:0:0:
220,192,106533,1,8,0:0:0:0:
399,208,106757,5,0,0:0:0:0:
260,337,106981,1,8,0:0:0:0:
369,68,107205,1,2,0:0:0:0:
415,266,107429,1,8,0:0:0:0:
222,250,107653,6,0,P|179:288|167:338,1,80,8|0,0:0|0:0,0:0:0:0:
415,266,108101,1,2,0:0:0:0:
91,280,108324,2,0,P|94:343|123:375,1,80,8|0,0:0|0:0,0:0:0:0:
324,268,108772,1,8,0:0:0:0:
99,124,108995,2,0,L|105:39,1,80,2|0,0:0|0:0,0:0:0:0:
271,109,109444,5,8,0:0:0:0:
273,202,109668,1,0,0:0:0:0:
112,225,109891,1,2,0:0:0:0:
358,152,110115,2,0,P|369:218|300:297,1,160,8|8,0:0|0:0,0:0:0:0:
140,151,110787,2,0,P|124:107|126:71,1,80,2|0,0:0|0:0,0:0:0:0:
271,109,111235,5,8,0:0:0:0:
83,217,111459,1,0,0:0:0:0:
197,88,111683,1,8,0:0:0:0:
160,301,111906,1,0,0:0:0:0:
200,64,112130,5,8,0:0:0:0:
24,280,112354,1,0,0:0:0:0:
264,135,112578,1,8,0:0:0:0:
0,190,112802,1,0,0:0:0:0:
308,330,113026,5,8,0:0:0:0:
64,118,113250,1,8,0:0:0:0:
328,348,113474,1,8,0:0:0:0:
45,100,113698,1,8,0:0:0:0:
511,109,113921,5,8,0:0:0:0:
506,132,114033,1,8,0:0:0:0:
501,155,114145,1,8,0:0:0:0:
496,178,114257,1,8,0:0:0:0:
27,207,114817,6,0,P|97:206|188:136,1,167.999994873047,8|0,0:0|0:0,0:0:0:0:
188,132,115264,1,2,0:0:0:0:
247,322,115489,1,8,0:0:0:0:
95,107,115712,1,0,0:0:0:0:
255,346,115936,1,8,0:0:0:0:
318,51,116160,2,0,P|252:21|156:48,1,167.999994873047,2|0,0:0|0:0,0:0:0:0:
142,58,116608,6,0,P|175:115|293:150,1,167.999994873047,8|8,0:0|0:0,0:0:0:0:
291,149,117056,1,2,0:0:0:0:
0,226,117280,1,8,0:0:0:0:
364,286,117504,2,0,P|400:217|396:160,1,111.999996582031,0|8,0:0|0:0,0:0:0:0:
160,289,117951,2,0,P|174:343|211:384,1,111.999996582031,2|0,0:0|0:0,0:0:0:0:
493,212,118399,6,0,P|476:130|400:83,1,167.999994873047,8|0,0:0|0:0,0:0:0:0:
385,80,118846,1,2,0:0:0:0:
263,320,119071,1,8,0:0:0:0:
401,178,119295,1,0,0:0:0:0:
156,309,119518,1,8,0:0:0:0:
495,384,119742,2,0,P|498:311|481:263,1,111.999996582031,2|0,0:0|0:0,0:0:0:0:
333,84,120190,6,0,P|386:35|489:32,1,167.999994873047,8|8,0:0|0:0,0:0:0:0:
501,44,120637,1,2,0:0:0:0:
413,284,120862,1,8,0:0:0:0:
264,21,121086,2,0,P|242:83|258:138,1,111.999996582031,0|8,0:0|0:0,0:0:0:0:
512,159,121533,2,0,P|465:109|408:97,1,111.999996582031,2|0,0:0|0:0,0:0:0:0:
171,147,121981,6,0,P|94:170|5:126,1,167.999994873047,8|0,0:0|0:0,0:0:0:0:
0,119,122429,1,2,0:0:0:0:
106,309,122653,1,8,0:0:0:0:
91,78,122877,1,0,0:0:0:0:
111,334,123101,1,8,0:0:0:0:
182,38,123324,2,0,P|244:58|284:115,1,111.999996582031,2|0,0:0|0:0,0:0:0:0:
297,359,123772,6,0,P|287:288|346:202,1,167.999994873047,8|8,0:0|0:0,0:0:0:0:
359,197,124220,1,2,0:0:0:0:
145,342,124444,1,8,0:0:0:0:
421,384,124668,1,0,0:0:0:0:
425,147,124892,1,8,0:0:0:0:
260,267,125115,1,2,0:0:0:0:
512,384,125339,1,0,0:0:0:0:
175,232,125563,5,8,0:0:0:0:
512,296,125787,1,0,0:0:0:0:
177,322,126010,1,2,0:0:0:0:
436,237,126235,1,8,0:0:0:0:
250,378,126459,5,0,0:0:0:0:
456,352,126683,1,8,0:0:0:0:
230,267,126906,1,2,0:0:0:0:
512,91,127130,1,0,0:0:0:0:
358,384,127354,5,8,0:0:0:0:
237,91,127578,2,0,L|238:159,1,55.9999982910157,8|8,0:0|0:0,0:0:0:0:
512,278,127802,1,2,0:0:0:0:
237,0,128026,1,8,0:0:0:0:
512,187,128250,6,0,P|437:224|322:182,1,167.999994873047
339,194,128698,1,2,0:0:0:0:
414,0,128921,1,0,0:0:0:0:
404,310,129145,6,0,P|325:328|231:279,1,167.999994873047,8|0,0:0|0:0,0:0:0:0:
230,275,129593,1,2,0:0:0:0:
100,83,129817,2,0,P|27:131|21:280,1,223.999993164063,8|8,0:0|0:0,0:0:0:0:
382,84,130488,1,2,0:0:0:0:
382,84,130936,6,0,P|340:27|229:14,1,167.999994873047,8|8,0:0|0:0,0:0:0:0:
224,15,131384,1,2,0:0:0:0:
252,217,131608,1,8,0:0:0:0:
459,20,131832,1,0,0:0:0:0:
233,237,132055,1,8,0:0:0:0:
365,101,132280,1,2,0:0:0:0:
150,171,132504,1,0,0:0:0:0:
300,295,132727,6,0,P|320:234|256:140,1,167.999994873047,8|0,0:0|0:0,0:0:0:0:
250,136,133175,1,2,0:0:0:0:
222,353,133399,2,0,P|281:379|431:306,1,223.999993164063,8|8,0:0|0:0,0:0:0:0:
141,224,134071,1,2,0:0:0:0:
77,384,134295,1,0,0:0:0:0:
297,257,134518,6,0,P|302:191|228:98,1,167.999994873047,8|8,0:0|0:0,0:0:0:0:
226,97,134966,1,2,0:0:0:0:
28,281,135190,2,0,P|105:294|213:190,1,223.999993164063,8|0,0:0|0:0,0:0:0:0:
26,94,135862,1,2,0:0:0:0:
303,69,136086,1,0,0:0:0:0:
112,210,136309,6,0,P|101:147|127:77,1,111.999996582031,8|0,0:0|0:0,0:0:0:0:
297,41,136757,1,2,0:0:0:0:
259,221,136981,2,0,P|372:221|445:136,1,223.999993164063,8|8,0:0|0:0,0:0:0:0:
228,0,137652,1,2,0:0:0:0:
228,0,138101,6,0,P|253:78|370:123,1,167.999994873047,8|8,0:0|0:0,0:0:0:0:
349,123,138548,1,2,0:0:0:0:
474,0,138772,2,0,L|483:127,1,111.999996582031,8|0,0:0|0:0,0:0:0:0:
412,349,139219,1,8,0:0:0:0:
349,123,139443,2,0,P|281:150|248:197,1,111.999996582031,2|0,0:0|0:0,0:0:0:0:
494,271,139892,6,0,P|511:191|472:118,1,167.999994873047,8|0,0:0|0:0,0:0:0:0:
453,105,140339,1,2,0:0:0:0:
283,334,140563,2,0,P|375:376|508:336,1,223.999993164063,8|0,0:0|0:0,0:0:0:0:
271,138,141234,1,2,0:0:0:0:
256,192,141682,12,0,143473,0:0:0:0:
87,297,157801,6,0,P|134:320|171:318,1,80,8|0,0:0|0:0,0:0:0:0:
138,160,158249,2,0,P|135:212|156:254,1,80,10|0,0:0|0:0,0:0:0:0:
286,161,158697,2,0,P|229:178|206:207,1,80,8|0,0:0|0:0,0:0:0:0:
334,299,159145,2,0,P|303:256|272:238,1,80,10|0,0:0|0:0,0:0:0:0:
371,373,159592,6,0,P|410:333|417:295,1,80,8|0,0:0|0:0,0:0:0:0:
270,256,160040,2,0,P|316:295|352:299,1,80,10|0,0:0|0:0,0:0:0:0:
360,140,160488,2,0,P|340:179|346:232,1,80,8|0,0:0|0:0,0:0:0:0:
500,218,160936,2,0,P|443:198|394:207,1,80,10|0,0:0|0:0,0:0:0:0:
278,267,161384,6,0,P|213:281|178:266,1,80,8|0,0:0|0:0,0:0:0:0:
84,168,161831,2,0,P|93:113|112:84,1,80,10|2,0:0|0:0,0:0:0:0:
248,164,162279,2,0,P|210:220|165:238,1,80,8|0,0:0|0:0,0:0:0:0:
274,83,162727,2,0,P|321:121|333:149,1,80,10|2,0:0|0:0,0:0:0:0:
346,297,163175,6,0,P|389:339|435:345,1,80,8|0,0:0|0:0,0:0:0:0:
285,239,163622,2,0,P|259:294|263:333,1,80,10|0,0:0|0:0,0:0:0:0:
314,161,164070,2,0,P|268:158|213:197,1,80,8|0,0:0|0:0,0:0:0:0:
398,167,164518,2,0,P|389:119|360:89,1,80,10|0,0:0|0:0,0:0:0:0:
231,12,164966,6,0,P|240:60|269:90,1,80,8|0,0:0|0:0,0:0:0:0:
364,213,165413,2,0,P|367:161|346:119,1,80,10|2,0:0|0:0,0:0:0:0:
216,212,165862,2,0,P|273:195|296:166,1,80,8|0,0:0|0:0,0:0:0:0:
168,74,166309,2,0,P|199:117|230:135,1,80,10|2,0:0|0:0,0:0:0:0:
131,0,166757,6,0,P|92:40|85:78,1,80,8|0,0:0|0:0,0:0:0:0:
232,117,167205,2,0,P|186:78|150:74,1,80,10|2,0:0|0:0,0:0:0:0:
142,233,167653,2,0,P|162:194|156:141,1,80,8|0,0:0|0:0,0:0:0:0:
2,155,168101,2,0,P|59:175|108:166,1,80,10|2,0:0|0:0,0:0:0:0:
224,106,168549,6,0,P|289:92|324:107,1,80,8|0,0:0|0:0,0:0:0:0:
418,205,168996,2,0,P|409:260|390:289,1,80,10|2,0:0|0:0,0:0:0:0:
243,233,169444,2,0,P|281:177|326:159,1,80,8|0,0:0|0:0,0:0:0:0:
217,314,169891,2,0,P|170:276|158:248,1,80,10|2,0:0|0:0,0:0:0:0:
257,384,170339,5,0,0:0:0:0:
0,192,170787,1,0,0:0:0:0:
256,0,171234,5,8,0:0:0:0:
256,255,171458,1,8,0:0:0:0:
103,0,171682,1,8,0:0:0:0:
99,23,171794,1,8,0:0:0:0:
94,46,171906,1,8,0:0:0:0:
91,69,172018,1,8,0:0:0:0:
85,102,172130,6,0,P|87:171|180:265,1,167.999994873047,8|0,0:0|0:0,0:0:0:0:
166,259,172578,1,10,0:0:0:0:
247,62,172802,1,0,0:0:0:0:
294,257,173025,1,8,0:0:0:0:
241,38,173249,1,0,0:0:0:0:
318,333,173473,2,0,P|252:363|187:351,1,111.999996582031,10|0,0:0|0:0,0:0:0:0:
136,224,173921,5,8,0:0:0:0:
303,143,174145,1,0,0:0:0:0:
217,271,174369,1,10,0:0:0:0:
0,158,174593,1,0,0:0:0:0:
349,73,174816,1,8,0:0:0:0:
91,202,175040,1,2,0:0:0:0:
448,96,175264,2,0,P|443:42|407:0,1,111.999996582031,10|0,0:0|0:0,0:0:0:0:
382,217,175712,6,0,P|431:241|500:224,1,111.999996582031,8|0,0:0|0:0,0:0:0:0:
406,0,176160,1,10,0:0:0:0:
222,73,176384,1,0,0:0:0:0:
401,206,176608,1,8,0:0:0:0:
138,98,176831,1,2,0:0:0:0:
495,0,177055,2,0,P|498:73|481:121,1,111.999996582031,10|0,0:0|0:0,0:0:0:0:
333,300,177503,6,0,P|386:349|489:352,1,167.999994873047,8|8,0:0|0:0,0:0:0:0:
501,340,177951,1,2,0:0:0:0:
413,100,178175,1,8,0:0:0:0:
264,363,178398,2,0,P|242:301|258:246,1,111.999996582031,8|2,0:0|0:0,0:0:0:0:
512,225,178846,2,0,P|464:282|408:287,1,111.999996582031,10|0,0:0|0:0,0:0:0:0:
171,237,179294,6,0,P|94:214|31:240,1,111.999996582031,8|0,0:0|0:0,0:0:0:0:
102,384,179742,1,10,0:0:0:0:
32,135,179966,1,0,0:0:0:0:
270,166,180190,1,8,0:0:0:0:
5,128,180414,1,2,0:0:0:0:
182,346,180637,2,0,P|244:326|281:271,1,111.999996582031,10|0,0:0|0:0,0:0:0:0:
297,25,181085,6,0,P|287:96|317:146,1,111.999996582031,8|0,0:0|0:0,0:0:0:0:
512,63,181533,1,10,0:0:0:0:
145,42,181757,1,0,0:0:0:0:
421,0,181981,1,8,0:0:0:0:
425,237,182205,1,2,0:0:0:0:
260,117,182428,1,10,0:0:0:0:
512,0,182652,1,0,0:0:0:0:
175,152,182876,5,8,0:0:0:0:
512,88,183100,1,0,0:0:0:0:
177,62,183324,1,10,0:0:0:0:
436,147,183548,1,0,0:0:0:0:
250,6,183772,5,8,0:0:0:0:
456,32,183995,1,2,0:0:0:0:
230,117,184219,1,10,0:0:0:0:
512,293,184443,1,0,0:0:0:0:
358,0,184667,5,8,0:0:0:0:
237,293,184891,2,8,L|241:228,1,55.9999982910157
254,76,185115,1,8,0:0:0:0:
168,345,185339,1,8,0:0:0:0:
512,197,185563,6,0,P|437:160|322:202,1,167.999994873047,8|0,0:0|0:0,0:0:0:0:
339,190,186011,1,8,0:0:0:0:
414,384,186234,1,0,0:0:0:0:
404,74,186458,6,0,P|325:56|231:105,1,167.999994873047,8|0,0:0|0:0,0:0:0:0:
230,109,186906,1,10,0:0:0:0:
100,301,187130,2,0,P|27:253|21:104,1,223.999993164063
232,192,187801,2,0,P|168:168|148:127,1,111.999996582031,2|0,0:0|0:0,0:0:0:0:
382,300,188249,6,0,P|340:357|229:370,1,167.999994873047,8|0,0:0|0:0,0:0:0:0:
224,369,188697,1,10,0:0:0:0:
252,167,188921,1,0,0:0:0:0:
459,364,189145,1,8,0:0:0:0:
233,147,189368,1,2,0:0:0:0:
476,271,189593,1,10,0:0:0:0:
145,127,189817,1,0,0:0:0:0:
300,89,190040,6,0,P|320:150|256:244,1,167.999994873047,8|0,0:0|0:0,0:0:0:0:
250,248,190488,1,10,0:0:0:0:
222,31,190712,2,0,P|281:5|431:78,1,223.999993164063,0|2,0:0|0:0,0:0:0:0:
141,160,191384,1,10,0:0:0:0:
77,0,191608,1,0,0:0:0:0:
297,127,191831,6,0,P|302:193|228:286,1,167.999994873047,8|0,0:0|0:0,0:0:0:0:
226,287,192279,1,10,0:0:0:0:
28,103,192503,2,0,P|105:90|213:194,1,223.999993164063,0|2,0:0|0:0,0:0:0:0:
26,290,193175,1,10,0:0:0:0:
303,315,193399,1,0,0:0:0:0:
112,174,193622,6,0,P|101:237|127:307,1,111.999996582031,8|0,0:0|0:0,0:0:0:0:
297,343,194070,1,10,0:0:0:0:
259,163,194294,2,0,P|372:163|445:248,1,223.999993164063,0|2,0:0|0:0,0:0:0:0:
179,204,194966,2,0,P|174:138|198:96,1,111.999996582031,2|0,0:0|0:0,0:0:0:0:
228,384,195414,6,0,P|253:306|370:261,1,167.999994873047,8|0,0:0|0:0,0:0:0:0:
349,261,195861,1,10,0:0:0:0:
474,384,196085,2,0,L|483:257,1,111.999996582031,0|8,0:0|0:0,0:0:0:0:
412,35,196532,1,2,0:0:0:0:
349,261,196757,2,0,P|281:234|254:182,1,111.999996582031,10|0,0:0|0:0,0:0:0:0:
494,113,197205,6,0,P|496:194|466:238,1,111.999996582031,8|0,0:0|0:0,0:0:0:0:
189,161,197652,1,10,0:0:0:0:
283,50,197876,2,0,P|375:8|508:48,1,223.999993164063,0|2,0:0|0:0,0:0:0:0:
247,147,198548,2,0,P|190:86|186:4,1,167.999994873047,10|8,0:0|0:0,0:0:0:0:
210,1,198995,6,0,P|150:43|43:37,1,167.999994873047,8|8,0:0|0:0,0:0:0:0:
36,30,199443,2,0,P|90:79|21:105,1,167.999994873047,10|8,0:0|0:0,0:0:0:0:
6,96,199891,5,8,0:0:0:0:
291,68,200115,1,2,0:0:0:0:
41,299,200339,1,10,0:0:0:0:
116,83,200563,1,0,0:0:0:0:
368,225,200787,6,0,P|379:182|358:104,1,111.999996582031,8|0,0:0|0:0,0:0:0:0:
217,307,201234,2,0,P|258:369|330:388,1,111.999996582031,10|0,0:0|0:0,0:0:0:0:
228,140,201682,6,0,P|133:154|83:206,1,167.999994873047,8|0,0:0|0:0,0:0:0:0:
77,226,202130,2,0,P|139:275|254:266,1,167.999994873047,10|0,0:0|0:0,0:0:0:0:
248,268,202578,6,0,P|336:239|421:277,1,167.999994873047,8|0,0:0|0:0,0:0:0:0:
328,384,203025,1,10,0:0:0:0:
269,158,203249,1,0,0:0:0:0:
0,356,203473,5,8,0:0:0:0:
57,81,203697,1,2,0:0:0:0:
314,365,203921,1,10,0:0:0:0:
66,294,204145,1,2,0:0:0:0:
291,143,204369,5,8,0:0:0:0:
167,302,204592,1,0,0:0:0:0:
67,102,204816,1,10,0:0:0:0:
153,279,205040,1,0,0:0:0:0:
140,28,205264,6,0,P|203:7|259:25,1,111.999996582031,8|2,0:0|0:0,0:0:0:0:
68,217,205712,2,0,P|16:179|-1:129,1,111.999996582031,10|0,0:0|0:0,0:0:0:0:
202,96,206160,5,8,0:0:0:0:
159,277,206384,1,0,0:0:0:0:
112,86,206607,1,10,0:0:0:0:
410,116,206831,1,0,0:0:0:0:
135,180,207055,5,8,0:0:0:0:
384,29,207279,1,2,0:0:0:0:
373,348,207503,2,0,P|446:378|490:359,1,111.999996582031,10|0,0:0|0:0,0:0:0:0:
384,193,207951,6,0,P|324:192|275:227,1,111.999996582031,8|0,0:0|0:0,0:0:0:0:
149,359,208398,2,0,P|71:367|32:344,1,111.999996582031,10|0,0:0|0:0,0:0:0:0:
0,135,208846,6,0,P|42:85|154:71,1,167.999994873047,8|0,0:0|0:0,0:0:0:0:
163,73,209294,2,0,P|142:145|64:197,1,167.999994873047,10|0,0:0|0:0,0:0:0:0:
42,197,209742,5,8,0:0:0:0:
0,22,209966,1,0,0:0:0:0:
224,173,210190,1,10,0:0:0:0:
0,309,210413,1,0,0:0:0:0:
245,160,210637,5,8,0:0:0:0:
4,111,210861,1,2,0:0:0:0:
228,359,211085,2,0,P|244:310|231:246,1,111.999996582031,10|0,0:0|0:0,0:0:0:0:
45,384,211533,5,8,0:0:0:0:
152,194,211757,1,0,0:0:0:0:
401,336,211981,1,10,0:0:0:0:
228,359,212204,1,0,0:0:0:0:
408,150,212428,5,8,0:0:0:0:
81,36,212652,1,2,0:0:0:0:
317,350,212876,1,10,0:0:0:0:
397,171,213100,1,0,0:0:0:0:
80,134,213324,5,8,0:0:0:0:
420,257,213548,1,0,0:0:0:0:
47,222,213772,1,10,0:0:0:0:
484,86,213995,1,0,0:0:0:0:
72,384,214219,6,0,L|138:377,1,55.9999982910157,8|0,0:0|0:0,0:0:0:0:
365,180,214443,2,0,L|299:173,1,55.9999982910157,2|0,0:0|0:0,0:0:0:0:
93,368,214667,2,0,L|159:361,1,55.9999982910157,2|0,0:0|0:0,0:0:0:0:
386,164,214891,2,0,L|320:157,1,55.9999982910157,8|0,0:0|0:0,0:0:0:0:
19,166,215115,6,0,P|0:226|21:284,1,103.999995239258,8|0,0:0|0:0,0:0:0:0:
119,83,215563,2,0,P|67:43|2:42,1,103.999995239258,10|0,0:0|0:0,0:0:0:0:
9,264,216010,2,0,P|73:257|109:229,1,103.999995239258,8|0,0:0|0:0,0:0:0:0:
221,35,216458,2,0,L|226:152,1,103.999995239258,10|0,0:0|0:0,0:0:0:0:
238,325,216906,6,0,P|285:354|391:336,1,155.999992858887,8|0,0:0|0:0,0:0:0:0:
401,329,217354,2,0,L|408:218,1,103.999995239258,10|0,0:0|0:0,0:0:0:0:
276,209,217801,1,8,0:0:0:0:
512,324,218025,1,2,0:0:0:0:
387,111,218249,2,0,P|367:169|386:225,1,103.999995239258,10|0,0:0|0:0,0:0:0:0:
455,59,218697,6,0,P|389:27|337:40,1,103.999995239258,8|0,0:0|0:0,0:0:0:0:
192,115,219145,2,0,P|110:129|73:109,1,103.999995239258,10|0,0:0|0:0,0:0:0:0:
139,0,219592,1,8,0:0:0:0:
174,231,219816,1,2,0:0:0:0:
0,42,220040,1,10,0:0:0:0:
154,144,220264,2,0,L|92:149,1,51.999997619629
0,225,220488,6,0,P|15:293|47:323,1,103.999995239258,8|0,0:0|0:0,0:0:0:0:
220,188,220936,2,0,P|161:197|118:243,1,103.999995239258,10|0,0:0|0:0,0:0:0:0:
245,384,221384,1,8,0:0:0:0:
333,149,221607,1,2,0:0:0:0:
120,315,221831,2,0,P|178:328|230:312,1,103.999995239258,10|0,0:0|0:0,0:0:0:0:
181,106,222279,6,0,P|162:166|183:224,1,103.999995239258,8|0,0:0|0:0,0:0:0:0:
359,156,222727,2,0,L|474:145,1,103.999995239258,10|0,0:0|0:0,0:0:0:0:
500,301,223175,1,8,0:0:0:0:
355,77,223398,1,2,0:0:0:0:
291,349,223622,2,0,L|286:232,1,103.999995239258,10|0,0:0|0:0,0:0:0:0:
274,59,224070,6,0,P|227:30|121:48,1,155.999992858887,8|0,0:0|0:0,0:0:0:0:
111,55,224518,2,0,L|104:166,1,103.999995239258,10|0,0:0|0:0,0:0:0:0:
236,175,224965,1,8,0:0:0:0:
0,60,225189,1,2,0:0:0:0:
125,273,225413,2,0,P|145:215|126:159,1,103.999995239258,10|0,0:0|0:0,0:0:0:0:
57,325,225861,6,0,P|123:357|175:344,1,103.999995239258,8|0,0:0|0:0,0:0:0:0:
320,269,226309,2,0,P|402:255|439:275,1,103.999995239258,10|0,0:0|0:0,0:0:0:0:
373,384,226756,1,8,0:0:0:0:
338,153,226980,1,2,0:0:0:0:
512,342,227204,1,10,0:0:0:0:
358,240,227428,2,0,L|420:235,1,51.999997619629
512,156,227652,6,0,L|494:46,1,103.999995239258,8|0,0:0|0:0,0:0:0:0:
283,188,228100,2,0,L|271:303,1,103.999995239258,8|0,0:0|0:0,0:0:0:0:
486,164,228548,1,8,0:0:0:0:
292,105,228771,1,0,0:0:0:0:
411,307,228995,5,8,0:0:0:0:
389,135,229219,1,0,0:0:0:0:
240,360,229443,1,8,0:0:0:0:
