osu file format v14

[General]
AudioFilename: audio.mp3
AudioLeadIn: 0
PreviewTime: 17061
Countdown: 0
SampleSet: Normal
StackLeniency: 1
Mode: 1
LetterboxInBreaks: 0
WidescreenStoryboard: 0

[Editor]
DistanceSpacing: 1
BeatDivisor: 4
GridSize: 32
TimelineZoom: 2

[Metadata]
Title:Hilda Opening Theme
TitleUnicode:Hilda Opening Theme
Artist:Grimes
ArtistUnicode:Grimes
Creator:Fallmorph
Version:Muzukashii
Source:Hilda
Tags:netflix cartoon season 1 intro
BeatmapID:1829941
BeatmapSetID:875696

[Difficulty]
HPDrainRate:7
CircleSize:0
OverallDifficulty:4
ApproachRate:0
SliderMultiplier:1.4
SliderTickRate:1

[Events]
//Background and Video events
0,0,"Muzukashii.jpg",0,-48
//Break Periods
//Storyboard Layer 0 (Background)
//Storyboard Layer 1 (Fail)
//Storyboard Layer 2 (Pass)
//Storyboard Layer 3 (Foreground)
//Storyboard Sound Samples

[TimingPoints]
1400,441.176470588236,4,1,0,8,1,0
1400,-116,4,1,0,8,0,0
3164,-116,4,1,0,32,0,0
10223,-100,4,1,0,48,0,0
17282,-92,4,1,0,64,0,1
22576,-100,4,1,0,64,0,0
24341,-100,4,1,0,48,0,0
30517,-100,4,1,0,8,0,0

[HitObjects]
256,192,1400,12,0,2723,0:0:0:0:
256,192,3164,5,0,0:0:0:0:
256,192,3605,1,8,0:0:0:0:
256,192,3826,1,8,0:0:0:0:
256,192,4047,1,0,0:0:0:0:
256,192,4488,1,0,0:0:0:0:
256,192,4929,1,8,0:0:0:0:
256,192,5591,1,8,0:0:0:0:
256,192,6252,1,0,0:0:0:0:
256,192,6473,1,8,0:0:0:0:
256,192,6694,1,8,0:0:0:0:
256,192,7135,1,8,0:0:0:0:
256,192,7355,1,0,0:0:0:0:
256,192,8017,1,8,0:0:0:0:
256,192,8238,1,0,0:0:0:0:
256,192,8458,1,0,0:0:0:0:
256,192,8900,1,8,0:0:0:0:
256,192,9120,1,0,0:0:0:0:
256,192,9561,1,0,0:0:0:0:
256,192,9782,1,8,0:0:0:0:
256,192,10223,1,0,0:0:0:0:
256,192,10664,1,8,0:0:0:0:
256,192,10885,1,0,0:0:0:0:
256,192,11105,1,0,0:0:0:0:
256,192,11547,1,8,0:0:0:0:
256,192,11767,1,8,0:0:0:0:
256,192,11988,1,0,0:0:0:0:
256,192,12208,1,0,0:0:0:0:
256,192,12429,1,8,0:0:0:0:
256,192,12650,1,0,0:0:0:0:
256,192,12870,1,0,0:0:0:0:
256,192,13311,1,8,0:0:0:0:
256,192,13532,1,8,0:0:0:0:
256,192,13752,1,0,0:0:0:0:
256,192,14194,1,8,0:0:0:0:
256,192,14635,1,0,0:0:0:0:
256,192,14855,1,0,0:0:0:0:
256,192,15076,1,8,0:0:0:0:
256,192,15517,1,0,0:0:0:0:
256,192,15958,1,8,0:0:0:0:
256,192,16179,1,0,0:0:0:0:
256,192,16289,1,0,0:0:0:0:
256,192,16400,1,0,0:0:0:0:
256,192,16620,1,0,0:0:0:0:
256,192,16841,5,12,0:0:0:0:
256,192,17282,5,4,0:0:0:0:
256,192,17723,1,8,0:0:0:0:
256,192,17944,1,8,0:0:0:0:
256,192,18164,1,0,0:0:0:0:
256,192,18605,1,8,0:0:0:0:
256,192,19047,1,0,0:0:0:0:
256,192,19267,1,8,0:0:0:0:
256,192,19488,1,8,0:0:0:0:
256,192,19708,1,0,0:0:0:0:
256,192,19929,1,8,0:0:0:0:
256,192,20150,1,8,0:0:0:0:
256,192,20370,1,0,0:0:0:0:
256,192,20480,1,0,0:0:0:0:
256,192,20591,1,0,0:0:0:0:
256,192,20811,1,0,0:0:0:0:
256,192,21252,1,8,0:0:0:0:
256,192,21473,1,0,0:0:0:0:
256,192,21694,1,0,0:0:0:0:
256,192,21914,1,0,0:0:0:0:
256,192,22135,1,8,0:0:0:0:
256,192,22576,1,0,0:0:0:0:
256,192,22907,1,8,0:0:0:0:
256,192,23238,1,0,0:0:0:0:
256,192,23569,1,8,0:0:0:0:
256,192,23900,1,8,0:0:0:0:
256,192,24341,1,0,0:0:0:0:
256,192,24782,1,8,0:0:0:0:
256,192,25002,1,8,0:0:0:0:
256,192,25223,1,0,0:0:0:0:
256,192,25664,1,0,0:0:0:0:
256,192,26105,1,8,0:0:0:0:
256,192,26436,1,8,0:0:0:0:
256,192,26767,1,8,0:0:0:0:
256,192,26988,1,0,0:0:0:0:
256,192,27429,1,8,0:0:0:0:
256,192,27870,1,8,0:0:0:0:
256,192,28201,1,8,0:0:0:0:
256,192,28532,1,8,0:0:0:0:
256,192,28752,1,0,0:0:0:0:
256,192,29194,1,0,0:0:0:0:
256,192,29635,1,8,0:0:0:0:
256,192,30076,1,0,0:0:0:0:
256,192,30297,1,8,0:0:0:0:
256,192,30517,12,0,31400,0:0:0:0:
