osu file format v14

[General]
AudioFilename: audio.mp3
AudioLeadIn: 0
PreviewTime: 43568
Countdown: 0
SampleSet: Soft
StackLeniency: 0.7
Mode: 3
LetterboxInBreaks: 0
SpecialStyle: 0
WidescreenStoryboard: 1

[Editor]
Bookmarks: 178868
DistanceSpacing: 1
BeatDivisor: 12
GridSize: 8
TimelineZoom: 1.6

[Metadata]
Title:Violence
TitleUnicode:Violence
Artist:Grimes & i_o
ArtistUnicode:Grimes & i_o
Creator:BadDragon
Version:Violate the I
Source:
Tags:diamant66 geo_ooo Chandelure Miss Anthropocene Claire Elise Boucher Garrett Falls Lockhart 4AD Dave Kutch Tom Norris Vocal Trance Synthpop Pop Progressive House English Chordjack Cj Dump
BeatmapID:3998581
BeatmapSetID:1934901

[Difficulty]
HPDrainRate:8.2
CircleSize:4
OverallDifficulty:9
ApproachRate:9
SliderMultiplier:1.7
SliderTickRate:1

[Events]
//Background and Video events
0,0,"Violent.jpg",0,0
//Break Periods
//Storyboard Layer 0 (Background)
//Storyboard Layer 1 (Fail)
//Storyboard Layer 2 (Pass)
//Storyboard Layer 3 (Foreground)
//Storyboard Layer 4 (Overlay)
//Storyboard Sound Samples

[TimingPoints]
4695,600,4,2,1,20,1,0
23595,-100,4,2,1,23,0,0
23745,-100,4,2,1,26,0,0
23895,-100,4,2,1,30,0,0
42495,-100,4,2,1,80,0,0
43095,-100,4,2,1,60,0,0
100695,-100,4,2,1,40,0,0
115095,-100,4,2,1,35,0,0
117495,-100,4,2,1,30,0,0
122295,-100,4,2,1,36,0,0
124695,-100,4,2,1,42,0,0
127095,-100,4,2,1,48,0,0
134295,-100,4,2,1,40,0,0
136995,-100,4,2,1,35,0,0
137295,-100,4,2,1,30,0,0
137595,-100,4,2,1,25,0,0
137895,-100,4,2,1,20,0,0
139095,-100,4,2,1,45,0,0
148695,-100,4,2,1,52,0,0
158295,-100,4,2,1,60,0,0
196695,-100,4,2,1,40,0,0

[HitObjects]
448,192,4695,5,0,0:0:0:0:
448,192,4845,1,0,0:0:0:0:
448,192,4995,1,0,0:0:0:0:
448,192,5145,1,0,0:0:0:0:
64,192,5145,1,0,0:0:0:0:
448,192,5295,1,0,0:0:0:0:
448,192,5445,1,0,0:0:0:0:
448,192,5595,1,0,0:0:0:0:
448,192,5745,1,0,0:0:0:0:
448,192,5895,1,0,0:0:0:0:
448,192,6045,1,0,0:0:0:0:
192,192,6045,1,0,0:0:0:0:
448,192,6195,1,0,0:0:0:0:
448,192,6345,1,0,0:0:0:0:
448,192,6495,1,0,0:0:0:0:
448,192,6645,1,0,0:0:0:0:
448,192,6795,1,0,0:0:0:0:
448,192,6945,1,0,0:0:0:0:
64,192,7095,1,0,0:0:0:0:
64,192,7245,1,0,0:0:0:0:
64,192,7395,1,0,0:0:0:0:
64,192,7545,1,0,0:0:0:0:
320,192,7545,1,0,0:0:0:0:
64,192,7695,1,0,0:0:0:0:
64,192,7845,1,0,0:0:0:0:
64,192,7995,1,0,0:0:0:0:
64,192,8145,1,0,0:0:0:0:
64,192,8295,1,0,0:0:0:0:
64,192,8445,1,0,0:0:0:0:
448,192,8445,1,0,0:0:0:0:
64,192,8595,1,0,0:0:0:0:
64,192,8745,1,0,0:0:0:0:
64,192,8895,1,0,0:0:0:0:
64,192,9045,1,0,0:0:0:0:
64,192,9195,1,0,0:0:0:0:
64,192,9345,1,0,0:0:0:0:
320,192,9495,1,0,0:0:0:0:
320,192,9645,1,0,0:0:0:0:
320,192,9795,1,0,0:0:0:0:
320,192,9945,1,0,0:0:0:0:
64,192,9945,1,0,0:0:0:0:
320,192,10095,1,0,0:0:0:0:
320,192,10245,1,0,0:0:0:0:
320,192,10395,1,0,0:0:0:0:
320,192,10545,1,0,0:0:0:0:
320,192,10695,1,0,0:0:0:0:
320,192,10845,1,0,0:0:0:0:
192,192,10845,1,0,0:0:0:0:
320,192,10995,1,0,0:0:0:0:
320,192,11145,1,0,0:0:0:0:
320,192,11295,1,0,0:0:0:0:
320,192,11445,1,0,0:0:0:0:
320,192,11595,1,0,0:0:0:0:
320,192,11745,1,0,0:0:0:0:
320,192,11895,1,0,0:0:0:0:
320,192,12045,1,0,0:0:0:0:
320,192,12195,1,0,0:0:0:0:
320,192,12345,1,0,0:0:0:0:
64,192,12345,1,0,0:0:0:0:
320,192,12495,1,0,0:0:0:0:
320,192,12645,1,0,0:0:0:0:
192,192,12795,1,0,0:0:0:0:
192,192,12945,1,0,0:0:0:0:
192,192,13095,1,0,0:0:0:0:
192,192,13245,1,0,0:0:0:0:
448,192,13245,1,0,0:0:0:0:
192,192,13395,1,0,0:0:0:0:
192,192,13545,1,0,0:0:0:0:
64,192,13695,1,0,0:0:0:0:
64,192,13845,1,0,0:0:0:0:
64,192,13995,1,0,0:0:0:0:
64,192,14145,1,0,0:0:0:0:
448,192,14295,5,0,0:0:0:0:
448,192,14445,1,0,0:0:0:0:
448,192,14595,1,0,0:0:0:0:
448,192,14745,1,0,0:0:0:0:
64,192,14745,1,0,0:0:0:0:
448,192,14895,1,0,0:0:0:0:
448,192,15045,1,0,0:0:0:0:
448,192,15195,1,0,0:0:0:0:
448,192,15345,1,0,0:0:0:0:
448,192,15495,1,0,0:0:0:0:
448,192,15645,1,0,0:0:0:0:
192,192,15645,1,0,0:0:0:0:
448,192,15795,1,0,0:0:0:0:
448,192,15945,1,0,0:0:0:0:
448,192,16095,1,0,0:0:0:0:
448,192,16245,1,0,0:0:0:0:
448,192,16395,1,0,0:0:0:0:
448,192,16545,1,0,0:0:0:0:
192,192,16695,5,0,0:0:0:0:
192,192,16845,1,0,0:0:0:0:
192,192,16995,1,0,0:0:0:0:
192,192,17145,1,0,0:0:0:0:
320,192,17145,1,0,0:0:0:0:
192,192,17295,1,0,0:0:0:0:
192,192,17445,1,0,0:0:0:0:
192,192,17595,1,0,0:0:0:0:
192,192,17745,1,0,0:0:0:0:
192,192,17895,1,0,0:0:0:0:
192,192,18045,1,0,0:0:0:0:
448,192,18045,1,0,0:0:0:0:
192,192,18195,1,0,0:0:0:0:
192,192,18345,1,0,0:0:0:0:
192,192,18495,1,0,0:0:0:0:
192,192,18645,1,0,0:0:0:0:
192,192,18795,1,0,0:0:0:0:
192,192,18945,1,0,0:0:0:0:
64,192,19095,5,0,0:0:0:0:
64,192,19245,1,0,0:0:0:0:
64,192,19395,1,0,0:0:0:0:
64,192,19545,1,0,0:0:0:0:
320,192,19545,1,0,0:0:0:0:
64,192,19695,1,0,0:0:0:0:
64,192,19845,1,0,0:0:0:0:
64,192,19995,1,0,0:0:0:0:
64,192,20145,1,0,0:0:0:0:
64,192,20295,1,0,0:0:0:0:
64,192,20445,1,0,0:0:0:0:
448,192,20445,1,0,0:0:0:0:
64,192,20595,1,0,0:0:0:0:
64,192,20745,1,0,0:0:0:0:
64,192,20895,1,0,0:0:0:0:
64,192,21045,1,0,0:0:0:0:
64,192,21195,1,0,0:0:0:0:
64,192,21345,1,0,0:0:0:0:
64,192,21495,5,0,0:0:0:0:
64,192,21645,1,0,0:0:0:0:
64,192,21795,1,0,0:0:0:0:
64,192,21945,1,0,0:0:0:0:
320,192,21945,1,0,0:0:0:0:
64,192,22095,1,0,0:0:0:0:
64,192,22245,1,0,0:0:0:0:
64,192,22395,1,0,0:0:0:0:
64,192,22545,1,0,0:0:0:0:
64,192,22695,1,0,0:0:0:0:
64,192,22845,1,0,0:0:0:0:
448,192,22845,1,0,0:0:0:0:
64,192,22995,1,0,0:0:0:0:
64,192,23145,1,0,0:0:0:0:
64,192,23295,1,0,0:0:0:0:
64,192,23445,1,0,0:0:0:0:
192,192,23445,1,0,0:0:0:0:
64,192,23595,1,0,0:0:0:0:
320,192,23595,1,0,0:0:0:0:
64,192,23745,1,0,0:0:0:0:
448,192,23745,1,0,0:0:0:0:
192,192,23895,1,0,0:0:0:0:
448,192,23895,1,0,0:0:0:0:
320,192,23895,1,0,0:0:0:0:
320,192,24045,1,0,0:0:0:0:
320,192,24195,1,0,0:0:0:0:
448,192,24195,1,0,0:0:0:0:
320,192,24345,1,0,0:0:0:0:
64,192,24345,1,0,0:0:0:0:
320,192,24495,1,0,0:0:0:0:
320,192,24645,1,0,0:0:0:0:
320,192,24795,1,0,0:0:0:0:
448,192,24795,1,0,0:0:0:0:
320,192,24945,1,0,0:0:0:0:
320,192,25095,1,0,0:0:0:0:
320,192,25245,1,0,0:0:0:0:
192,192,25245,1,0,0:0:0:0:
320,192,25395,1,0,0:0:0:0:
448,192,25395,1,0,0:0:0:0:
320,192,25545,1,0,0:0:0:0:
320,192,25695,1,0,0:0:0:0:
320,192,25845,1,0,0:0:0:0:
320,192,25995,1,0,0:0:0:0:
448,192,25995,1,0,0:0:0:0:
320,192,26145,1,0,0:0:0:0:
192,192,26295,1,0,0:0:0:0:
320,192,26295,1,0,0:0:0:0:
192,192,26445,1,0,0:0:0:0:
192,192,26595,1,0,0:0:0:0:
192,192,26745,1,0,0:0:0:0:
320,192,26745,1,0,0:0:0:0:
192,192,26895,1,0,0:0:0:0:
192,192,27045,1,0,0:0:0:0:
192,192,27195,1,0,0:0:0:0:
192,192,27345,1,0,0:0:0:0:
192,192,27495,1,0,0:0:0:0:
192,192,27645,1,0,0:0:0:0:
448,192,27645,1,0,0:0:0:0:
192,192,27795,1,0,0:0:0:0:
192,192,27945,1,0,0:0:0:0:
192,192,28095,1,0,0:0:0:0:
192,192,28245,1,0,0:0:0:0:
192,192,28395,1,0,0:0:0:0:
192,192,28545,1,0,0:0:0:0:
192,192,28695,1,0,0:0:0:0:
448,192,28695,1,0,0:0:0:0:
448,192,28845,1,0,0:0:0:0:
448,192,28995,1,0,0:0:0:0:
448,192,29145,1,0,0:0:0:0:
64,192,29145,1,0,0:0:0:0:
448,192,29295,1,0,0:0:0:0:
448,192,29445,1,0,0:0:0:0:
448,192,29595,1,0,0:0:0:0:
448,192,29745,1,0,0:0:0:0:
448,192,29895,1,0,0:0:0:0:
448,192,30045,1,0,0:0:0:0:
192,192,30045,1,0,0:0:0:0:
448,192,30195,1,0,0:0:0:0:
448,192,30345,1,0,0:0:0:0:
448,192,30495,1,0,0:0:0:0:
448,192,30645,1,0,0:0:0:0:
448,192,30795,1,0,0:0:0:0:
64,192,30870,1,0,0:0:0:0:
448,192,30945,1,0,0:0:0:0:
448,192,31095,1,0,0:0:0:0:
448,192,31245,1,0,0:0:0:0:
64,192,31335,1,0,0:0:0:0:
448,192,31395,1,0,0:0:0:0:
448,192,31545,1,0,0:0:0:0:
64,192,31545,1,0,0:0:0:0:
448,192,31695,1,0,0:0:0:0:
448,192,31845,1,0,0:0:0:0:
192,192,31935,1,0,0:0:0:0:
320,192,31995,1,0,0:0:0:0:
448,192,31995,1,0,0:0:0:0:
320,192,32145,1,0,0:0:0:0:
320,192,32295,1,0,0:0:0:0:
192,192,32445,1,0,0:0:0:0:
320,192,32445,1,0,0:0:0:0:
320,192,32595,1,0,0:0:0:0:
192,192,32695,1,0,0:0:0:0:
320,192,32745,1,0,0:0:0:0:
64,192,32895,1,0,0:0:0:0:
320,192,32895,1,0,0:0:0:0:
64,192,33045,1,0,0:0:0:0:
64,192,33195,1,0,0:0:0:0:
64,192,33345,1,0,0:0:0:0:
64,192,33495,1,0,0:0:0:0:
192,192,33495,1,0,0:0:0:0:
192,192,33645,1,0,0:0:0:0:
192,192,33795,1,0,0:0:0:0:
448,192,33837,1,0,0:0:0:0:
192,192,33945,1,0,0:0:0:0:
320,192,33945,1,0,0:0:0:0:
192,192,34095,1,0,0:0:0:0:
192,192,34245,1,0,0:0:0:0:
192,192,34395,1,0,0:0:0:0:
448,192,34470,1,0,0:0:0:0:
192,192,34545,1,0,0:0:0:0:
192,192,34695,1,0,0:0:0:0:
192,192,34845,1,0,0:0:0:0:
448,192,34845,1,0,0:0:0:0:
192,192,34995,1,0,0:0:0:0:
320,192,35037,1,0,0:0:0:0:
192,192,35145,1,0,0:0:0:0:
192,192,35295,1,0,0:0:0:0:
192,192,35445,1,0,0:0:0:0:
192,192,35595,1,0,0:0:0:0:
192,192,35745,1,0,0:0:0:0:
320,192,35895,1,0,0:0:0:0:
192,192,35895,1,0,0:0:0:0:
320,192,36045,1,0,0:0:0:0:
320,192,36195,1,0,0:0:0:0:
320,192,36345,1,0,0:0:0:0:
64,192,36345,1,0,0:0:0:0:
320,192,36495,1,0,0:0:0:0:
320,192,36645,1,0,0:0:0:0:
320,192,36795,1,0,0:0:0:0:
320,192,36945,1,0,0:0:0:0:
320,192,37095,1,0,0:0:0:0:
320,192,37245,1,0,0:0:0:0:
192,192,37245,1,0,0:0:0:0:
320,192,37395,1,0,0:0:0:0:
320,192,37545,1,0,0:0:0:0:
320,192,37695,1,0,0:0:0:0:
320,192,37845,5,0,0:0:0:0:
320,192,37995,1,0,0:0:0:0:
320,192,38145,1,0,0:0:0:0:
64,192,38295,5,0,0:0:0:0:
320,192,38295,1,0,0:0:0:0:
64,192,38445,1,0,0:0:0:0:
64,192,38595,1,0,0:0:0:0:
64,192,38745,1,0,0:0:0:0:
320,192,38745,1,0,0:0:0:0:
64,192,38895,1,0,0:0:0:0:
64,192,39045,1,0,0:0:0:0:
320,192,39135,1,0,0:0:0:0:
64,192,39195,1,0,0:0:0:0:
64,192,39345,1,0,0:0:0:0:
64,192,39495,1,0,0:0:0:0:
64,192,39645,1,0,0:0:0:0:
448,192,39645,1,0,0:0:0:0:
64,192,39795,1,0,0:0:0:0:
64,192,39945,1,0,0:0:0:0:
64,192,40095,1,0,0:0:0:0:
64,192,40245,1,0,0:0:0:0:
64,192,40395,1,0,0:0:0:0:
64,192,40545,1,0,0:0:0:0:
64,192,40695,1,0,0:0:0:0:
64,192,40845,1,0,0:0:0:0:
64,192,40995,1,0,0:0:0:0:
64,192,41145,1,0,0:0:0:0:
320,192,41145,1,0,0:0:0:0:
64,192,41295,1,0,0:0:0:0:
448,192,41345,1,0,0:0:0:0:
64,192,41445,1,0,0:0:0:0:
64,192,41595,1,0,0:0:0:0:
64,192,41745,1,0,0:0:0:0:
64,192,41895,1,0,0:0:0:0:
64,192,42045,5,0,0:0:0:0:
448,192,42045,1,0,0:0:0:0:
64,192,42195,1,0,0:0:0:0:
64,192,42345,1,0,0:0:0:0:
64,192,42495,5,0,0:0:0:0:
192,192,42495,1,0,0:0:0:0:
64,192,42645,1,0,0:0:0:0:
320,192,42645,1,0,0:0:0:0:
64,192,42795,1,0,0:0:0:0:
192,192,42795,1,0,0:0:0:0:
320,192,42945,1,0,0:0:0:0:
64,192,42945,1,0,0:0:0:0:
64,192,43095,1,0,0:0:0:0:
448,192,43095,1,0,0:0:0:0:
320,192,43095,1,0,0:0:0:0:
192,192,43245,1,0,0:0:0:0:
320,192,43245,1,0,0:0:0:0:
448,192,43395,1,0,0:0:0:0:
64,192,43395,1,0,0:0:0:0:
320,192,43545,1,0,0:0:0:0:
64,192,43545,1,0,0:0:0:0:
192,192,43545,1,0,0:0:0:0:
64,192,43695,1,0,0:0:0:0:
192,192,43695,1,0,0:0:0:0:
320,192,43695,1,0,0:0:0:0:
448,192,43695,1,0,0:0:0:0:
448,192,43845,1,0,0:0:0:0:
64,192,43845,1,0,0:0:0:0:
192,192,43995,1,0,0:0:0:0:
448,192,43995,1,0,0:0:0:0:
64,192,44145,1,0,0:0:0:0:
448,192,44145,1,0,0:0:0:0:
64,192,44295,1,0,0:0:0:0:
192,192,44295,1,0,0:0:0:0:
320,192,44355,1,0,0:0:0:0:
448,192,44415,1,0,0:0:0:0:
192,192,44466,1,0,0:0:0:0:
64,192,44595,1,0,0:0:0:0:
448,192,44595,1,0,0:0:0:0:
192,192,44655,1,0,0:0:0:0:
448,192,44745,1,0,0:0:0:0:
320,192,44745,1,0,0:0:0:0:
64,192,44895,1,0,0:0:0:0:
192,192,44895,1,0,0:0:0:0:
320,192,44895,1,0,0:0:0:0:
448,192,44975,1,0,0:0:0:0:
64,192,45055,1,0,0:0:0:0:
320,192,45135,1,0,0:0:0:0:
64,192,45195,1,0,0:0:0:0:
448,192,45195,1,0,0:0:0:0:
448,192,45345,1,0,0:0:0:0:
192,192,45345,1,0,0:0:0:0:
448,192,45495,1,0,0:0:0:0:
320,192,45495,1,0,0:0:0:0:
64,192,45580,1,0,0:0:0:0:
192,192,45645,1,0,0:0:0:0:
320,192,45645,1,0,0:0:0:0:
192,192,45795,1,0,0:0:0:0:
448,192,45809,1,0,0:0:0:0:
192,192,45945,1,0,0:0:0:0:
64,192,45945,1,0,0:0:0:0:
320,192,45945,1,0,0:0:0:0:
192,192,46095,1,0,0:0:0:0:
64,192,46095,1,0,0:0:0:0:
448,192,46095,1,0,0:0:0:0:
320,192,46245,1,0,0:0:0:0:
64,192,46245,1,0,0:0:0:0:
320,192,46395,1,0,0:0:0:0:
448,192,46395,1,0,0:0:0:0:
64,192,46545,1,0,0:0:0:0:
448,192,46545,1,0,0:0:0:0:
192,192,46695,1,0,0:0:0:0:
448,192,46695,1,0,0:0:0:0:
320,192,46780,1,0,0:0:0:0:
448,192,46845,1,0,0:0:0:0:
64,192,46845,1,0,0:0:0:0:
192,192,46866,1,0,0:0:0:0:
64,192,46995,1,0,0:0:0:0:
320,192,46995,1,0,0:0:0:0:
64,192,47145,1,0,0:0:0:0:
192,192,47145,1,0,0:0:0:0:
448,192,47295,1,0,0:0:0:0:
192,192,47295,1,0,0:0:0:0:
320,192,47295,1,0,0:0:0:0:
64,192,47345,1,0,0:0:0:0:
192,192,47445,1,0,0:0:0:0:
448,192,47445,1,0,0:0:0:0:
448,192,47595,1,0,0:0:0:0:
320,192,47595,1,0,0:0:0:0:
64,192,47745,1,0,0:0:0:0:
320,192,47745,1,0,0:0:0:0:
64,192,47895,1,0,0:0:0:0:
192,192,47895,1,0,0:0:0:0:
320,192,47895,1,0,0:0:0:0:
64,192,48045,1,0,0:0:0:0:
192,192,48066,1,0,0:0:0:0:
448,192,48195,1,0,0:0:0:0:
320,192,48195,1,0,0:0:0:0:
192,192,48280,1,0,0:0:0:0:
64,192,48345,1,0,0:0:0:0:
448,192,48366,1,0,0:0:0:0:
320,192,48452,1,0,0:0:0:0:
192,192,48495,1,0,0:0:0:0:
64,192,48495,1,0,0:0:0:0:
448,192,48537,1,0,0:0:0:0:
320,192,48623,1,0,0:0:0:0:
192,192,48645,1,0,0:0:0:0:
320,192,48757,1,0,0:0:0:0:
64,192,48795,1,0,0:0:0:0:
448,192,48795,1,0,0:0:0:0:
192,192,48928,1,0,0:0:0:0:
64,192,48945,1,0,0:0:0:0:
320,192,49095,1,0,0:0:0:0:
448,192,49095,1,0,0:0:0:0:
192,192,49095,1,0,0:0:0:0:
64,192,49245,1,0,0:0:0:0:
448,192,49245,1,0,0:0:0:0:
320,192,49266,1,0,0:0:0:0:
448,192,49395,1,0,0:0:0:0:
192,192,49395,1,0,0:0:0:0:
64,192,49495,1,0,0:0:0:0:
448,192,49545,1,0,0:0:0:0:
192,192,49652,1,0,0:0:0:0:
320,192,49695,1,0,0:0:0:0:
448,192,49695,1,0,0:0:0:0:
64,192,49737,1,0,0:0:0:0:
192,192,49823,1,0,0:0:0:0:
320,192,49845,1,0,0:0:0:0:
448,192,49957,1,0,0:0:0:0:
192,192,49995,1,0,0:0:0:0:
320,192,50128,1,0,0:0:0:0:
192,192,50145,1,0,0:0:0:0:
448,192,50295,1,0,0:0:0:0:
64,192,50295,1,0,0:0:0:0:
320,192,50295,1,0,0:0:0:0:
64,192,50445,1,0,0:0:0:0:
192,192,50445,1,0,0:0:0:0:
320,192,50595,1,0,0:0:0:0:
192,192,50595,1,0,0:0:0:0:
64,192,50745,1,0,0:0:0:0:
448,192,50745,1,0,0:0:0:0:
192,192,50745,1,0,0:0:0:0:
320,192,50895,1,0,0:0:0:0:
448,192,50895,1,0,0:0:0:0:
64,192,50895,1,0,0:0:0:0:
192,192,50945,1,0,0:0:0:0:
320,192,51045,1,0,0:0:0:0:
448,192,51045,1,0,0:0:0:0:
448,192,51195,1,0,0:0:0:0:
192,192,51237,1,0,0:0:0:0:
64,192,51345,1,0,0:0:0:0:
448,192,51345,1,0,0:0:0:0:
64,192,51495,1,0,0:0:0:0:
192,192,51495,1,0,0:0:0:0:
448,192,51615,1,0,0:0:0:0:
320,192,51645,1,0,0:0:0:0:
64,192,51645,1,0,0:0:0:0:
192,192,51735,1,0,0:0:0:0:
320,192,51795,1,0,0:0:0:0:
448,192,51795,1,0,0:0:0:0:
64,192,51837,1,0,0:0:0:0:
448,192,51945,1,0,0:0:0:0:
64,192,52009,1,0,0:0:0:0:
192,192,52094,1,0,0:0:0:0:
320,192,52094,1,0,0:0:0:0:
448,192,52095,1,0,0:0:0:0:
320,192,52245,1,0,0:0:0:0:
192,192,52245,1,0,0:0:0:0:
320,192,52395,1,0,0:0:0:0:
64,192,52395,1,0,0:0:0:0:
64,192,52545,1,0,0:0:0:0:
320,192,52545,1,0,0:0:0:0:
64,192,52695,1,0,0:0:0:0:
192,192,52695,1,0,0:0:0:0:
320,192,52759,1,0,0:0:0:0:
448,192,52823,1,0,0:0:0:0:
192,192,52887,1,0,0:0:0:0:
320,192,52952,1,0,0:0:0:0:
64,192,52995,1,0,0:0:0:0:
448,192,53016,1,0,0:0:0:0:
192,192,53080,1,0,0:0:0:0:
320,192,53145,1,0,0:0:0:0:
64,192,53145,1,0,0:0:0:0:
192,192,53295,1,0,0:0:0:0:
320,192,53295,1,0,0:0:0:0:
448,192,53295,1,0,0:0:0:0:
64,192,53345,1,0,0:0:0:0:
320,192,53445,1,0,0:0:0:0:
448,192,53445,1,0,0:0:0:0:
192,192,53595,1,0,0:0:0:0:
448,192,53595,1,0,0:0:0:0:
448,192,53745,1,0,0:0:0:0:
64,192,53745,1,0,0:0:0:0:
64,192,53895,1,0,0:0:0:0:
192,192,53895,1,0,0:0:0:0:
320,192,53959,1,0,0:0:0:0:
448,192,54023,1,0,0:0:0:0:
64,192,54045,1,0,0:0:0:0:
192,192,54087,1,0,0:0:0:0:
320,192,54152,1,0,0:0:0:0:
64,192,54195,1,0,0:0:0:0:
448,192,54216,1,0,0:0:0:0:
192,192,54280,1,0,0:0:0:0:
320,192,54345,1,0,0:0:0:0:
448,192,54495,1,0,0:0:0:0:
320,192,54495,1,0,0:0:0:0:
192,192,54495,1,0,0:0:0:0:
64,192,54545,1,0,0:0:0:0:
320,192,54645,1,0,0:0:0:0:
448,192,54645,1,0,0:0:0:0:
192,192,54795,1,0,0:0:0:0:
448,192,54795,1,0,0:0:0:0:
448,192,54945,1,0,0:0:0:0:
64,192,54945,1,0,0:0:0:0:
64,192,55095,1,0,0:0:0:0:
192,192,55095,1,0,0:0:0:0:
448,192,55180,1,0,0:0:0:0:
320,192,55245,1,0,0:0:0:0:
64,192,55245,1,0,0:0:0:0:
192,192,55335,1,0,0:0:0:0:
320,192,55395,1,0,0:0:0:0:
448,192,55395,1,0,0:0:0:0:
64,192,55437,1,0,0:0:0:0:
448,192,55545,1,0,0:0:0:0:
192,192,55545,1,0,0:0:0:0:
64,192,55609,1,0,0:0:0:0:
192,192,55695,1,0,0:0:0:0:
448,192,55695,1,0,0:0:0:0:
320,192,55695,1,0,0:0:0:0:
192,192,55845,1,0,0:0:0:0:
320,192,55845,1,0,0:0:0:0:
448,192,55995,1,0,0:0:0:0:
192,192,55995,1,0,0:0:0:0:
64,192,56145,1,0,0:0:0:0:
448,192,56145,1,0,0:0:0:0:
64,192,56295,1,0,0:0:0:0:
192,192,56295,1,0,0:0:0:0:
448,192,56337,1,0,0:0:0:0:
192,192,56423,1,0,0:0:0:0:
64,192,56445,1,0,0:0:0:0:
448,192,56475,1,0,0:0:0:0:
320,192,56552,1,0,0:0:0:0:
64,192,56595,1,0,0:0:0:0:
448,192,56616,1,0,0:0:0:0:
320,192,56745,1,0,0:0:0:0:
192,192,56745,1,0,0:0:0:0:
192,192,56895,1,0,0:0:0:0:
320,192,56895,1,0,0:0:0:0:
448,192,56895,1,0,0:0:0:0:
64,192,56961,1,0,0:0:0:0:
448,192,57045,1,0,0:0:0:0:
320,192,57109,1,0,0:0:0:0:
192,192,57195,1,0,0:0:0:0:
320,192,57261,1,0,0:0:0:0:
448,192,57328,1,0,0:0:0:0:
192,192,57366,1,0,0:0:0:0:
320,192,57395,1,0,0:0:0:0:
64,192,57495,1,0,0:0:0:0:
192,192,57495,1,0,0:0:0:0:
320,192,57555,1,0,0:0:0:0:
448,192,57615,1,0,0:0:0:0:
64,192,57645,1,0,0:0:0:0:
192,192,57723,1,0,0:0:0:0:
64,192,57795,1,0,0:0:0:0:
320,192,57823,1,0,0:0:0:0:
448,192,57923,1,0,0:0:0:0:
320,192,57945,1,0,0:0:0:0:
64,192,57945,1,0,0:0:0:0:
448,192,58095,1,0,0:0:0:0:
320,192,58095,1,0,0:0:0:0:
192,192,58095,1,0,0:0:0:0:
64,192,58095,1,0,0:0:0:0:
448,192,58245,1,0,0:0:0:0:
192,192,58245,1,0,0:0:0:0:
320,192,58395,1,0,0:0:0:0:
448,192,58395,1,0,0:0:0:0:
64,192,58545,1,0,0:0:0:0:
448,192,58545,1,0,0:0:0:0:
320,192,58695,1,0,0:0:0:0:
192,192,58695,1,0,0:0:0:0:
64,192,58695,1,0,0:0:0:0:
320,192,58845,1,0,0:0:0:0:
448,192,58845,1,0,0:0:0:0:
192,192,58845,1,0,0:0:0:0:
192,192,58995,1,0,0:0:0:0:
320,192,58995,1,0,0:0:0:0:
192,192,59145,1,0,0:0:0:0:
64,192,59145,1,0,0:0:0:0:
64,192,59295,1,0,0:0:0:0:
192,192,59295,1,0,0:0:0:0:
320,192,59295,1,0,0:0:0:0:
448,192,59295,1,0,0:0:0:0:
192,192,59445,1,0,0:0:0:0:
320,192,59445,1,0,0:0:0:0:
192,192,59595,1,0,0:0:0:0:
448,192,59595,1,0,0:0:0:0:
448,192,59745,1,0,0:0:0:0:
192,192,59761,1,0,0:0:0:0:
320,192,59895,1,0,0:0:0:0:
448,192,59895,1,0,0:0:0:0:
192,192,59945,1,0,0:0:0:0:
64,192,59995,1,0,0:0:0:0:
320,192,60045,1,0,0:0:0:0:
64,192,60195,1,0,0:0:0:0:
448,192,60195,1,0,0:0:0:0:
192,192,60295,1,0,0:0:0:0:
448,192,60345,1,0,0:0:0:0:
320,192,60345,1,0,0:0:0:0:
64,192,60495,1,0,0:0:0:0:
448,192,60495,1,0,0:0:0:0:
192,192,60495,1,0,0:0:0:0:
320,192,60580,1,0,0:0:0:0:
448,192,60645,1,0,0:0:0:0:
64,192,60645,1,0,0:0:0:0:
192,192,60666,1,0,0:0:0:0:
64,192,60795,1,0,0:0:0:0:
320,192,60795,1,0,0:0:0:0:
448,192,60795,1,0,0:0:0:0:
448,192,60945,1,0,0:0:0:0:
320,192,60945,1,0,0:0:0:0:
192,192,60945,1,0,0:0:0:0:
64,192,61095,1,0,0:0:0:0:
192,192,61095,1,0,0:0:0:0:
320,192,61170,1,0,0:0:0:0:
448,192,61245,1,0,0:0:0:0:
64,192,61245,1,0,0:0:0:0:
192,192,61320,1,0,0:0:0:0:
64,192,61395,1,0,0:0:0:0:
448,192,61395,1,0,0:0:0:0:
320,192,61470,1,0,0:0:0:0:
192,192,61545,1,0,0:0:0:0:
64,192,61561,1,0,0:0:0:0:
320,192,61695,1,0,0:0:0:0:
448,192,61695,1,0,0:0:0:0:
192,192,61695,1,0,0:0:0:0:
64,192,61732,1,0,0:0:0:0:
320,192,61845,1,0,0:0:0:0:
448,192,61845,1,0,0:0:0:0:
192,192,61845,1,0,0:0:0:0:
320,192,61995,1,0,0:0:0:0:
448,192,61995,1,0,0:0:0:0:
448,192,62145,1,0,0:0:0:0:
64,192,62295,1,0,0:0:0:0:
448,192,62295,1,0,0:0:0:0:
192,192,62355,1,0,0:0:0:0:
320,192,62415,1,0,0:0:0:0:
64,192,62445,1,0,0:0:0:0:
64,192,62595,1,0,0:0:0:0:
192,192,62595,1,0,0:0:0:0:
64,192,62745,1,0,0:0:0:0:
192,192,62745,1,0,0:0:0:0:
320,192,62745,1,0,0:0:0:0:
64,192,62895,1,0,0:0:0:0:
192,192,62895,1,0,0:0:0:0:
448,192,62926,1,0,0:0:0:0:
320,192,62955,1,0,0:0:0:0:
192,192,63045,1,0,0:0:0:0:
448,192,63066,1,0,0:0:0:0:
448,192,63195,1,0,0:0:0:0:
192,192,63195,1,0,0:0:0:0:
192,192,63345,1,0,0:0:0:0:
448,192,63345,1,0,0:0:0:0:
320,192,63495,1,0,0:0:0:0:
192,192,63495,1,0,0:0:0:0:
448,192,63555,1,0,0:0:0:0:
64,192,63615,1,0,0:0:0:0:
192,192,63645,1,0,0:0:0:0:
320,192,63645,1,0,0:0:0:0:
192,192,63795,1,0,0:0:0:0:
320,192,63795,1,0,0:0:0:0:
192,192,63945,1,0,0:0:0:0:
320,192,63945,1,0,0:0:0:0:
448,192,64042,1,0,0:0:0:0:
320,192,64095,1,0,0:0:0:0:
64,192,64115,1,0,0:0:0:0:
192,192,64161,1,0,0:0:0:0:
448,192,64245,1,0,0:0:0:0:
64,192,64260,1,0,0:0:0:0:
64,192,64395,1,0,0:0:0:0:
448,192,64395,1,0,0:0:0:0:
320,192,64471,1,0,0:0:0:0:
192,192,64545,1,0,0:0:0:0:
64,192,64545,1,0,0:0:0:0:
192,192,64695,1,0,0:0:0:0:
320,192,64695,1,0,0:0:0:0:
448,192,64695,1,0,0:0:0:0:
192,192,64845,1,0,0:0:0:0:
448,192,64845,1,0,0:0:0:0:
320,192,64955,1,0,0:0:0:0:
448,192,64984,1,0,0:0:0:0:
64,192,64993,1,0,0:0:0:0:
448,192,65145,1,0,0:0:0:0:
320,192,65145,1,0,0:0:0:0:
192,192,65145,1,0,0:0:0:0:
192,192,65295,1,0,0:0:0:0:
64,192,65295,1,0,0:0:0:0:
320,192,65295,1,0,0:0:0:0:
448,192,65295,1,0,0:0:0:0:
320,192,65445,1,0,0:0:0:0:
64,192,65445,1,0,0:0:0:0:
448,192,65545,1,0,0:0:0:0:
64,192,65595,1,0,0:0:0:0:
320,192,65645,1,0,0:0:0:0:
64,192,65745,1,0,0:0:0:0:
192,192,65745,1,0,0:0:0:0:
320,192,65895,1,0,0:0:0:0:
192,192,65895,1,0,0:0:0:0:
64,192,65895,1,0,0:0:0:0:
192,192,66045,1,0,0:0:0:0:
448,192,66045,1,0,0:0:0:0:
64,192,66045,1,0,0:0:0:0:
192,192,66195,1,0,0:0:0:0:
448,192,66195,1,0,0:0:0:0:
448,192,66345,1,0,0:0:0:0:
192,192,66345,1,0,0:0:0:0:
448,192,66495,1,0,0:0:0:0:
320,192,66495,1,0,0:0:0:0:
192,192,66495,1,0,0:0:0:0:
64,192,66495,1,0,0:0:0:0:
320,192,66645,1,0,0:0:0:0:
64,192,66645,1,0,0:0:0:0:
64,192,66795,1,0,0:0:0:0:
320,192,66795,1,0,0:0:0:0:
192,192,66923,1,0,0:0:0:0:
320,192,66945,1,0,0:0:0:0:
64,192,67009,1,0,0:0:0:0:
192,192,67095,1,0,0:0:0:0:
448,192,67095,1,0,0:0:0:0:
320,192,67180,1,0,0:0:0:0:
448,192,67245,1,0,0:0:0:0:
64,192,67266,1,0,0:0:0:0:
320,192,67352,1,0,0:0:0:0:
448,192,67432,1,0,0:0:0:0:
192,192,67512,1,0,0:0:0:0:
64,192,67545,1,0,0:0:0:0:
320,192,67592,1,0,0:0:0:0:
448,192,67672,1,0,0:0:0:0:
192,192,67695,1,0,0:0:0:0:
64,192,67712,1,0,0:0:0:0:
320,192,67780,1,0,0:0:0:0:
448,192,67845,1,0,0:0:0:0:
64,192,67866,1,0,0:0:0:0:
192,192,67895,1,0,0:0:0:0:
320,192,67995,1,0,0:0:0:0:
64,192,68037,1,0,0:0:0:0:
320,192,68145,1,0,0:0:0:0:
448,192,68145,1,0,0:0:0:0:
192,192,68295,1,0,0:0:0:0:
448,192,68295,1,0,0:0:0:0:
64,192,68295,1,0,0:0:0:0:
192,192,68445,1,0,0:0:0:0:
64,192,68445,1,0,0:0:0:0:
320,192,68595,1,0,0:0:0:0:
192,192,68595,1,0,0:0:0:0:
64,192,68745,1,0,0:0:0:0:
320,192,68745,1,0,0:0:0:0:
64,192,68895,1,0,0:0:0:0:
192,192,68895,1,0,0:0:0:0:
320,192,68895,1,0,0:0:0:0:
448,192,68895,1,0,0:0:0:0:
320,192,69045,1,0,0:0:0:0:
448,192,69045,1,0,0:0:0:0:
192,192,69152,1,0,0:0:0:0:
448,192,69195,1,0,0:0:0:0:
64,192,69195,1,0,0:0:0:0:
192,192,69280,1,0,0:0:0:0:
320,192,69323,1,0,0:0:0:0:
64,192,69345,1,0,0:0:0:0:
320,192,69495,1,0,0:0:0:0:
448,192,69495,1,0,0:0:0:0:
192,192,69495,1,0,0:0:0:0:
448,192,69645,1,0,0:0:0:0:
320,192,69645,1,0,0:0:0:0:
192,192,69735,1,0,0:0:0:0:
64,192,69785,1,0,0:0:0:0:
192,192,69851,1,0,0:0:0:0:
320,192,69885,1,0,0:0:0:0:
64,192,69923,1,0,0:0:0:0:
448,192,69945,1,0,0:0:0:0:
64,192,70095,1,0,0:0:0:0:
192,192,70095,1,0,0:0:0:0:
320,192,70095,1,0,0:0:0:0:
448,192,70095,1,0,0:0:0:0:
192,192,70245,1,0,0:0:0:0:
320,192,70245,1,0,0:0:0:0:
64,192,70335,1,0,0:0:0:0:
448,192,70395,1,0,0:0:0:0:
192,192,70437,1,0,0:0:0:0:
64,192,70545,1,0,0:0:0:0:
448,192,70545,1,0,0:0:0:0:
448,192,70695,1,0,0:0:0:0:
192,192,70695,1,0,0:0:0:0:
320,192,70695,1,0,0:0:0:0:
320,192,70845,1,0,0:0:0:0:
64,192,70845,1,0,0:0:0:0:
192,192,70995,1,0,0:0:0:0:
64,192,70995,1,0,0:0:0:0:
320,192,71070,1,0,0:0:0:0:
448,192,71145,1,0,0:0:0:0:
192,192,71145,1,0,0:0:0:0:
64,192,71220,1,0,0:0:0:0:
448,192,71295,1,0,0:0:0:0:
320,192,71295,1,0,0:0:0:0:
192,192,71320,1,0,0:0:0:0:
64,192,71380,1,0,0:0:0:0:
320,192,71445,1,0,0:0:0:0:
192,192,71480,1,0,0:0:0:0:
320,192,71595,1,0,0:0:0:0:
448,192,71595,1,0,0:0:0:0:
320,192,71745,1,0,0:0:0:0:
448,192,71745,1,0,0:0:0:0:
192,192,71745,1,0,0:0:0:0:
192,192,71895,1,0,0:0:0:0:
320,192,71895,1,0,0:0:0:0:
64,192,71961,1,0,0:0:0:0:
192,192,72045,1,0,0:0:0:0:
448,192,72045,1,0,0:0:0:0:
448,192,72195,1,0,0:0:0:0:
64,192,72195,1,0,0:0:0:0:
320,192,72228,1,0,0:0:0:0:
192,192,72295,1,0,0:0:0:0:
448,192,72345,1,0,0:0:0:0:
320,192,72361,1,0,0:0:0:0:
448,192,72495,1,0,0:0:0:0:
320,192,72495,1,0,0:0:0:0:
192,192,72528,1,0,0:0:0:0:
64,192,72595,1,0,0:0:0:0:
192,192,72645,1,0,0:0:0:0:
320,192,72795,1,0,0:0:0:0:
192,192,72795,1,0,0:0:0:0:
448,192,72837,1,0,0:0:0:0:
320,192,72923,1,0,0:0:0:0:
64,192,72945,1,0,0:0:0:0:
192,192,73095,1,0,0:0:0:0:
320,192,73095,1,0,0:0:0:0:
64,192,73180,1,0,0:0:0:0:
448,192,73245,1,0,0:0:0:0:
320,192,73245,1,0,0:0:0:0:
192,192,73295,1,0,0:0:0:0:
64,192,73395,1,0,0:0:0:0:
448,192,73395,1,0,0:0:0:0:
192,192,73545,1,0,0:0:0:0:
448,192,73545,1,0,0:0:0:0:
64,192,73640,1,0,0:0:0:0:
320,192,73695,1,0,0:0:0:0:
192,192,73695,1,0,0:0:0:0:
448,192,73695,1,0,0:0:0:0:
64,192,73828,1,0,0:0:0:0:
448,192,73845,1,0,0:0:0:0:
320,192,73935,1,0,0:0:0:0:
192,192,73995,1,0,0:0:0:0:
64,192,73995,1,0,0:0:0:0:
320,192,74080,1,0,0:0:0:0:
192,192,74145,1,0,0:0:0:0:
448,192,74187,1,0,0:0:0:0:
64,192,74295,1,0,0:0:0:0:
192,192,74295,1,0,0:0:0:0:
320,192,74295,1,0,0:0:0:0:
192,192,74445,1,0,0:0:0:0:
320,192,74445,1,0,0:0:0:0:
192,192,74595,1,0,0:0:0:0:
448,192,74595,1,0,0:0:0:0:
448,192,74745,1,0,0:0:0:0:
192,192,74761,1,0,0:0:0:0:
64,192,74835,1,0,0:0:0:0:
320,192,74876,1,0,0:0:0:0:
448,192,74895,1,0,0:0:0:0:
192,192,74921,1,0,0:0:0:0:
64,192,74996,1,0,0:0:0:0:
320,192,75045,1,0,0:0:0:0:
448,192,75095,1,0,0:0:0:0:
192,192,75161,1,0,0:0:0:0:
320,192,75195,1,0,0:0:0:0:
64,192,75228,1,0,0:0:0:0:
448,192,75345,1,0,0:0:0:0:
320,192,75345,1,0,0:0:0:0:
64,192,75428,1,0,0:0:0:0:
192,192,75495,1,0,0:0:0:0:
448,192,75495,1,0,0:0:0:0:
320,192,75615,1,0,0:0:0:0:
64,192,75645,1,0,0:0:0:0:
192,192,75735,1,0,0:0:0:0:
320,192,75795,1,0,0:0:0:0:
64,192,75795,1,0,0:0:0:0:
448,192,75880,1,0,0:0:0:0:
192,192,75945,1,0,0:0:0:0:
448,192,76052,1,0,0:0:0:0:
192,192,76095,1,0,0:0:0:0:
64,192,76095,1,0,0:0:0:0:
320,192,76117,1,0,0:0:0:0:
64,192,76245,1,0,0:0:0:0:
320,192,76261,1,0,0:0:0:0:
320,192,76395,1,0,0:0:0:0:
448,192,76395,1,0,0:0:0:0:
192,192,76480,1,0,0:0:0:0:
320,192,76545,1,0,0:0:0:0:
64,192,76587,1,0,0:0:0:0:
192,192,76695,1,0,0:0:0:0:
320,192,76695,1,0,0:0:0:0:
448,192,76695,1,0,0:0:0:0:
64,192,76815,1,0,0:0:0:0:
320,192,76845,1,0,0:0:0:0:
192,192,76935,1,0,0:0:0:0:
64,192,76995,1,0,0:0:0:0:
320,192,76995,1,0,0:0:0:0:
64,192,77145,1,0,0:0:0:0:
192,192,77145,1,0,0:0:0:0:
448,192,77145,1,0,0:0:0:0:
64,192,77295,1,0,0:0:0:0:
320,192,77295,1,0,0:0:0:0:
448,192,77295,1,0,0:0:0:0:
192,192,77385,1,0,0:0:0:0:
448,192,77445,1,0,0:0:0:0:
320,192,77475,1,0,0:0:0:0:
192,192,77565,1,0,0:0:0:0:
448,192,77595,1,0,0:0:0:0:
320,192,77655,1,0,0:0:0:0:
448,192,77745,1,0,0:0:0:0:
192,192,77746,1,0,0:0:0:0:
64,192,77828,1,0,0:0:0:0:
192,192,77895,1,0,0:0:0:0:
320,192,77895,1,0,0:0:0:0:
320,192,78015,1,0,0:0:0:0:
448,192,78045,1,0,0:0:0:0:
64,192,78045,1,0,0:0:0:0:
192,192,78135,1,0,0:0:0:0:
448,192,78195,1,0,0:0:0:0:
320,192,78195,1,0,0:0:0:0:
320,192,78315,1,0,0:0:0:0:
64,192,78375,1,0,0:0:0:0:
192,192,78452,1,0,0:0:0:0:
448,192,78495,1,0,0:0:0:0:
320,192,78495,1,0,0:0:0:0:
64,192,78520,1,0,0:0:0:0:
64,192,78645,1,0,0:0:0:0:
448,192,78645,1,0,0:0:0:0:
192,192,78735,1,0,0:0:0:0:
64,192,78795,1,0,0:0:0:0:
448,192,78795,1,0,0:0:0:0:
320,192,78820,1,0,0:0:0:0:
192,192,78906,1,0,0:0:0:0:
448,192,78945,1,0,0:0:0:0:
64,192,79095,1,0,0:0:0:0:
192,192,79095,1,0,0:0:0:0:
320,192,79095,1,0,0:0:0:0:
192,192,79245,1,0,0:0:0:0:
320,192,79245,1,0,0:0:0:0:
448,192,79395,1,0,0:0:0:0:
192,192,79395,1,0,0:0:0:0:
320,192,79455,1,0,0:0:0:0:
448,192,79545,1,0,0:0:0:0:
192,192,79545,1,0,0:0:0:0:
64,192,79545,1,0,0:0:0:0:
320,192,79695,1,0,0:0:0:0:
192,192,79695,1,0,0:0:0:0:
64,192,79695,1,0,0:0:0:0:
448,192,79695,1,0,0:0:0:0:
320,192,79845,1,0,0:0:0:0:
64,192,79845,1,0,0:0:0:0:
192,192,79995,1,0,0:0:0:0:
64,192,79995,1,0,0:0:0:0:
320,192,80080,1,0,0:0:0:0:
64,192,80145,1,0,0:0:0:0:
448,192,80166,1,0,0:0:0:0:
320,192,80252,1,0,0:0:0:0:
192,192,80295,1,0,0:0:0:0:
64,192,80295,1,0,0:0:0:0:
448,192,80337,1,0,0:0:0:0:
320,192,80445,1,0,0:0:0:0:
192,192,80457,1,0,0:0:0:0:
64,192,80577,1,0,0:0:0:0:
320,192,80595,1,0,0:0:0:0:
192,192,80697,1,0,0:0:0:0:
320,192,80745,1,0,0:0:0:0:
64,192,80817,1,0,0:0:0:0:
192,192,80895,1,0,0:0:0:0:
320,192,80895,1,0,0:0:0:0:
448,192,80895,1,0,0:0:0:0:
448,192,81045,1,0,0:0:0:0:
64,192,81045,1,0,0:0:0:0:
192,192,81095,1,0,0:0:0:0:
320,192,81195,1,0,0:0:0:0:
64,192,81195,1,0,0:0:0:0:
192,192,81345,1,0,0:0:0:0:
64,192,81345,1,0,0:0:0:0:
192,192,81495,5,0,0:0:0:0:
64,192,81495,1,0,0:0:0:0:
448,192,81495,1,0,0:0:0:0:
192,192,81645,1,0,0:0:0:0:
320,192,81645,1,0,0:0:0:0:
192,192,81795,1,0,0:0:0:0:
320,192,81795,1,0,0:0:0:0:
192,192,81945,1,0,0:0:0:0:
320,192,81945,1,0,0:0:0:0:
448,192,81945,1,0,0:0:0:0:
192,192,82095,1,0,0:0:0:0:
448,192,82095,1,0,0:0:0:0:
320,192,82095,1,0,0:0:0:0:
64,192,82095,1,0,0:0:0:0:
192,192,82245,1,0,0:0:0:0:
64,192,82245,1,0,0:0:0:0:
192,192,82395,1,0,0:0:0:0:
320,192,82395,1,0,0:0:0:0:
448,192,82504,1,0,0:0:0:0:
192,192,82545,1,0,0:0:0:0:
320,192,82613,1,0,0:0:0:0:
192,192,82695,1,0,0:0:0:0:
448,192,82695,1,0,0:0:0:0:
64,192,82761,1,0,0:0:0:0:
192,192,82845,1,0,0:0:0:0:
448,192,82845,1,0,0:0:0:0:
192,192,82995,1,0,0:0:0:0:
320,192,83020,1,0,0:0:0:0:
64,192,83080,1,0,0:0:0:0:
192,192,83145,1,0,0:0:0:0:
320,192,83145,1,0,0:0:0:0:
192,192,83295,1,0,0:0:0:0:
448,192,83295,1,0,0:0:0:0:
64,192,83295,1,0,0:0:0:0:
320,192,83320,1,0,0:0:0:0:
192,192,83445,1,0,0:0:0:0:
448,192,83445,1,0,0:0:0:0:
320,192,83561,1,0,0:0:0:0:
192,192,83595,1,0,0:0:0:0:
64,192,83655,1,0,0:0:0:0:
192,192,83723,1,0,0:0:0:0:
448,192,83745,1,0,0:0:0:0:
320,192,83809,1,0,0:0:0:0:
448,192,83895,1,0,0:0:0:0:
64,192,83895,1,0,0:0:0:0:
192,192,83895,1,0,0:0:0:0:
320,192,84045,1,0,0:0:0:0:
64,192,84045,1,0,0:0:0:0:
192,192,84161,1,0,0:0:0:0:
320,192,84195,1,0,0:0:0:0:
64,192,84255,1,0,0:0:0:0:
448,192,84345,1,0,0:0:0:0:
192,192,84375,1,0,0:0:0:0:
320,192,84495,1,0,0:0:0:0:
448,192,84495,1,0,0:0:0:0:
64,192,84507,1,0,0:0:0:0:
192,192,84520,1,0,0:0:0:0:
320,192,84645,1,0,0:0:0:0:
448,192,84645,1,0,0:0:0:0:
320,192,84795,1,0,0:0:0:0:
192,192,84795,1,0,0:0:0:0:
64,192,84923,1,0,0:0:0:0:
320,192,84945,1,0,0:0:0:0:
192,192,84945,1,0,0:0:0:0:
320,192,85095,1,0,0:0:0:0:
192,192,85095,1,0,0:0:0:0:
64,192,85095,1,0,0:0:0:0:
320,192,85245,1,0,0:0:0:0:
192,192,85245,1,0,0:0:0:0:
64,192,85245,1,0,0:0:0:0:
448,192,85245,1,0,0:0:0:0:
320,192,85395,1,0,0:0:0:0:
64,192,85416,1,0,0:0:0:0:
192,192,85482,1,0,0:0:0:0:
320,192,85549,1,0,0:0:0:0:
64,192,85587,1,0,0:0:0:0:
320,192,85695,1,0,0:0:0:0:
192,192,85695,1,0,0:0:0:0:
320,192,85845,1,0,0:0:0:0:
448,192,85845,1,0,0:0:0:0:
192,192,85961,1,0,0:0:0:0:
320,192,85995,1,0,0:0:0:0:
64,192,86055,1,0,0:0:0:0:
192,192,86123,1,0,0:0:0:0:
448,192,86145,1,0,0:0:0:0:
320,192,86209,1,0,0:0:0:0:
448,192,86295,1,0,0:0:0:0:
64,192,86295,1,0,0:0:0:0:
192,192,86295,1,0,0:0:0:0:
64,192,86445,1,0,0:0:0:0:
320,192,86445,1,0,0:0:0:0:
192,192,86557,1,0,0:0:0:0:
64,192,86595,1,0,0:0:0:0:
320,192,86645,1,0,0:0:0:0:
64,192,86745,1,0,0:0:0:0:
448,192,86745,1,0,0:0:0:0:
192,192,86782,1,0,0:0:0:0:
320,192,86895,1,0,0:0:0:0:
448,192,86895,1,0,0:0:0:0:
64,192,86907,1,0,0:0:0:0:
192,192,86920,1,0,0:0:0:0:
64,192,87045,1,0,0:0:0:0:
320,192,87045,1,0,0:0:0:0:
64,192,87195,1,0,0:0:0:0:
448,192,87195,1,0,0:0:0:0:
192,192,87195,1,0,0:0:0:0:
320,192,87307,1,0,0:0:0:0:
64,192,87345,1,0,0:0:0:0:
448,192,87345,1,0,0:0:0:0:
64,192,87495,1,0,0:0:0:0:
320,192,87495,1,0,0:0:0:0:
448,192,87495,1,0,0:0:0:0:
64,192,87645,1,0,0:0:0:0:
448,192,87645,1,0,0:0:0:0:
320,192,87645,1,0,0:0:0:0:
192,192,87645,1,0,0:0:0:0:
320,192,87795,1,0,0:0:0:0:
192,192,87795,1,0,0:0:0:0:
448,192,87828,1,0,0:0:0:0:
64,192,87945,1,0,0:0:0:0:
448,192,87995,1,0,0:0:0:0:
64,192,88095,1,0,0:0:0:0:
192,192,88095,1,0,0:0:0:0:
448,192,88245,1,0,0:0:0:0:
64,192,88245,1,0,0:0:0:0:
320,192,88395,1,0,0:0:0:0:
448,192,88395,1,0,0:0:0:0:
64,192,88395,1,0,0:0:0:0:
320,192,88545,1,0,0:0:0:0:
192,192,88545,1,0,0:0:0:0:
64,192,88545,1,0,0:0:0:0:
64,192,88695,1,0,0:0:0:0:
192,192,88695,1,0,0:0:0:0:
320,192,88695,1,0,0:0:0:0:
448,192,88695,1,0,0:0:0:0:
64,192,88845,1,0,0:0:0:0:
192,192,88845,1,0,0:0:0:0:
64,192,88995,1,0,0:0:0:0:
320,192,88995,1,0,0:0:0:0:
448,192,89028,1,0,0:0:0:0:
64,192,89145,1,0,0:0:0:0:
448,192,89145,1,0,0:0:0:0:
320,192,89178,1,0,0:0:0:0:
64,192,89295,1,0,0:0:0:0:
192,192,89295,1,0,0:0:0:0:
320,192,89295,1,0,0:0:0:0:
448,192,89328,1,0,0:0:0:0:
64,192,89445,1,0,0:0:0:0:
448,192,89445,1,0,0:0:0:0:
320,192,89478,1,0,0:0:0:0:
64,192,89595,1,0,0:0:0:0:
448,192,89595,1,0,0:0:0:0:
320,192,89655,1,0,0:0:0:0:
192,192,89715,1,0,0:0:0:0:
320,192,89775,1,0,0:0:0:0:
448,192,89820,1,0,0:0:0:0:
64,192,89870,1,0,0:0:0:0:
192,192,89895,1,0,0:0:0:0:
320,192,89980,1,0,0:0:0:0:
192,192,90023,1,0,0:0:0:0:
64,192,90066,1,0,0:0:0:0:
448,192,90195,1,0,0:0:0:0:
192,192,90195,1,0,0:0:0:0:
64,192,90206,1,0,0:0:0:0:
320,192,90228,1,0,0:0:0:0:
64,192,90345,1,0,0:0:0:0:
320,192,90345,1,0,0:0:0:0:
448,192,90378,1,0,0:0:0:0:
64,192,90495,1,0,0:0:0:0:
448,192,90495,1,0,0:0:0:0:
320,192,90528,1,0,0:0:0:0:
192,192,90532,1,0,0:0:0:0:
64,192,90645,1,0,0:0:0:0:
320,192,90645,1,0,0:0:0:0:
448,192,90678,1,0,0:0:0:0:
192,192,90795,1,0,0:0:0:0:
448,192,90795,1,0,0:0:0:0:
320,192,90855,1,0,0:0:0:0:
64,192,90915,1,0,0:0:0:0:
192,192,91005,1,0,0:0:0:0:
320,192,91095,1,0,0:0:0:0:
448,192,91095,1,0,0:0:0:0:
192,192,91161,1,0,0:0:0:0:
320,192,91245,1,0,0:0:0:0:
64,192,91261,1,0,0:0:0:0:
192,192,91361,1,0,0:0:0:0:
320,192,91395,1,0,0:0:0:0:
448,192,91395,1,0,0:0:0:0:
320,192,91545,1,0,0:0:0:0:
64,192,91545,1,0,0:0:0:0:
448,192,91545,1,0,0:0:0:0:
320,192,91695,1,0,0:0:0:0:
192,192,91695,1,0,0:0:0:0:
64,192,91695,1,0,0:0:0:0:
448,192,91695,1,0,0:0:0:0:
320,192,91845,1,0,0:0:0:0:
192,192,91845,1,0,0:0:0:0:
320,192,91995,1,0,0:0:0:0:
192,192,91995,1,0,0:0:0:0:
64,192,92104,1,0,0:0:0:0:
320,192,92145,1,0,0:0:0:0:
192,192,92213,1,0,0:0:0:0:
320,192,92295,1,0,0:0:0:0:
64,192,92295,1,0,0:0:0:0:
448,192,92361,1,0,0:0:0:0:
320,192,92445,1,0,0:0:0:0:
64,192,92445,1,0,0:0:0:0:
320,192,92595,1,0,0:0:0:0:
192,192,92628,1,0,0:0:0:0:
448,192,92670,1,0,0:0:0:0:
320,192,92745,1,0,0:0:0:0:
192,192,92761,1,0,0:0:0:0:
320,192,92895,1,0,0:0:0:0:
64,192,92895,1,0,0:0:0:0:
448,192,92895,1,0,0:0:0:0:
192,192,92920,1,0,0:0:0:0:
320,192,93045,1,0,0:0:0:0:
64,192,93045,1,0,0:0:0:0:
192,192,93161,1,0,0:0:0:0:
320,192,93195,1,0,0:0:0:0:
448,192,93255,1,0,0:0:0:0:
320,192,93323,1,0,0:0:0:0:
64,192,93345,1,0,0:0:0:0:
192,192,93409,1,0,0:0:0:0:
64,192,93495,1,0,0:0:0:0:
448,192,93495,1,0,0:0:0:0:
320,192,93495,1,0,0:0:0:0:
192,192,93645,1,0,0:0:0:0:
448,192,93645,1,0,0:0:0:0:
64,192,93645,1,0,0:0:0:0:
320,192,93761,1,0,0:0:0:0:
192,192,93795,1,0,0:0:0:0:
448,192,93855,1,0,0:0:0:0:
64,192,93945,1,0,0:0:0:0:
320,192,93975,1,0,0:0:0:0:
192,192,94095,1,0,0:0:0:0:
64,192,94095,1,0,0:0:0:0:
448,192,94107,1,0,0:0:0:0:
320,192,94120,1,0,0:0:0:0:
192,192,94245,1,0,0:0:0:0:
64,192,94245,1,0,0:0:0:0:
448,192,94245,1,0,0:0:0:0:
192,192,94395,1,0,0:0:0:0:
320,192,94395,1,0,0:0:0:0:
64,192,94395,1,0,0:0:0:0:
448,192,94523,1,0,0:0:0:0:
192,192,94545,1,0,0:0:0:0:
320,192,94545,1,0,0:0:0:0:
192,192,94695,1,0,0:0:0:0:
320,192,94695,1,0,0:0:0:0:
448,192,94695,1,0,0:0:0:0:
64,192,94695,1,0,0:0:0:0:
192,192,94845,1,0,0:0:0:0:
320,192,94845,1,0,0:0:0:0:
448,192,94845,1,0,0:0:0:0:
64,192,94845,1,0,0:0:0:0:
192,192,94995,1,0,0:0:0:0:
64,192,94995,1,0,0:0:0:0:
448,192,95016,1,0,0:0:0:0:
320,192,95082,1,0,0:0:0:0:
192,192,95149,1,0,0:0:0:0:
448,192,95187,1,0,0:0:0:0:
192,192,95295,1,0,0:0:0:0:
320,192,95295,1,0,0:0:0:0:
192,192,95445,1,0,0:0:0:0:
64,192,95445,1,0,0:0:0:0:
448,192,95445,1,0,0:0:0:0:
320,192,95561,1,0,0:0:0:0:
192,192,95595,1,0,0:0:0:0:
448,192,95655,1,0,0:0:0:0:
320,192,95723,1,0,0:0:0:0:
64,192,95745,1,0,0:0:0:0:
192,192,95809,1,0,0:0:0:0:
64,192,95895,1,0,0:0:0:0:
448,192,95895,1,0,0:0:0:0:
320,192,95895,1,0,0:0:0:0:
448,192,96045,1,0,0:0:0:0:
192,192,96045,1,0,0:0:0:0:
64,192,96045,1,0,0:0:0:0:
320,192,96157,1,0,0:0:0:0:
448,192,96195,1,0,0:0:0:0:
192,192,96245,1,0,0:0:0:0:
448,192,96345,1,0,0:0:0:0:
64,192,96345,1,0,0:0:0:0:
320,192,96382,1,0,0:0:0:0:
192,192,96495,1,0,0:0:0:0:
64,192,96495,1,0,0:0:0:0:
448,192,96507,1,0,0:0:0:0:
320,192,96520,1,0,0:0:0:0:
448,192,96645,1,0,0:0:0:0:
192,192,96645,1,0,0:0:0:0:
64,192,96645,1,0,0:0:0:0:
448,192,96795,1,0,0:0:0:0:
64,192,96795,1,0,0:0:0:0:
320,192,96795,1,0,0:0:0:0:
192,192,96907,1,0,0:0:0:0:
448,192,96945,1,0,0:0:0:0:
64,192,96945,1,0,0:0:0:0:
448,192,97095,1,0,0:0:0:0:
192,192,97095,1,0,0:0:0:0:
64,192,97095,1,0,0:0:0:0:
320,192,97095,1,0,0:0:0:0:
448,192,97245,1,0,0:0:0:0:
64,192,97245,1,0,0:0:0:0:
192,192,97245,1,0,0:0:0:0:
320,192,97245,1,0,0:0:0:0:
192,192,97395,1,0,0:0:0:0:
320,192,97395,1,0,0:0:0:0:
64,192,97428,1,0,0:0:0:0:
448,192,97545,1,0,0:0:0:0:
320,192,97545,1,0,0:0:0:0:
64,192,97595,1,0,0:0:0:0:
448,192,97695,1,0,0:0:0:0:
320,192,97695,1,0,0:0:0:0:
64,192,97845,1,0,0:0:0:0:
448,192,97845,1,0,0:0:0:0:
192,192,97845,1,0,0:0:0:0:
192,192,97995,1,0,0:0:0:0:
64,192,97995,1,0,0:0:0:0:
448,192,97995,1,0,0:0:0:0:
320,192,97995,1,0,0:0:0:0:
192,192,98145,1,0,0:0:0:0:
320,192,98145,1,0,0:0:0:0:
448,192,98145,1,0,0:0:0:0:
448,192,98295,1,0,0:0:0:0:
320,192,98295,1,0,0:0:0:0:
192,192,98295,1,0,0:0:0:0:
64,192,98295,1,0,0:0:0:0:
448,192,98445,1,0,0:0:0:0:
320,192,98445,1,0,0:0:0:0:
192,192,98445,1,0,0:0:0:0:
448,192,98595,1,0,0:0:0:0:
192,192,98595,1,0,0:0:0:0:
64,192,98628,1,0,0:0:0:0:
448,192,98745,1,0,0:0:0:0:
64,192,98745,1,0,0:0:0:0:
192,192,98778,1,0,0:0:0:0:
448,192,98895,1,0,0:0:0:0:
320,192,98895,1,0,0:0:0:0:
192,192,98895,1,0,0:0:0:0:
64,192,98928,1,0,0:0:0:0:
448,192,99045,1,0,0:0:0:0:
64,192,99045,1,0,0:0:0:0:
320,192,99045,1,0,0:0:0:0:
192,192,99078,1,0,0:0:0:0:
448,192,99195,1,0,0:0:0:0:
64,192,99195,1,0,0:0:0:0:
192,192,99255,1,0,0:0:0:0:
320,192,99315,1,0,0:0:0:0:
192,192,99375,1,0,0:0:0:0:
64,192,99420,1,0,0:0:0:0:
448,192,99470,1,0,0:0:0:0:
320,192,99495,1,0,0:0:0:0:
192,192,99580,1,0,0:0:0:0:
320,192,99623,1,0,0:0:0:0:
64,192,99645,1,0,0:0:0:0:
448,192,99666,1,0,0:0:0:0:
64,192,99795,1,0,0:0:0:0:
320,192,99795,1,0,0:0:0:0:
448,192,99806,1,0,0:0:0:0:
192,192,99828,1,0,0:0:0:0:
448,192,99945,1,0,0:0:0:0:
192,192,99945,1,0,0:0:0:0:
64,192,99978,1,0,0:0:0:0:
448,192,100095,1,0,0:0:0:0:
64,192,100095,1,0,0:0:0:0:
192,192,100128,5,0,0:0:0:0:
320,192,100132,1,0,0:0:0:0:
448,192,100245,1,0,0:0:0:0:
192,192,100245,1,0,0:0:0:0:
64,192,100278,1,0,0:0:0:0:
320,192,100395,1,0,0:0:0:0:
64,192,100395,1,0,0:0:0:0:
192,192,100455,1,0,0:0:0:0:
448,192,100515,1,0,0:0:0:0:
320,192,100605,1,0,0:0:0:0:
64,192,100695,5,0,0:0:0:0:
448,192,100695,1,0,0:0:0:0:
448,192,100845,1,0,0:0:0:0:
64,192,100995,1,0,0:0:0:0:
448,192,100995,1,0,0:0:0:0:
64,192,101145,1,0,0:0:0:0:
64,192,101295,1,0,0:0:0:0:
448,192,101295,1,0,0:0:0:0:
448,192,101445,1,0,0:0:0:0:
448,192,101595,1,0,0:0:0:0:
64,192,101595,1,0,0:0:0:0:
64,192,101745,1,0,0:0:0:0:
64,192,101895,1,0,0:0:0:0:
448,192,101895,1,0,0:0:0:0:
448,192,102045,1,0,0:0:0:0:
448,192,102195,1,0,0:0:0:0:
64,192,102195,1,0,0:0:0:0:
64,192,102345,1,0,0:0:0:0:
64,192,102495,1,0,0:0:0:0:
448,192,102495,1,0,0:0:0:0:
448,192,102645,1,0,0:0:0:0:
448,192,102795,1,0,0:0:0:0:
64,192,102795,1,0,0:0:0:0:
64,192,102945,1,0,0:0:0:0:
64,192,103095,1,0,0:0:0:0:
448,192,103095,1,0,0:0:0:0:
192,192,103095,1,0,0:0:0:0:
448,192,103245,1,0,0:0:0:0:
448,192,103395,1,0,0:0:0:0:
192,192,103395,1,0,0:0:0:0:
192,192,103545,1,0,0:0:0:0:
448,192,103695,1,0,0:0:0:0:
192,192,103695,1,0,0:0:0:0:
448,192,103845,1,0,0:0:0:0:
448,192,103995,1,0,0:0:0:0:
192,192,103995,1,0,0:0:0:0:
192,192,104145,1,0,0:0:0:0:
448,192,104295,1,0,0:0:0:0:
192,192,104295,1,0,0:0:0:0:
448,192,104445,1,0,0:0:0:0:
192,192,104595,1,0,0:0:0:0:
448,192,104595,1,0,0:0:0:0:
192,192,104745,1,0,0:0:0:0:
192,192,104895,1,0,0:0:0:0:
448,192,104895,1,0,0:0:0:0:
448,192,105045,1,0,0:0:0:0:
448,192,105195,1,0,0:0:0:0:
192,192,105195,1,0,0:0:0:0:
192,192,105345,1,0,0:0:0:0:
448,192,105495,1,0,0:0:0:0:
192,192,105495,1,0,0:0:0:0:
320,192,105495,1,0,0:0:0:0:
320,192,105645,1,0,0:0:0:0:
448,192,105645,1,0,0:0:0:0:
448,192,105795,1,0,0:0:0:0:
192,192,105795,1,0,0:0:0:0:
192,192,105945,1,0,0:0:0:0:
320,192,105945,1,0,0:0:0:0:
192,192,106095,1,0,0:0:0:0:
448,192,106095,1,0,0:0:0:0:
320,192,106095,1,0,0:0:0:0:
320,192,106245,1,0,0:0:0:0:
448,192,106245,1,0,0:0:0:0:
448,192,106395,1,0,0:0:0:0:
192,192,106395,1,0,0:0:0:0:
192,192,106545,1,0,0:0:0:0:
320,192,106545,1,0,0:0:0:0:
192,192,106695,1,0,0:0:0:0:
448,192,106695,1,0,0:0:0:0:
320,192,106695,1,0,0:0:0:0:
320,192,106845,1,0,0:0:0:0:
448,192,106845,1,0,0:0:0:0:
192,192,106995,1,0,0:0:0:0:
448,192,106995,1,0,0:0:0:0:
320,192,107145,1,0,0:0:0:0:
192,192,107145,1,0,0:0:0:0:
192,192,107295,1,0,0:0:0:0:
448,192,107295,1,0,0:0:0:0:
320,192,107295,1,0,0:0:0:0:
448,192,107445,1,0,0:0:0:0:
320,192,107445,1,0,0:0:0:0:
448,192,107595,1,0,0:0:0:0:
192,192,107595,1,0,0:0:0:0:
320,192,107745,1,0,0:0:0:0:
192,192,107745,1,0,0:0:0:0:
320,192,107895,1,0,0:0:0:0:
448,192,107895,1,0,0:0:0:0:
64,192,107895,1,0,0:0:0:0:
320,192,108045,1,0,0:0:0:0:
320,192,108195,1,0,0:0:0:0:
64,192,108195,1,0,0:0:0:0:
192,192,108195,1,0,0:0:0:0:
64,192,108345,1,0,0:0:0:0:
192,192,108345,1,0,0:0:0:0:
64,192,108495,1,0,0:0:0:0:
320,192,108495,1,0,0:0:0:0:
192,192,108495,1,0,0:0:0:0:
320,192,108645,1,0,0:0:0:0:
192,192,108645,1,0,0:0:0:0:
320,192,108795,1,0,0:0:0:0:
64,192,108795,1,0,0:0:0:0:
192,192,108945,1,0,0:0:0:0:
64,192,108945,1,0,0:0:0:0:
64,192,109095,1,0,0:0:0:0:
320,192,109095,1,0,0:0:0:0:
320,192,109245,1,0,0:0:0:0:
192,192,109245,1,0,0:0:0:0:
320,192,109395,1,0,0:0:0:0:
192,192,109395,1,0,0:0:0:0:
64,192,109395,1,0,0:0:0:0:
192,192,109545,1,0,0:0:0:0:
192,192,109695,1,0,0:0:0:0:
448,192,109695,1,0,0:0:0:0:
64,192,109695,1,0,0:0:0:0:
448,192,109845,1,0,0:0:0:0:
64,192,109845,1,0,0:0:0:0:
192,192,109995,1,0,0:0:0:0:
448,192,109995,1,0,0:0:0:0:
320,192,109995,1,0,0:0:0:0:
64,192,110145,1,0,0:0:0:0:
448,192,110145,1,0,0:0:0:0:
192,192,110145,1,0,0:0:0:0:
448,192,110295,1,0,0:0:0:0:
320,192,110295,1,0,0:0:0:0:
192,192,110295,1,0,0:0:0:0:
64,192,110295,1,0,0:0:0:0:
192,192,110445,1,0,0:0:0:0:
320,192,110445,1,0,0:0:0:0:
192,192,110595,1,0,0:0:0:0:
448,192,110595,1,0,0:0:0:0:
448,192,110745,1,0,0:0:0:0:
448,192,110895,1,0,0:0:0:0:
192,192,110895,1,0,0:0:0:0:
192,192,111045,1,0,0:0:0:0:
320,192,111045,1,0,0:0:0:0:
448,192,111195,1,0,0:0:0:0:
192,192,111195,1,0,0:0:0:0:
448,192,111345,1,0,0:0:0:0:
192,192,111495,1,0,0:0:0:0:
448,192,111495,1,0,0:0:0:0:
192,192,111645,1,0,0:0:0:0:
320,192,111645,1,0,0:0:0:0:
448,192,111795,1,0,0:0:0:0:
192,192,111795,1,0,0:0:0:0:
448,192,111945,1,0,0:0:0:0:
448,192,112095,1,0,0:0:0:0:
192,192,112095,1,0,0:0:0:0:
192,192,112245,1,0,0:0:0:0:
192,192,112395,1,0,0:0:0:0:
448,192,112395,1,0,0:0:0:0:
448,192,112545,1,0,0:0:0:0:
448,192,112695,1,0,0:0:0:0:
64,192,112695,1,0,0:0:0:0:
64,192,112845,1,0,0:0:0:0:
64,192,112995,1,0,0:0:0:0:
448,192,112995,1,0,0:0:0:0:
320,192,112995,1,0,0:0:0:0:
448,192,113145,1,0,0:0:0:0:
448,192,113295,1,0,0:0:0:0:
64,192,113295,1,0,0:0:0:0:
64,192,113445,1,0,0:0:0:0:
64,192,113595,1,0,0:0:0:0:
320,192,113595,1,0,0:0:0:0:
448,192,113595,1,0,0:0:0:0:
448,192,113745,1,0,0:0:0:0:
192,192,113745,1,0,0:0:0:0:
448,192,113895,1,0,0:0:0:0:
64,192,113895,1,0,0:0:0:0:
64,192,114045,1,0,0:0:0:0:
64,192,114195,1,0,0:0:0:0:
448,192,114195,1,0,0:0:0:0:
448,192,114345,1,0,0:0:0:0:
448,192,114495,1,0,0:0:0:0:
64,192,114495,1,0,0:0:0:0:
64,192,114645,1,0,0:0:0:0:
64,192,114795,1,0,0:0:0:0:
448,192,114795,1,0,0:0:0:0:
448,192,114945,1,0,0:0:0:0:
448,192,115095,1,0,0:0:0:0:
64,192,115095,1,0,0:0:0:0:
192,192,115095,128,0,115395:0:0:0:0:
448,192,115395,1,0,0:0:0:0:
320,192,115395,1,0,0:0:0:0:
320,192,115545,1,0,0:0:0:0:
448,192,115695,1,0,0:0:0:0:
192,192,115695,128,0,115995:0:0:0:0:
448,192,115845,1,0,0:0:0:0:
320,192,115995,1,0,0:0:0:0:
448,192,115995,1,0,0:0:0:0:
320,192,116145,1,0,0:0:0:0:
192,192,116295,128,0,116595:0:0:0:0:
448,192,116445,1,0,0:0:0:0:
448,192,116595,1,0,0:0:0:0:
320,192,116595,1,0,0:0:0:0:
320,192,116745,1,0,0:0:0:0:
448,192,116895,1,0,0:0:0:0:
192,192,116895,128,0,117232:0:0:0:0:
448,192,117195,1,0,0:0:0:0:
448,192,117495,1,0,0:0:0:0:
192,192,117495,128,0,117870:0:0:0:0:
320,192,117795,1,0,0:0:0:0:
320,192,118095,1,0,0:0:0:0:
192,192,118095,128,0,118507:0:0:0:0:
320,192,118395,1,0,0:0:0:0:
64,192,118395,128,0,120045:0:0:0:0:
448,192,118695,1,0,0:0:0:0:
192,192,118695,128,0,119145:0:0:0:0:
448,192,118995,1,0,0:0:0:0:
320,192,118995,1,0,0:0:0:0:
448,192,119145,1,0,0:0:0:0:
320,192,119295,1,0,0:0:0:0:
192,192,119295,128,0,119745:0:0:0:0:
320,192,119595,128,0,119895:0:0:0:0:
448,192,119895,128,0,122445:0:0:0:0:
192,192,119895,128,0,120045:0:0:0:0:
192,192,120195,128,0,120345:0:0:0:0:
192,192,120495,128,0,120645:0:0:0:0:
192,192,120795,128,0,120945:0:0:0:0:
192,192,121095,128,0,121245:0:0:0:0:
192,192,121395,128,0,121545:0:0:0:0:
192,192,121695,128,0,121845:0:0:0:0:
320,192,121695,128,0,121845:0:0:0:0:
192,192,121995,128,0,122145:0:0:0:0:
320,192,121995,128,0,122145:0:0:0:0:
192,192,122295,128,0,122445:0:0:0:0:
320,192,122295,128,0,124845:0:0:0:0:
64,192,122295,128,0,122445:0:0:0:0:
192,192,122595,128,0,122745:0:0:0:0:
64,192,122595,128,0,122745:0:0:0:0:
64,192,122895,128,0,123045:0:0:0:0:
192,192,122895,128,0,123045:0:0:0:0:
192,192,123195,128,0,123345:0:0:0:0:
64,192,123195,128,0,123345:0:0:0:0:
192,192,123495,128,0,123945:0:0:0:0:
64,192,123495,128,0,123645:0:0:0:0:
64,192,123795,128,0,123945:0:0:0:0:
64,192,124095,128,0,124245:0:0:0:0:
192,192,124095,128,0,124545:0:0:0:0:
64,192,124395,128,0,124545:0:0:0:0:
64,192,124695,128,0,126645:0:0:0:0:
192,192,124695,128,0,124845:0:0:0:0:
448,192,124695,128,0,124845:0:0:0:0:
192,192,124995,128,0,125145:0:0:0:0:
448,192,124995,128,0,125145:0:0:0:0:
320,192,124995,128,0,125445:0:0:0:0:
192,192,125295,128,0,125445:0:0:0:0:
448,192,125295,128,0,125445:0:0:0:0:
448,192,125595,128,0,125745:0:0:0:0:
192,192,125595,128,0,125745:0:0:0:0:
320,192,125595,128,0,126045:0:0:0:0:
192,192,125895,128,0,126045:0:0:0:0:
448,192,125895,128,0,126045:0:0:0:0:
320,192,126195,128,0,126945:0:0:0:0:
448,192,126195,128,0,126945:0:0:0:0:
192,192,126195,128,0,126345:0:0:0:0:
192,192,126495,128,0,126645:0:0:0:0:
192,192,126795,128,0,126945:0:0:0:0:
64,192,126795,128,0,126945:0:0:0:0:
192,192,127095,128,0,127845:0:0:0:0:
320,192,127095,128,0,127245:0:0:0:0:
448,192,127095,128,0,127845:0:0:0:0:
64,192,127095,128,0,128745:0:0:0:0:
320,192,127395,128,0,127545:0:0:0:0:
320,192,127695,128,0,127845:0:0:0:0:
320,192,127995,128,0,129345:0:0:0:0:
448,192,127995,128,0,128145:0:0:0:0:
192,192,127995,128,0,129345:0:0:0:0:
448,192,128295,128,0,128445:0:0:0:0:
448,192,128595,128,0,128745:0:0:0:0:
64,192,128895,128,0,129045:0:0:0:0:
448,192,128895,128,0,129645:0:0:0:0:
64,192,129195,128,0,129345:0:0:0:0:
192,192,129495,128,0,129645:0:0:0:0:
320,192,129495,128,0,130845:0:0:0:0:
64,192,129495,128,0,131745:0:0:0:0:
192,192,129795,128,0,129945:0:0:0:0:
448,192,129795,128,0,130245:0:0:0:0:
192,192,130095,128,0,130245:0:0:0:0:
192,192,130395,128,0,130545:0:0:0:0:
448,192,130395,128,0,131745:0:0:0:0:
192,192,130695,128,0,130845:0:0:0:0:
192,192,130995,128,0,131145:0:0:0:0:
320,192,130995,128,0,131445:0:0:0:0:
192,192,131295,128,0,131445:0:0:0:0:
192,192,131595,128,0,131745:0:0:0:0:
320,192,131595,128,0,132045:0:0:0:0:
64,192,131895,128,0,133545:0:0:0:0:
192,192,131895,128,0,134145:0:0:0:0:
448,192,131895,128,0,132045:0:0:0:0:
320,192,132195,128,0,132345:0:0:0:0:
448,192,132195,128,0,132645:0:0:0:0:
320,192,132495,128,0,132645:0:0:0:0:
448,192,132795,128,0,132945:0:0:0:0:
320,192,132795,128,0,133245:0:0:0:0:
448,192,133095,128,0,133245:0:0:0:0:
448,192,133395,128,0,133845:0:0:0:0:
320,192,133395,128,0,133545:0:0:0:0:
320,192,133695,128,0,133845:0:0:0:0:
64,192,133695,128,0,134145:0:0:0:0:
320,192,133995,128,0,134145:0:0:0:0:
448,192,133995,128,0,135045:0:0:0:0:
320,192,134295,128,0,136845:0:0:0:0:
192,192,134295,128,0,136545:0:0:0:0:
64,192,134295,128,0,134745:0:0:0:0:
64,192,134895,128,0,135345:0:0:0:0:
448,192,135195,128,0,135345:0:0:0:0:
448,192,135495,128,0,135945:0:0:0:0:
64,192,135495,128,0,135645:0:0:0:0:
64,192,135795,128,0,135945:0:0:0:0:
448,192,136095,128,0,136545:0:0:0:0:
64,192,136095,128,0,136245:0:0:0:0:
64,192,136395,128,0,136545:0:0:0:0:
192,192,136695,128,0,136845:0:0:0:0:
64,192,136695,128,0,136845:0:0:0:0:
192,192,136995,128,0,137145:0:0:0:0:
64,192,136995,128,0,137145:0:0:0:0:
192,192,137295,128,0,137445:0:0:0:0:
64,192,137295,128,0,137445:0:0:0:0:
192,192,137595,128,0,137745:0:0:0:0:
64,192,137595,128,0,137745:0:0:0:0:
320,192,137595,128,0,137745:0:0:0:0:
192,192,137895,128,0,138045:0:0:0:0:
320,192,137895,128,0,138045:0:0:0:0:
320,192,138195,128,0,138345:0:0:0:0:
320,192,138495,1,0,0:0:0:0:
320,192,138645,1,0,0:0:0:0:
320,192,138795,1,0,0:0:0:0:
192,192,138945,1,0,0:0:0:0:
64,192,139095,1,0,0:0:0:0:
448,192,139095,1,0,0:0:0:0:
320,192,139095,1,0,0:0:0:0:
64,192,139245,1,0,0:0:0:0:
320,192,139395,1,0,0:0:0:0:
64,192,139395,1,0,0:0:0:0:
448,192,139395,1,0,0:0:0:0:
192,192,139545,1,0,0:0:0:0:
448,192,139545,1,0,0:0:0:0:
320,192,139695,1,0,0:0:0:0:
448,192,139695,1,0,0:0:0:0:
192,192,139695,1,0,0:0:0:0:
64,192,139695,1,0,0:0:0:0:
320,192,139845,1,0,0:0:0:0:
448,192,139845,1,0,0:0:0:0:
192,192,139845,1,0,0:0:0:0:
192,192,139995,1,0,0:0:0:0:
320,192,139995,1,0,0:0:0:0:
64,192,139995,1,0,0:0:0:0:
448,192,140104,1,0,0:0:0:0:
320,192,140213,1,0,0:0:0:0:
192,192,140295,1,0,0:0:0:0:
448,192,140295,1,0,0:0:0:0:
64,192,140361,1,0,0:0:0:0:
192,192,140445,1,0,0:0:0:0:
448,192,140445,1,0,0:0:0:0:
448,192,140595,1,0,0:0:0:0:
320,192,140628,1,0,0:0:0:0:
64,192,140670,1,0,0:0:0:0:
192,192,140745,1,0,0:0:0:0:
192,192,140895,1,0,0:0:0:0:
448,192,140895,1,0,0:0:0:0:
64,192,140895,1,0,0:0:0:0:
320,192,140895,1,0,0:0:0:0:
448,192,141045,1,0,0:0:0:0:
320,192,141161,1,0,0:0:0:0:
192,192,141195,1,0,0:0:0:0:
64,192,141255,1,0,0:0:0:0:
192,192,141323,1,0,0:0:0:0:
448,192,141345,1,0,0:0:0:0:
320,192,141409,1,0,0:0:0:0:
448,192,141495,1,0,0:0:0:0:
64,192,141495,1,0,0:0:0:0:
192,192,141495,1,0,0:0:0:0:
64,192,141645,1,0,0:0:0:0:
192,192,141761,1,0,0:0:0:0:
448,192,141795,1,0,0:0:0:0:
320,192,141795,1,0,0:0:0:0:
64,192,141855,1,0,0:0:0:0:
320,192,141945,1,0,0:0:0:0:
192,192,141975,1,0,0:0:0:0:
448,192,142095,1,0,0:0:0:0:
64,192,142095,1,0,0:0:0:0:
320,192,142120,1,0,0:0:0:0:
64,192,142245,1,0,0:0:0:0:
448,192,142245,1,0,0:0:0:0:
192,192,142395,1,0,0:0:0:0:
448,192,142395,1,0,0:0:0:0:
64,192,142523,1,0,0:0:0:0:
320,192,142545,1,0,0:0:0:0:
192,192,142545,1,0,0:0:0:0:
320,192,142695,1,0,0:0:0:0:
192,192,142695,1,0,0:0:0:0:
448,192,142695,1,0,0:0:0:0:
320,192,142845,1,0,0:0:0:0:
64,192,142845,1,0,0:0:0:0:
448,192,142845,1,0,0:0:0:0:
448,192,142995,1,0,0:0:0:0:
64,192,143016,1,0,0:0:0:0:
192,192,143082,1,0,0:0:0:0:
320,192,143149,1,0,0:0:0:0:
64,192,143187,1,0,0:0:0:0:
448,192,143295,1,0,0:0:0:0:
192,192,143295,1,0,0:0:0:0:
64,192,143332,1,0,0:0:0:0:
448,192,143445,1,0,0:0:0:0:
192,192,143561,1,0,0:0:0:0:
320,192,143595,1,0,0:0:0:0:
64,192,143655,1,0,0:0:0:0:
192,192,143723,1,0,0:0:0:0:
448,192,143745,1,0,0:0:0:0:
320,192,143809,1,0,0:0:0:0:
448,192,143895,1,0,0:0:0:0:
64,192,143895,1,0,0:0:0:0:
192,192,143895,1,0,0:0:0:0:
64,192,144045,1,0,0:0:0:0:
320,192,144045,1,0,0:0:0:0:
192,192,144157,1,0,0:0:0:0:
448,192,144195,1,0,0:0:0:0:
320,192,144245,1,0,0:0:0:0:
64,192,144345,1,0,0:0:0:0:
448,192,144345,1,0,0:0:0:0:
192,192,144382,1,0,0:0:0:0:
320,192,144495,1,0,0:0:0:0:
448,192,144495,1,0,0:0:0:0:
64,192,144507,1,0,0:0:0:0:
192,192,144520,1,0,0:0:0:0:
64,192,144645,1,0,0:0:0:0:
320,192,144645,1,0,0:0:0:0:
448,192,144795,1,0,0:0:0:0:
192,192,144795,1,0,0:0:0:0:
64,192,144845,1,0,0:0:0:0:
320,192,144907,1,0,0:0:0:0:
448,192,144945,1,0,0:0:0:0:
64,192,145009,1,0,0:0:0:0:
320,192,145095,1,0,0:0:0:0:
448,192,145095,1,0,0:0:0:0:
192,192,145095,1,0,0:0:0:0:
64,192,145245,1,0,0:0:0:0:
448,192,145245,1,0,0:0:0:0:
320,192,145395,1,0,0:0:0:0:
192,192,145395,1,0,0:0:0:0:
448,192,145428,1,0,0:0:0:0:
64,192,145545,1,0,0:0:0:0:
192,192,145545,1,0,0:0:0:0:
448,192,145595,1,0,0:0:0:0:
64,192,145695,1,0,0:0:0:0:
320,192,145695,1,0,0:0:0:0:
448,192,145732,1,0,0:0:0:0:
192,192,145845,1,0,0:0:0:0:
320,192,145995,1,0,0:0:0:0:
448,192,145995,1,0,0:0:0:0:
192,192,145995,1,0,0:0:0:0:
64,192,146145,1,0,0:0:0:0:
448,192,146145,1,0,0:0:0:0:
320,192,146145,1,0,0:0:0:0:
64,192,146295,1,0,0:0:0:0:
192,192,146295,1,0,0:0:0:0:
448,192,146295,1,0,0:0:0:0:
192,192,146445,1,0,0:0:0:0:
64,192,146595,1,0,0:0:0:0:
320,192,146595,1,0,0:0:0:0:
448,192,146628,1,0,0:0:0:0:
448,192,146745,1,0,0:0:0:0:
320,192,146778,1,0,0:0:0:0:
64,192,146895,1,0,0:0:0:0:
320,192,146895,1,0,0:0:0:0:
192,192,146895,1,0,0:0:0:0:
448,192,146928,1,0,0:0:0:0:
192,192,147045,1,0,0:0:0:0:
320,192,147078,1,0,0:0:0:0:
448,192,147195,1,0,0:0:0:0:
192,192,147195,1,0,0:0:0:0:
64,192,147255,1,0,0:0:0:0:
320,192,147315,1,0,0:0:0:0:
192,192,147375,1,0,0:0:0:0:
448,192,147420,1,0,0:0:0:0:
64,192,147470,1,0,0:0:0:0:
320,192,147495,1,0,0:0:0:0:
64,192,147580,1,0,0:0:0:0:
192,192,147623,1,0,0:0:0:0:
448,192,147666,1,0,0:0:0:0:
320,192,147795,1,0,0:0:0:0:
64,192,147806,1,0,0:0:0:0:
448,192,147837,1,0,0:0:0:0:
192,192,147945,1,0,0:0:0:0:
320,192,147945,1,0,0:0:0:0:
448,192,147978,1,0,0:0:0:0:
64,192,148095,1,0,0:0:0:0:
448,192,148095,1,0,0:0:0:0:
320,192,148128,1,0,0:0:0:0:
192,192,148132,1,0,0:0:0:0:
64,192,148245,1,0,0:0:0:0:
192,192,148245,1,0,0:0:0:0:
448,192,148278,1,0,0:0:0:0:
64,192,148395,1,0,0:0:0:0:
448,192,148395,1,0,0:0:0:0:
320,192,148455,1,0,0:0:0:0:
64,192,148515,1,0,0:0:0:0:
192,192,148605,1,0,0:0:0:0:
320,192,148695,1,0,0:0:0:0:
448,192,148695,1,0,0:0:0:0:
192,192,148761,1,0,0:0:0:0:
64,192,148861,1,0,0:0:0:0:
448,192,148866,1,0,0:0:0:0:
192,192,148961,1,0,0:0:0:0:
448,192,148995,1,0,0:0:0:0:
320,192,149037,1,0,0:0:0:0:
64,192,149145,1,0,0:0:0:0:
192,192,149145,1,0,0:0:0:0:
448,192,149209,1,0,0:0:0:0:
320,192,149295,1,0,0:0:0:0:
192,192,149295,1,0,0:0:0:0:
64,192,149295,1,0,0:0:0:0:
448,192,149380,1,0,0:0:0:0:
192,192,149445,1,0,0:0:0:0:
64,192,149466,1,0,0:0:0:0:
320,192,149595,1,0,0:0:0:0:
192,192,149637,1,0,0:0:0:0:
64,192,149704,1,0,0:0:0:0:
448,192,149745,1,0,0:0:0:0:
192,192,149813,1,0,0:0:0:0:
320,192,149895,1,0,0:0:0:0:
64,192,149895,1,0,0:0:0:0:
448,192,149961,1,0,0:0:0:0:
320,192,150045,1,0,0:0:0:0:
192,192,150066,1,0,0:0:0:0:
320,192,150195,1,0,0:0:0:0:
192,192,150228,1,0,0:0:0:0:
64,192,150237,1,0,0:0:0:0:
320,192,150345,1,0,0:0:0:0:
448,192,150375,1,0,0:0:0:0:
320,192,150495,1,0,0:0:0:0:
64,192,150495,1,0,0:0:0:0:
448,192,150495,1,0,0:0:0:0:
192,192,150520,1,0,0:0:0:0:
64,192,150645,1,0,0:0:0:0:
448,192,150666,1,0,0:0:0:0:
192,192,150761,1,0,0:0:0:0:
320,192,150795,1,0,0:0:0:0:
448,192,150855,1,0,0:0:0:0:
320,192,150923,1,0,0:0:0:0:
64,192,150945,1,0,0:0:0:0:
192,192,151009,1,0,0:0:0:0:
64,192,151095,1,0,0:0:0:0:
448,192,151095,1,0,0:0:0:0:
320,192,151095,1,0,0:0:0:0:
448,192,151245,1,0,0:0:0:0:
192,192,151245,1,0,0:0:0:0:
64,192,151266,1,0,0:0:0:0:
320,192,151361,1,0,0:0:0:0:
192,192,151437,1,0,0:0:0:0:
448,192,151455,1,0,0:0:0:0:
64,192,151545,1,0,0:0:0:0:
320,192,151575,1,0,0:0:0:0:
192,192,151695,1,0,0:0:0:0:
64,192,151695,1,0,0:0:0:0:
448,192,151707,1,0,0:0:0:0:
320,192,151720,1,0,0:0:0:0:
64,192,151870,1,0,0:0:0:0:
192,192,151995,1,0,0:0:0:0:
320,192,151995,1,0,0:0:0:0:
64,192,152028,1,0,0:0:0:0:
448,192,152123,1,0,0:0:0:0:
192,192,152145,1,0,0:0:0:0:
320,192,152145,1,0,0:0:0:0:
320,192,152295,1,0,0:0:0:0:
448,192,152295,1,0,0:0:0:0:
64,192,152295,1,0,0:0:0:0:
192,192,152395,1,0,0:0:0:0:
448,192,152428,1,0,0:0:0:0:
320,192,152466,1,0,0:0:0:0:
64,192,152595,1,0,0:0:0:0:
192,192,152595,1,0,0:0:0:0:
448,192,152616,1,0,0:0:0:0:
320,192,152682,1,0,0:0:0:0:
64,192,152761,1,0,0:0:0:0:
448,192,152787,1,0,0:0:0:0:
192,192,152895,1,0,0:0:0:0:
320,192,152895,1,0,0:0:0:0:
64,192,152920,1,0,0:0:0:0:
448,192,152945,1,0,0:0:0:0:
192,192,153045,1,0,0:0:0:0:
448,192,153095,1,0,0:0:0:0:
320,192,153161,1,0,0:0:0:0:
192,192,153195,1,0,0:0:0:0:
448,192,153255,1,0,0:0:0:0:
320,192,153323,1,0,0:0:0:0:
64,192,153345,1,0,0:0:0:0:
192,192,153409,1,0,0:0:0:0:
64,192,153495,1,0,0:0:0:0:
448,192,153495,1,0,0:0:0:0:
320,192,153495,1,0,0:0:0:0:
448,192,153645,1,0,0:0:0:0:
64,192,153666,1,0,0:0:0:0:
320,192,153757,1,0,0:0:0:0:
448,192,153795,1,0,0:0:0:0:
64,192,153795,1,0,0:0:0:0:
192,192,153845,1,0,0:0:0:0:
448,192,153945,1,0,0:0:0:0:
64,192,153945,1,0,0:0:0:0:
320,192,153982,1,0,0:0:0:0:
192,192,154095,1,0,0:0:0:0:
64,192,154095,1,0,0:0:0:0:
448,192,154107,1,0,0:0:0:0:
320,192,154120,1,0,0:0:0:0:
448,192,154245,1,0,0:0:0:0:
64,192,154245,1,0,0:0:0:0:
192,192,154266,1,0,0:0:0:0:
448,192,154395,1,0,0:0:0:0:
320,192,154395,1,0,0:0:0:0:
192,192,154437,1,0,0:0:0:0:
64,192,154507,1,0,0:0:0:0:
320,192,154545,1,0,0:0:0:0:
448,192,154609,1,0,0:0:0:0:
64,192,154670,1,0,0:0:0:0:
320,192,154695,1,0,0:0:0:0:
192,192,154695,1,0,0:0:0:0:
448,192,154845,1,0,0:0:0:0:
192,192,154845,1,0,0:0:0:0:
320,192,154995,1,0,0:0:0:0:
448,192,154995,1,0,0:0:0:0:
64,192,155028,1,0,0:0:0:0:
192,192,155095,1,0,0:0:0:0:
448,192,155166,1,0,0:0:0:0:
64,192,155195,1,0,0:0:0:0:
192,192,155295,1,0,0:0:0:0:
448,192,155295,1,0,0:0:0:0:
64,192,155320,1,0,0:0:0:0:
320,192,155337,1,0,0:0:0:0:
448,192,155445,1,0,0:0:0:0:
192,192,155445,1,0,0:0:0:0:
64,192,155595,1,0,0:0:0:0:
448,192,155595,1,0,0:0:0:0:
192,192,155595,1,0,0:0:0:0:
192,192,155745,1,0,0:0:0:0:
64,192,155745,1,0,0:0:0:0:
320,192,155745,1,0,0:0:0:0:
448,192,155895,1,0,0:0:0:0:
320,192,155895,1,0,0:0:0:0:
64,192,155895,1,0,0:0:0:0:
192,192,156045,1,0,0:0:0:0:
448,192,156066,1,0,0:0:0:0:
192,192,156195,1,0,0:0:0:0:
64,192,156228,1,0,0:0:0:0:
320,192,156237,1,0,0:0:0:0:
64,192,156345,1,0,0:0:0:0:
192,192,156378,1,0,0:0:0:0:
448,192,156495,1,0,0:0:0:0:
320,192,156495,1,0,0:0:0:0:
192,192,156495,1,0,0:0:0:0:
64,192,156528,1,0,0:0:0:0:
192,192,156645,1,0,0:0:0:0:
320,192,156678,1,0,0:0:0:0:
448,192,156695,1,0,0:0:0:0:
64,192,156795,1,0,0:0:0:0:
448,192,156845,1,0,0:0:0:0:
192,192,156855,1,0,0:0:0:0:
320,192,156915,1,0,0:0:0:0:
192,192,156975,1,0,0:0:0:0:
64,192,157020,1,0,0:0:0:0:
448,192,157070,1,0,0:0:0:0:
320,192,157095,1,0,0:0:0:0:
192,192,157180,1,0,0:0:0:0:
320,192,157223,1,0,0:0:0:0:
64,192,157245,1,0,0:0:0:0:
448,192,157266,1,0,0:0:0:0:
64,192,157395,1,0,0:0:0:0:
320,192,157395,1,0,0:0:0:0:
192,192,157428,1,0,0:0:0:0:
448,192,157545,1,0,0:0:0:0:
192,192,157545,1,0,0:0:0:0:
64,192,157578,1,0,0:0:0:0:
448,192,157695,1,0,0:0:0:0:
64,192,157695,1,0,0:0:0:0:
192,192,157728,5,0,0:0:0:0:
320,192,157732,1,0,0:0:0:0:
448,192,157845,1,0,0:0:0:0:
320,192,157866,1,0,0:0:0:0:
64,192,157878,1,0,0:0:0:0:
64,192,157995,1,0,0:0:0:0:
320,192,158013,1,0,0:0:0:0:
192,192,158055,1,0,0:0:0:0:
448,192,158115,1,0,0:0:0:0:
320,192,158205,1,0,0:0:0:0:
64,192,158295,1,0,0:0:0:0:
192,192,158295,1,0,0:0:0:0:
448,192,158295,1,0,0:0:0:0:
320,192,158445,1,0,0:0:0:0:
448,192,158445,1,0,0:0:0:0:
192,192,158466,1,0,0:0:0:0:
448,192,158595,1,0,0:0:0:0:
192,192,158595,1,0,0:0:0:0:
320,192,158637,1,0,0:0:0:0:
192,192,158745,1,0,0:0:0:0:
64,192,158745,1,0,0:0:0:0:
320,192,158809,1,0,0:0:0:0:
192,192,158895,1,0,0:0:0:0:
64,192,158895,1,0,0:0:0:0:
448,192,158932,1,0,0:0:0:0:
320,192,158980,1,0,0:0:0:0:
64,192,159045,1,0,0:0:0:0:
448,192,159066,1,0,0:0:0:0:
320,192,159195,1,0,0:0:0:0:
192,192,159237,1,0,0:0:0:0:
64,192,159270,1,0,0:0:0:0:
448,192,159304,1,0,0:0:0:0:
320,192,159413,1,0,0:0:0:0:
192,192,159495,1,0,0:0:0:0:
448,192,159495,1,0,0:0:0:0:
64,192,159561,1,0,0:0:0:0:
192,192,159645,1,0,0:0:0:0:
320,192,159666,1,0,0:0:0:0:
448,192,159795,1,0,0:0:0:0:
320,192,159828,1,0,0:0:0:0:
64,192,159870,1,0,0:0:0:0:
192,192,159945,1,0,0:0:0:0:
192,192,160095,1,0,0:0:0:0:
448,192,160095,1,0,0:0:0:0:
64,192,160095,1,0,0:0:0:0:
320,192,160095,1,0,0:0:0:0:
448,192,160245,1,0,0:0:0:0:
64,192,160245,1,0,0:0:0:0:
320,192,160361,1,0,0:0:0:0:
192,192,160395,1,0,0:0:0:0:
64,192,160455,1,0,0:0:0:0:
192,192,160523,1,0,0:0:0:0:
448,192,160545,1,0,0:0:0:0:
320,192,160609,1,0,0:0:0:0:
448,192,160695,1,0,0:0:0:0:
64,192,160695,1,0,0:0:0:0:
192,192,160695,1,0,0:0:0:0:
64,192,160828,1,0,0:0:0:0:
448,192,160866,1,0,0:0:0:0:
192,192,160961,1,0,0:0:0:0:
320,192,160995,1,0,0:0:0:0:
64,192,161055,1,0,0:0:0:0:
448,192,161080,1,0,0:0:0:0:
320,192,161145,1,0,0:0:0:0:
192,192,161175,1,0,0:0:0:0:
448,192,161295,1,0,0:0:0:0:
320,192,161295,1,0,0:0:0:0:
64,192,161307,1,0,0:0:0:0:
192,192,161320,1,0,0:0:0:0:
64,192,161445,1,0,0:0:0:0:
448,192,161461,1,0,0:0:0:0:
192,192,161595,1,0,0:0:0:0:
320,192,161628,1,0,0:0:0:0:
64,192,161723,1,0,0:0:0:0:
192,192,161745,1,0,0:0:0:0:
448,192,161761,1,0,0:0:0:0:
320,192,161895,1,0,0:0:0:0:
448,192,161895,1,0,0:0:0:0:
192,192,161920,1,0,0:0:0:0:
320,192,162045,1,0,0:0:0:0:
448,192,162045,1,0,0:0:0:0:
64,192,162061,1,0,0:0:0:0:
448,192,162195,1,0,0:0:0:0:
64,192,162216,1,0,0:0:0:0:
192,192,162282,1,0,0:0:0:0:
320,192,162349,1,0,0:0:0:0:
64,192,162387,1,0,0:0:0:0:
192,192,162495,1,0,0:0:0:0:
448,192,162495,1,0,0:0:0:0:
320,192,162513,1,0,0:0:0:0:
64,192,162561,1,0,0:0:0:0:
320,192,162645,1,0,0:0:0:0:
448,192,162666,1,0,0:0:0:0:
192,192,162761,1,0,0:0:0:0:
320,192,162795,1,0,0:0:0:0:
64,192,162855,1,0,0:0:0:0:
192,192,162923,1,0,0:0:0:0:
448,192,162945,1,0,0:0:0:0:
320,192,163009,1,0,0:0:0:0:
448,192,163095,1,0,0:0:0:0:
64,192,163095,1,0,0:0:0:0:
192,192,163095,1,0,0:0:0:0:
320,192,163245,1,0,0:0:0:0:
64,192,163266,1,0,0:0:0:0:
192,192,163357,1,0,0:0:0:0:
448,192,163395,1,0,0:0:0:0:
320,192,163445,1,0,0:0:0:0:
64,192,163545,1,0,0:0:0:0:
448,192,163545,1,0,0:0:0:0:
192,192,163582,1,0,0:0:0:0:
320,192,163695,1,0,0:0:0:0:
448,192,163695,1,0,0:0:0:0:
64,192,163707,1,0,0:0:0:0:
192,192,163720,1,0,0:0:0:0:
64,192,163845,1,0,0:0:0:0:
320,192,163866,1,0,0:0:0:0:
448,192,163995,1,0,0:0:0:0:
192,192,163995,1,0,0:0:0:0:
64,192,164045,1,0,0:0:0:0:
320,192,164107,1,0,0:0:0:0:
448,192,164145,1,0,0:0:0:0:
64,192,164209,1,0,0:0:0:0:
320,192,164295,1,0,0:0:0:0:
448,192,164295,1,0,0:0:0:0:
192,192,164295,1,0,0:0:0:0:
64,192,164445,1,0,0:0:0:0:
448,192,164445,1,0,0:0:0:0:
320,192,164595,1,0,0:0:0:0:
192,192,164595,1,0,0:0:0:0:
448,192,164628,1,0,0:0:0:0:
64,192,164745,1,0,0:0:0:0:
192,192,164745,1,0,0:0:0:0:
448,192,164795,1,0,0:0:0:0:
64,192,164895,1,0,0:0:0:0:
448,192,164920,1,0,0:0:0:0:
320,192,164932,1,0,0:0:0:0:
192,192,165045,1,0,0:0:0:0:
64,192,165066,1,0,0:0:0:0:
320,192,165195,1,0,0:0:0:0:
448,192,165195,1,0,0:0:0:0:
192,192,165237,1,0,0:0:0:0:
64,192,165345,1,0,0:0:0:0:
448,192,165345,1,0,0:0:0:0:
320,192,165409,1,0,0:0:0:0:
64,192,165495,1,0,0:0:0:0:
192,192,165495,1,0,0:0:0:0:
448,192,165580,1,0,0:0:0:0:
192,192,165645,1,0,0:0:0:0:
64,192,165795,1,0,0:0:0:0:
320,192,165795,1,0,0:0:0:0:
448,192,165828,1,0,0:0:0:0:
448,192,165945,1,0,0:0:0:0:
192,192,165945,1,0,0:0:0:0:
320,192,165978,1,0,0:0:0:0:
64,192,166095,1,0,0:0:0:0:
320,192,166095,1,0,0:0:0:0:
192,192,166095,1,0,0:0:0:0:
448,192,166128,1,0,0:0:0:0:
192,192,166245,1,0,0:0:0:0:
320,192,166278,1,0,0:0:0:0:
448,192,166395,1,0,0:0:0:0:
192,192,166395,1,0,0:0:0:0:
64,192,166455,1,0,0:0:0:0:
320,192,166515,1,0,0:0:0:0:
192,192,166575,1,0,0:0:0:0:
448,192,166620,1,0,0:0:0:0:
64,192,166670,1,0,0:0:0:0:
320,192,166695,1,0,0:0:0:0:
64,192,166780,1,0,0:0:0:0:
192,192,166823,1,0,0:0:0:0:
448,192,166866,1,0,0:0:0:0:
320,192,166995,1,0,0:0:0:0:
64,192,167006,1,0,0:0:0:0:
448,192,167037,1,0,0:0:0:0:
192,192,167145,1,0,0:0:0:0:
320,192,167145,1,0,0:0:0:0:
448,192,167178,1,0,0:0:0:0:
64,192,167295,1,0,0:0:0:0:
448,192,167295,1,0,0:0:0:0:
192,192,167313,1,0,0:0:0:0:
320,192,167328,1,0,0:0:0:0:
64,192,167445,1,0,0:0:0:0:
192,192,167445,1,0,0:0:0:0:
448,192,167478,1,0,0:0:0:0:
64,192,167595,1,0,0:0:0:0:
448,192,167595,1,0,0:0:0:0:
320,192,167655,1,0,0:0:0:0:
64,192,167715,1,0,0:0:0:0:
192,192,167805,1,0,0:0:0:0:
320,192,167895,1,0,0:0:0:0:
448,192,167895,1,0,0:0:0:0:
192,192,167961,1,0,0:0:0:0:
64,192,168061,1,0,0:0:0:0:
448,192,168066,1,0,0:0:0:0:
192,192,168161,1,0,0:0:0:0:
448,192,168195,1,0,0:0:0:0:
320,192,168237,1,0,0:0:0:0:
64,192,168345,1,0,0:0:0:0:
192,192,168345,1,0,0:0:0:0:
448,192,168409,1,0,0:0:0:0:
320,192,168495,1,0,0:0:0:0:
192,192,168495,1,0,0:0:0:0:
64,192,168495,1,0,0:0:0:0:
448,192,168580,1,0,0:0:0:0:
192,192,168645,1,0,0:0:0:0:
64,192,168666,1,0,0:0:0:0:
320,192,168795,1,0,0:0:0:0:
192,192,168837,1,0,0:0:0:0:
64,192,168904,1,0,0:0:0:0:
448,192,168945,1,0,0:0:0:0:
192,192,169013,1,0,0:0:0:0:
320,192,169095,1,0,0:0:0:0:
64,192,169095,1,0,0:0:0:0:
448,192,169161,1,0,0:0:0:0:
320,192,169245,1,0,0:0:0:0:
192,192,169266,1,0,0:0:0:0:
320,192,169395,1,0,0:0:0:0:
192,192,169428,1,0,0:0:0:0:
64,192,169437,1,0,0:0:0:0:
320,192,169545,1,0,0:0:0:0:
448,192,169575,1,0,0:0:0:0:
320,192,169695,1,0,0:0:0:0:
448,192,169695,1,0,0:0:0:0:
64,192,169695,1,0,0:0:0:0:
192,192,169720,1,0,0:0:0:0:
64,192,169845,1,0,0:0:0:0:
448,192,169866,1,0,0:0:0:0:
192,192,169961,1,0,0:0:0:0:
320,192,169995,1,0,0:0:0:0:
448,192,170055,1,0,0:0:0:0:
320,192,170123,1,0,0:0:0:0:
64,192,170145,1,0,0:0:0:0:
192,192,170209,1,0,0:0:0:0:
64,192,170295,1,0,0:0:0:0:
448,192,170295,1,0,0:0:0:0:
320,192,170295,1,0,0:0:0:0:
448,192,170445,1,0,0:0:0:0:
192,192,170445,1,0,0:0:0:0:
64,192,170466,1,0,0:0:0:0:
320,192,170561,1,0,0:0:0:0:
192,192,170637,1,0,0:0:0:0:
448,192,170655,1,0,0:0:0:0:
64,192,170745,1,0,0:0:0:0:
320,192,170775,1,0,0:0:0:0:
192,192,170895,1,0,0:0:0:0:
64,192,170895,1,0,0:0:0:0:
448,192,170907,1,0,0:0:0:0:
320,192,170920,1,0,0:0:0:0:
64,192,171070,1,0,0:0:0:0:
192,192,171195,1,0,0:0:0:0:
320,192,171195,1,0,0:0:0:0:
64,192,171228,1,0,0:0:0:0:
448,192,171323,1,0,0:0:0:0:
192,192,171345,1,0,0:0:0:0:
320,192,171345,1,0,0:0:0:0:
320,192,171495,1,0,0:0:0:0:
448,192,171495,1,0,0:0:0:0:
64,192,171495,1,0,0:0:0:0:
192,192,171595,1,0,0:0:0:0:
448,192,171628,1,0,0:0:0:0:
320,192,171666,1,0,0:0:0:0:
64,192,171795,1,0,0:0:0:0:
192,192,171795,1,0,0:0:0:0:
448,192,171816,1,0,0:0:0:0:
320,192,171882,1,0,0:0:0:0:
192,192,171949,1,0,0:0:0:0:
64,192,171961,1,0,0:0:0:0:
448,192,171987,1,0,0:0:0:0:
192,192,172095,1,0,0:0:0:0:
320,192,172095,1,0,0:0:0:0:
64,192,172120,1,0,0:0:0:0:
448,192,172145,1,0,0:0:0:0:
192,192,172245,1,0,0:0:0:0:
448,192,172295,1,0,0:0:0:0:
320,192,172361,1,0,0:0:0:0:
192,192,172395,1,0,0:0:0:0:
448,192,172455,1,0,0:0:0:0:
320,192,172523,1,0,0:0:0:0:
64,192,172545,1,0,0:0:0:0:
192,192,172609,1,0,0:0:0:0:
64,192,172695,1,0,0:0:0:0:
448,192,172695,1,0,0:0:0:0:
320,192,172695,1,0,0:0:0:0:
448,192,172845,1,0,0:0:0:0:
64,192,172866,1,0,0:0:0:0:
320,192,172957,1,0,0:0:0:0:
448,192,172995,1,0,0:0:0:0:
64,192,172995,1,0,0:0:0:0:
192,192,173045,1,0,0:0:0:0:
448,192,173145,1,0,0:0:0:0:
64,192,173145,1,0,0:0:0:0:
320,192,173182,1,0,0:0:0:0:
192,192,173295,1,0,0:0:0:0:
64,192,173295,1,0,0:0:0:0:
448,192,173307,1,0,0:0:0:0:
320,192,173320,1,0,0:0:0:0:
448,192,173445,1,0,0:0:0:0:
64,192,173445,1,0,0:0:0:0:
192,192,173466,1,0,0:0:0:0:
448,192,173595,1,0,0:0:0:0:
320,192,173595,1,0,0:0:0:0:
192,192,173637,1,0,0:0:0:0:
64,192,173707,1,0,0:0:0:0:
320,192,173745,1,0,0:0:0:0:
448,192,173809,1,0,0:0:0:0:
64,192,173870,1,0,0:0:0:0:
320,192,173895,1,0,0:0:0:0:
192,192,173895,1,0,0:0:0:0:
448,192,174045,1,0,0:0:0:0:
192,192,174045,1,0,0:0:0:0:
64,192,174045,1,0,0:0:0:0:
320,192,174195,1,0,0:0:0:0:
448,192,174195,1,0,0:0:0:0:
64,192,174228,1,0,0:0:0:0:
192,192,174295,1,0,0:0:0:0:
448,192,174366,1,0,0:0:0:0:
64,192,174395,1,0,0:0:0:0:
192,192,174495,1,0,0:0:0:0:
448,192,174495,1,0,0:0:0:0:
64,192,174520,1,0,0:0:0:0:
320,192,174537,1,0,0:0:0:0:
448,192,174645,1,0,0:0:0:0:
192,192,174645,1,0,0:0:0:0:
64,192,174795,1,0,0:0:0:0:
448,192,174795,1,0,0:0:0:0:
192,192,174795,1,0,0:0:0:0:
192,192,174945,1,0,0:0:0:0:
64,192,174945,1,0,0:0:0:0:
320,192,174945,1,0,0:0:0:0:
448,192,175095,1,0,0:0:0:0:
320,192,175095,1,0,0:0:0:0:
64,192,175095,1,0,0:0:0:0:
192,192,175245,1,0,0:0:0:0:
64,192,175245,1,0,0:0:0:0:
448,192,175266,1,0,0:0:0:0:
192,192,175395,1,0,0:0:0:0:
64,192,175428,1,0,0:0:0:0:
320,192,175437,1,0,0:0:0:0:
64,192,175545,1,0,0:0:0:0:
448,192,175545,1,0,0:0:0:0:
192,192,175578,1,0,0:0:0:0:
448,192,175695,1,0,0:0:0:0:
320,192,175695,1,0,0:0:0:0:
192,192,175695,1,0,0:0:0:0:
64,192,175728,1,0,0:0:0:0:
192,192,175845,1,0,0:0:0:0:
320,192,175878,1,0,0:0:0:0:
448,192,175895,1,0,0:0:0:0:
64,192,175995,1,0,0:0:0:0:
448,192,176045,1,0,0:0:0:0:
192,192,176055,1,0,0:0:0:0:
320,192,176115,1,0,0:0:0:0:
192,192,176175,1,0,0:0:0:0:
64,192,176220,1,0,0:0:0:0:
448,192,176270,1,0,0:0:0:0:
320,192,176295,1,0,0:0:0:0:
192,192,176380,1,0,0:0:0:0:
320,192,176423,1,0,0:0:0:0:
64,192,176445,1,0,0:0:0:0:
448,192,176466,1,0,0:0:0:0:
64,192,176595,1,0,0:0:0:0:
320,192,176595,1,0,0:0:0:0:
192,192,176628,1,0,0:0:0:0:
448,192,176745,1,0,0:0:0:0:
192,192,176745,1,0,0:0:0:0:
64,192,176778,1,0,0:0:0:0:
448,192,176895,1,0,0:0:0:0:
64,192,176895,1,0,0:0:0:0:
320,192,176920,1,0,0:0:0:0:
192,192,176928,5,0,0:0:0:0:
448,192,177045,1,0,0:0:0:0:
320,192,177066,1,0,0:0:0:0:
64,192,177078,1,0,0:0:0:0:
64,192,177195,1,0,0:0:0:0:
320,192,177213,1,0,0:0:0:0:
192,192,177255,1,0,0:0:0:0:
448,192,177315,1,0,0:0:0:0:
320,192,177405,1,0,0:0:0:0:
64,192,177495,1,0,0:0:0:0:
192,192,177495,1,0,0:0:0:0:
448,192,177495,1,0,0:0:0:0:
448,192,177645,1,0,0:0:0:0:
192,192,177666,1,0,0:0:0:0:
64,192,177795,1,0,0:0:0:0:
320,192,177795,1,0,0:0:0:0:
448,192,177837,1,0,0:0:0:0:
320,192,177945,1,0,0:0:0:0:
64,192,177961,1,0,0:0:0:0:
192,192,178028,1,0,0:0:0:0:
64,192,178095,1,0,0:0:0:0:
448,192,178095,1,0,0:0:0:0:
320,192,178095,1,0,0:0:0:0:
64,192,178245,1,0,0:0:0:0:
448,192,178266,1,0,0:0:0:0:
320,192,178395,1,0,0:0:0:0:
192,192,178437,1,0,0:0:0:0:
64,192,178504,1,0,0:0:0:0:
448,192,178545,1,0,0:0:0:0:
192,192,178612,1,0,0:0:0:0:
320,192,178695,1,0,0:0:0:0:
64,192,178695,1,0,0:0:0:0:
448,192,178762,1,0,0:0:0:0:
320,192,178845,1,0,0:0:0:0:
192,192,178866,1,0,0:0:0:0:
320,192,178995,1,0,0:0:0:0:
192,192,179028,1,0,0:0:0:0:
64,192,179037,1,0,0:0:0:0:
320,192,179145,1,0,0:0:0:0:
448,192,179175,1,0,0:0:0:0:
320,192,179295,1,0,0:0:0:0:
64,192,179295,1,0,0:0:0:0:
448,192,179295,1,0,0:0:0:0:
192,192,179320,1,0,0:0:0:0:
448,192,179445,1,0,0:0:0:0:
64,192,179466,1,0,0:0:0:0:
320,192,179561,1,0,0:0:0:0:
192,192,179595,1,0,0:0:0:0:
448,192,179655,1,0,0:0:0:0:
320,192,179723,1,0,0:0:0:0:
64,192,179745,1,0,0:0:0:0:
192,192,179809,1,0,0:0:0:0:
64,192,179895,1,0,0:0:0:0:
448,192,179895,1,0,0:0:0:0:
320,192,179895,1,0,0:0:0:0:
448,192,180045,1,0,0:0:0:0:
192,192,180045,1,0,0:0:0:0:
64,192,180066,1,0,0:0:0:0:
320,192,180162,1,0,0:0:0:0:
192,192,180237,1,0,0:0:0:0:
448,192,180255,1,0,0:0:0:0:
64,192,180345,1,0,0:0:0:0:
320,192,180375,1,0,0:0:0:0:
64,192,180495,1,0,0:0:0:0:
192,192,180495,1,0,0:0:0:0:
448,192,180495,1,0,0:0:0:0:
320,192,180532,1,0,0:0:0:0:
64,192,180645,1,0,0:0:0:0:
448,192,180645,1,0,0:0:0:0:
320,192,180761,1,0,0:0:0:0:
192,192,180795,1,0,0:0:0:0:
64,192,180828,1,0,0:0:0:0:
448,192,180855,1,0,0:0:0:0:
320,192,180923,1,0,0:0:0:0:
64,192,180945,1,0,0:0:0:0:
192,192,181009,1,0,0:0:0:0:
64,192,181095,1,0,0:0:0:0:
320,192,181095,1,0,0:0:0:0:
448,192,181095,1,0,0:0:0:0:
192,192,181245,1,0,0:0:0:0:
448,192,181245,1,0,0:0:0:0:
64,192,181265,1,0,0:0:0:0:
320,192,181361,1,0,0:0:0:0:
192,192,181436,1,0,0:0:0:0:
448,192,181454,1,0,0:0:0:0:
64,192,181545,1,0,0:0:0:0:
320,192,181574,1,0,0:0:0:0:
64,192,181695,1,0,0:0:0:0:
192,192,181695,1,0,0:0:0:0:
448,192,181695,1,0,0:0:0:0:
320,192,181745,1,0,0:0:0:0:
448,192,181845,1,0,0:0:0:0:
64,192,181845,1,0,0:0:0:0:
320,192,181961,1,0,0:0:0:0:
192,192,181995,1,0,0:0:0:0:
64,192,182028,1,0,0:0:0:0:
448,192,182055,1,0,0:0:0:0:
320,192,182123,1,0,0:0:0:0:
64,192,182145,1,0,0:0:0:0:
192,192,182209,1,0,0:0:0:0:
320,192,182295,1,0,0:0:0:0:
192,192,182329,1,0,0:0:0:0:
64,192,182361,1,0,0:0:0:0:
448,192,182388,1,0,0:0:0:0:
320,192,182457,1,0,0:0:0:0:
64,192,182479,1,0,0:0:0:0:
448,192,182515,1,0,0:0:0:0:
192,192,182579,1,0,0:0:0:0:
320,192,182628,1,0,0:0:0:0:
192,192,182703,1,0,0:0:0:0:
64,192,182721,1,0,0:0:0:0:
448,192,182811,1,0,0:0:0:0:
192,192,182841,1,0,0:0:0:0:
64,192,182895,1,0,0:0:0:0:
320,192,182895,1,0,0:0:0:0:
320,192,183028,1,0,0:0:0:0:
64,192,183045,1,0,0:0:0:0:
448,192,183045,1,0,0:0:0:0:
320,192,183161,1,0,0:0:0:0:
192,192,183195,1,0,0:0:0:0:
64,192,183228,1,0,0:0:0:0:
448,192,183255,1,0,0:0:0:0:
320,192,183323,1,0,0:0:0:0:
64,192,183345,1,0,0:0:0:0:
192,192,183409,1,0,0:0:0:0:
320,192,183495,1,0,0:0:0:0:
448,192,183495,1,0,0:0:0:0:
64,192,183495,1,0,0:0:0:0:
448,192,183645,1,0,0:0:0:0:
192,192,183645,1,0,0:0:0:0:
64,192,183665,1,0,0:0:0:0:
320,192,183761,1,0,0:0:0:0:
192,192,183836,1,0,0:0:0:0:
448,192,183854,1,0,0:0:0:0:
64,192,183945,1,0,0:0:0:0:
320,192,183974,1,0,0:0:0:0:
64,192,184095,1,0,0:0:0:0:
192,192,184095,1,0,0:0:0:0:
448,192,184095,1,0,0:0:0:0:
320,192,184161,1,0,0:0:0:0:
64,192,184245,1,0,0:0:0:0:
448,192,184266,1,0,0:0:0:0:
320,192,184361,1,0,0:0:0:0:
192,192,184395,1,0,0:0:0:0:
64,192,184428,1,0,0:0:0:0:
448,192,184455,1,0,0:0:0:0:
320,192,184523,1,0,0:0:0:0:
64,192,184545,1,0,0:0:0:0:
192,192,184609,1,0,0:0:0:0:
320,192,184695,1,0,0:0:0:0:
192,192,184729,1,0,0:0:0:0:
448,192,184788,1,0,0:0:0:0:
320,192,184857,1,0,0:0:0:0:
64,192,184879,1,0,0:0:0:0:
192,192,184943,1,0,0:0:0:0:
320,192,184995,1,0,0:0:0:0:
448,192,185028,1,0,0:0:0:0:
192,192,185055,1,0,0:0:0:0:
64,192,185121,1,0,0:0:0:0:
448,192,185145,1,0,0:0:0:0:
320,192,185182,1,0,0:0:0:0:
192,192,185241,1,0,0:0:0:0:
64,192,185295,1,0,0:0:0:0:
320,192,185295,1,0,0:0:0:0:
448,192,185328,1,0,0:0:0:0:
192,192,185445,1,0,0:0:0:0:
320,192,185478,1,0,0:0:0:0:
192,192,185595,1,0,0:0:0:0:
448,192,185628,1,0,0:0:0:0:
64,192,185655,1,0,0:0:0:0:
192,192,185707,1,0,0:0:0:0:
320,192,185782,1,0,0:0:0:0:
448,192,185820,1,0,0:0:0:0:
64,192,185870,1,0,0:0:0:0:
320,192,185895,1,0,0:0:0:0:
64,192,185980,1,0,0:0:0:0:
192,192,186023,1,0,0:0:0:0:
448,192,186066,1,0,0:0:0:0:
320,192,186195,1,0,0:0:0:0:
64,192,186206,1,0,0:0:0:0:
448,192,186237,1,0,0:0:0:0:
192,192,186345,1,0,0:0:0:0:
320,192,186345,1,0,0:0:0:0:
448,192,186378,1,0,0:0:0:0:
64,192,186495,1,0,0:0:0:0:
448,192,186495,1,0,0:0:0:0:
192,192,186513,1,0,0:0:0:0:
320,192,186528,1,0,0:0:0:0:
192,192,186645,1,0,0:0:0:0:
64,192,186645,1,0,0:0:0:0:
448,192,186678,1,0,0:0:0:0:
320,192,186795,1,0,0:0:0:0:
192,192,186795,1,0,0:0:0:0:
448,192,186855,1,0,0:0:0:0:
64,192,186915,1,0,0:0:0:0:
320,192,186945,1,0,0:0:0:0:
192,192,187005,1,0,0:0:0:0:
448,192,187095,1,0,0:0:0:0:
320,192,187095,1,0,0:0:0:0:
192,192,187161,1,0,0:0:0:0:
64,192,187261,1,0,0:0:0:0:
448,192,187266,1,0,0:0:0:0:
192,192,187361,1,0,0:0:0:0:
448,192,187395,1,0,0:0:0:0:
320,192,187437,1,0,0:0:0:0:
192,192,187545,1,0,0:0:0:0:
64,192,187545,1,0,0:0:0:0:
448,192,187609,1,0,0:0:0:0:
64,192,187695,1,0,0:0:0:0:
192,192,187695,1,0,0:0:0:0:
320,192,187695,1,0,0:0:0:0:
192,192,187845,1,0,0:0:0:0:
448,192,187845,1,0,0:0:0:0:
320,192,187995,1,0,0:0:0:0:
448,192,187995,1,0,0:0:0:0:
192,192,188037,1,0,0:0:0:0:
64,192,188104,1,0,0:0:0:0:
448,192,188145,1,0,0:0:0:0:
192,192,188212,1,0,0:0:0:0:
320,192,188295,1,0,0:0:0:0:
64,192,188295,1,0,0:0:0:0:
448,192,188362,1,0,0:0:0:0:
320,192,188445,1,0,0:0:0:0:
192,192,188466,1,0,0:0:0:0:
320,192,188595,1,0,0:0:0:0:
192,192,188628,1,0,0:0:0:0:
64,192,188637,1,0,0:0:0:0:
320,192,188745,1,0,0:0:0:0:
448,192,188775,1,0,0:0:0:0:
320,192,188895,1,0,0:0:0:0:
64,192,188895,1,0,0:0:0:0:
448,192,188895,1,0,0:0:0:0:
192,192,188920,1,0,0:0:0:0:
64,192,189045,1,0,0:0:0:0:
448,192,189066,1,0,0:0:0:0:
192,192,189162,1,0,0:0:0:0:
320,192,189195,1,0,0:0:0:0:
448,192,189255,1,0,0:0:0:0:
320,192,189323,1,0,0:0:0:0:
64,192,189345,1,0,0:0:0:0:
192,192,189409,1,0,0:0:0:0:
64,192,189495,1,0,0:0:0:0:
448,192,189495,1,0,0:0:0:0:
320,192,189495,1,0,0:0:0:0:
448,192,189645,1,0,0:0:0:0:
192,192,189645,1,0,0:0:0:0:
64,192,189666,1,0,0:0:0:0:
320,192,189762,1,0,0:0:0:0:
192,192,189837,1,0,0:0:0:0:
448,192,189855,1,0,0:0:0:0:
64,192,189945,1,0,0:0:0:0:
320,192,189975,1,0,0:0:0:0:
64,192,190095,1,0,0:0:0:0:
192,192,190095,1,0,0:0:0:0:
448,192,190095,1,0,0:0:0:0:
320,192,190132,1,0,0:0:0:0:
64,192,190245,1,0,0:0:0:0:
448,192,190245,1,0,0:0:0:0:
192,192,190361,1,0,0:0:0:0:
320,192,190395,1,0,0:0:0:0:
448,192,190454,1,0,0:0:0:0:
320,192,190522,1,0,0:0:0:0:
64,192,190545,1,0,0:0:0:0:
192,192,190608,1,0,0:0:0:0:
64,192,190695,1,0,0:0:0:0:
320,192,190695,1,0,0:0:0:0:
448,192,190695,1,0,0:0:0:0:
192,192,190845,1,0,0:0:0:0:
448,192,190845,1,0,0:0:0:0:
64,192,190865,1,0,0:0:0:0:
320,192,190961,1,0,0:0:0:0:
192,192,191036,1,0,0:0:0:0:
448,192,191054,1,0,0:0:0:0:
64,192,191145,1,0,0:0:0:0:
320,192,191174,1,0,0:0:0:0:
64,192,191295,1,0,0:0:0:0:
192,192,191295,1,0,0:0:0:0:
448,192,191295,1,0,0:0:0:0:
320,192,191345,1,0,0:0:0:0:
448,192,191445,1,0,0:0:0:0:
64,192,191445,1,0,0:0:0:0:
192,192,191561,1,0,0:0:0:0:
320,192,191595,1,0,0:0:0:0:
448,192,191654,1,0,0:0:0:0:
320,192,191722,1,0,0:0:0:0:
64,192,191745,1,0,0:0:0:0:
192,192,191808,1,0,0:0:0:0:
320,192,191895,1,0,0:0:0:0:
448,192,191895,1,0,0:0:0:0:
64,192,191895,1,0,0:0:0:0:
64,192,192026,1,0,0:0:0:0:
192,192,192045,1,0,0:0:0:0:
448,192,192045,1,0,0:0:0:0:
320,192,192161,1,0,0:0:0:0:
64,192,192195,1,0,0:0:0:0:
192,192,192236,1,0,0:0:0:0:
448,192,192254,1,0,0:0:0:0:
64,192,192345,1,0,0:0:0:0:
320,192,192374,1,0,0:0:0:0:
320,192,192495,1,0,0:0:0:0:
192,192,192495,1,0,0:0:0:0:
448,192,192495,1,0,0:0:0:0:
64,192,192645,1,0,0:0:0:0:
448,192,192645,1,0,0:0:0:0:
192,192,192645,1,0,0:0:0:0:
448,192,192795,1,0,0:0:0:0:
320,192,192795,1,0,0:0:0:0:
192,192,192820,1,0,0:0:0:0:
448,192,192945,1,0,0:0:0:0:
320,192,192945,1,0,0:0:0:0:
64,192,192961,1,0,0:0:0:0:
448,192,193095,1,0,0:0:0:0:
320,192,193095,1,0,0:0:0:0:
64,192,193116,1,0,0:0:0:0:
192,192,193182,1,0,0:0:0:0:
320,192,193249,1,0,0:0:0:0:
64,192,193287,1,0,0:0:0:0:
448,192,193395,1,0,0:0:0:0:
192,192,193395,1,0,0:0:0:0:
64,192,193461,1,0,0:0:0:0:
320,192,193515,1,0,0:0:0:0:
192,192,193566,1,0,0:0:0:0:
448,192,193695,1,0,0:0:0:0:
320,192,193695,1,0,0:0:0:0:
192,192,193720,1,0,0:0:0:0:
320,192,193845,1,0,0:0:0:0:
448,192,193845,1,0,0:0:0:0:
64,192,193861,1,0,0:0:0:0:
192,192,193961,1,0,0:0:0:0:
320,192,193995,1,0,0:0:0:0:
448,192,194054,1,0,0:0:0:0:
320,192,194122,1,0,0:0:0:0:
64,192,194145,1,0,0:0:0:0:
192,192,194208,1,0,0:0:0:0:
320,192,194295,1,0,0:0:0:0:
448,192,194332,1,0,0:0:0:0:
192,192,194365,1,0,0:0:0:0:
64,192,194426,1,0,0:0:0:0:
192,192,194493,1,0,0:0:0:0:
448,192,194515,1,0,0:0:0:0:
320,192,194595,1,0,0:0:0:0:
448,192,194628,1,0,0:0:0:0:
192,192,194655,1,0,0:0:0:0:
64,192,194720,1,0,0:0:0:0:
448,192,194745,1,0,0:0:0:0:
320,192,194782,1,0,0:0:0:0:
192,192,194841,1,0,0:0:0:0:
64,192,194895,1,0,0:0:0:0:
320,192,194895,1,0,0:0:0:0:
448,192,194928,1,0,0:0:0:0:
192,192,195045,1,0,0:0:0:0:
320,192,195078,1,0,0:0:0:0:
448,192,195195,1,0,0:0:0:0:
192,192,195195,1,0,0:0:0:0:
64,192,195255,1,0,0:0:0:0:
320,192,195323,1,0,0:0:0:0:
192,192,195409,1,0,0:0:0:0:
448,192,195420,1,0,0:0:0:0:
64,192,195470,1,0,0:0:0:0:
320,192,195495,1,0,0:0:0:0:
64,192,195580,1,0,0:0:0:0:
192,192,195623,1,0,0:0:0:0:
448,192,195666,1,0,0:0:0:0:
320,192,195795,1,0,0:0:0:0:
64,192,195806,1,0,0:0:0:0:
448,192,195837,1,0,0:0:0:0:
320,192,195915,1,0,0:0:0:0:
192,192,195945,1,0,0:0:0:0:
448,192,195978,1,0,0:0:0:0:
64,192,196095,1,0,0:0:0:0:
448,192,196095,1,0,0:0:0:0:
192,192,196113,1,0,0:0:0:0:
320,192,196128,1,0,0:0:0:0:
192,192,196245,1,0,0:0:0:0:
64,192,196245,1,0,0:0:0:0:
448,192,196278,1,0,0:0:0:0:
320,192,196395,1,0,0:0:0:0:
192,192,196395,1,0,0:0:0:0:
448,192,196455,1,0,0:0:0:0:
64,192,196515,1,0,0:0:0:0:
320,192,196545,1,0,0:0:0:0:
192,192,196605,1,0,0:0:0:0:
448,192,196695,1,0,0:0:0:0:
320,192,196695,1,0,0:0:0:0:
192,192,196761,1,0,0:0:0:0:
448,192,196845,1,0,0:0:0:0:
64,192,196845,1,0,0:0:0:0:
64,192,196995,1,0,0:0:0:0:
448,192,196995,1,0,0:0:0:0:
320,192,196995,1,0,0:0:0:0:
192,192,197145,1,0,0:0:0:0:
64,192,197145,1,0,0:0:0:0:
320,192,197145,1,0,0:0:0:0:
64,192,197295,1,0,0:0:0:0:
192,192,197295,1,0,0:0:0:0:
320,192,197295,1,0,0:0:0:0:
448,192,197295,1,0,0:0:0:0:
192,192,197445,1,0,0:0:0:0:
448,192,197445,1,0,0:0:0:0:
192,192,197595,1,0,0:0:0:0:
448,192,197595,1,0,0:0:0:0:
320,192,197595,1,0,0:0:0:0:
320,192,197745,1,0,0:0:0:0:
448,192,197745,1,0,0:0:0:0:
64,192,197745,1,0,0:0:0:0:
192,192,197895,1,0,0:0:0:0:
64,192,197895,1,0,0:0:0:0:
320,192,197895,1,0,0:0:0:0:
448,192,198045,1,0,0:0:0:0:
192,192,198045,1,0,0:0:0:0:
320,192,198045,1,0,0:0:0:0:
448,192,198195,1,0,0:0:0:0:
192,192,198195,1,0,0:0:0:0:
64,192,198195,1,0,0:0:0:0:
320,192,198345,1,0,0:0:0:0:
448,192,198345,1,0,0:0:0:0:
192,192,198495,1,0,0:0:0:0:
64,192,198495,1,0,0:0:0:0:
320,192,198495,1,0,0:0:0:0:
448,192,198495,1,0,0:0:0:0:
192,192,198645,1,0,0:0:0:0:
448,192,198645,1,0,0:0:0:0:
448,192,198795,1,0,0:0:0:0:
64,192,198795,1,0,0:0:0:0:
320,192,198795,1,0,0:0:0:0:
448,192,198945,1,0,0:0:0:0:
64,192,198945,1,0,0:0:0:0:
64,192,199095,1,0,0:0:0:0:
320,192,199095,1,0,0:0:0:0:
192,192,199095,1,0,0:0:0:0:
192,192,199245,1,0,0:0:0:0:
448,192,199245,1,0,0:0:0:0:
64,192,199395,1,0,0:0:0:0:
192,192,199395,1,0,0:0:0:0:
448,192,199395,1,0,0:0:0:0:
448,192,199545,1,0,0:0:0:0:
64,192,199545,1,0,0:0:0:0:
320,192,199545,1,0,0:0:0:0:
192,192,199695,1,0,0:0:0:0:
320,192,199695,1,0,0:0:0:0:
448,192,199695,1,0,0:0:0:0:
64,192,199695,1,0,0:0:0:0:
192,192,199845,1,0,0:0:0:0:
64,192,199845,1,0,0:0:0:0:
320,192,199995,1,0,0:0:0:0:
192,192,199995,1,0,0:0:0:0:
448,192,199995,1,0,0:0:0:0:
192,192,200145,1,0,0:0:0:0:
320,192,200145,1,0,0:0:0:0:
64,192,200295,1,0,0:0:0:0:
320,192,200295,1,0,0:0:0:0:
448,192,200295,1,0,0:0:0:0:
192,192,200445,1,0,0:0:0:0:
448,192,200445,1,0,0:0:0:0:
64,192,200445,1,0,0:0:0:0:
192,192,200595,1,0,0:0:0:0:
64,192,200595,1,0,0:0:0:0:
320,192,200595,1,0,0:0:0:0:
64,192,200745,1,0,0:0:0:0:
192,192,200745,1,0,0:0:0:0:
448,192,200895,1,0,0:0:0:0:
64,192,200895,1,0,0:0:0:0:
320,192,200895,1,0,0:0:0:0:
192,192,200895,1,0,0:0:0:0:
448,192,201045,1,0,0:0:0:0:
320,192,201045,1,0,0:0:0:0:
448,192,201195,1,0,0:0:0:0:
64,192,201195,1,0,0:0:0:0:
192,192,201195,1,0,0:0:0:0:
448,192,201345,1,0,0:0:0:0:
192,192,201345,1,0,0:0:0:0:
64,192,201495,1,0,0:0:0:0:
448,192,201495,1,0,0:0:0:0:
320,192,201495,1,0,0:0:0:0:
64,192,201645,1,0,0:0:0:0:
192,192,201645,1,0,0:0:0:0:
64,192,201795,1,0,0:0:0:0:
320,192,201795,1,0,0:0:0:0:
64,192,201945,1,0,0:0:0:0:
448,192,201945,1,0,0:0:0:0:
320,192,201945,1,0,0:0:0:0:
64,192,202095,1,0,0:0:0:0:
192,192,202095,1,0,0:0:0:0:
448,192,202095,1,0,0:0:0:0:
320,192,202095,1,0,0:0:0:0:
448,192,202245,1,0,0:0:0:0:
64,192,202245,1,0,0:0:0:0:
320,192,202245,1,0,0:0:0:0:
64,192,202395,1,0,0:0:0:0:
192,192,202395,1,0,0:0:0:0:
64,192,202545,1,0,0:0:0:0:
320,192,202545,1,0,0:0:0:0:
448,192,202545,1,0,0:0:0:0:
320,192,202695,1,0,0:0:0:0:
448,192,202695,1,0,0:0:0:0:
192,192,202695,1,0,0:0:0:0:
64,192,202845,1,0,0:0:0:0:
320,192,202845,1,0,0:0:0:0:
192,192,202845,1,0,0:0:0:0:
64,192,202995,1,0,0:0:0:0:
192,192,202995,1,0,0:0:0:0:
448,192,202995,1,0,0:0:0:0:
64,192,203145,1,0,0:0:0:0:
320,192,203145,1,0,0:0:0:0:
448,192,203145,1,0,0:0:0:0:
192,192,203295,1,0,0:0:0:0:
320,192,203295,1,0,0:0:0:0:
448,192,203295,1,0,0:0:0:0:
64,192,203295,1,0,0:0:0:0:
64,192,203445,1,0,0:0:0:0:
448,192,203445,1,0,0:0:0:0:
64,192,203595,1,0,0:0:0:0:
448,192,203595,1,0,0:0:0:0:
320,192,203595,1,0,0:0:0:0:
64,192,203745,1,0,0:0:0:0:
192,192,203745,1,0,0:0:0:0:
448,192,203745,1,0,0:0:0:0:
192,192,203895,1,0,0:0:0:0:
320,192,203895,1,0,0:0:0:0:
448,192,203895,1,0,0:0:0:0:
64,192,204045,1,0,0:0:0:0:
320,192,204045,1,0,0:0:0:0:
64,192,204195,1,0,0:0:0:0:
320,192,204195,1,0,0:0:0:0:
448,192,204228,1,0,0:0:0:0:
448,192,204345,1,0,0:0:0:0:
192,192,204345,1,0,0:0:0:0:
320,192,204378,1,0,0:0:0:0:
64,192,204495,1,0,0:0:0:0:
320,192,204495,1,0,0:0:0:0:
192,192,204495,1,0,0:0:0:0:
448,192,204528,1,0,0:0:0:0:
192,192,204645,1,0,0:0:0:0:
320,192,204678,1,0,0:0:0:0:
448,192,204795,1,0,0:0:0:0:
192,192,204795,1,0,0:0:0:0:
64,192,204855,1,0,0:0:0:0:
320,192,204915,1,0,0:0:0:0:
192,192,204975,1,0,0:0:0:0:
448,192,205020,1,0,0:0:0:0:
64,192,205070,1,0,0:0:0:0:
320,192,205095,1,0,0:0:0:0:
64,192,205180,1,0,0:0:0:0:
192,192,205223,1,0,0:0:0:0:
448,192,205266,1,0,0:0:0:0:
320,192,205395,1,0,0:0:0:0:
64,192,205406,1,0,0:0:0:0:
448,192,205437,1,0,0:0:0:0:
192,192,205545,1,0,0:0:0:0:
320,192,205545,1,0,0:0:0:0:
448,192,205578,1,0,0:0:0:0:
64,192,205695,1,0,0:0:0:0:
448,192,205695,1,0,0:0:0:0:
192,192,205713,1,0,0:0:0:0:
320,192,205728,1,0,0:0:0:0:
64,192,205845,1,0,0:0:0:0:
192,192,205845,1,0,0:0:0:0:
448,192,205878,1,0,0:0:0:0:
64,192,205995,1,0,0:0:0:0:
448,192,205995,1,0,0:0:0:0:
320,192,206055,1,0,0:0:0:0:
64,192,206115,1,0,0:0:0:0:
192,192,206205,1,0,0:0:0:0:
320,192,206295,1,0,0:0:0:0:
448,192,206295,1,0,0:0:0:0:
192,192,206445,1,0,0:0:0:0:
320,192,206445,1,0,0:0:0:0:
448,192,206445,1,0,0:0:0:0:
64,192,206595,1,0,0:0:0:0:
192,192,206595,1,0,0:0:0:0:
448,192,206595,1,0,0:0:0:0:
192,192,206745,1,0,0:0:0:0:
320,192,206745,1,0,0:0:0:0:
64,192,206745,1,0,0:0:0:0:
64,192,206895,1,0,0:0:0:0:
192,192,206895,1,0,0:0:0:0:
320,192,206895,1,0,0:0:0:0:
448,192,206895,1,0,0:0:0:0:
448,192,207045,1,0,0:0:0:0:
64,192,207045,1,0,0:0:0:0:
448,192,207195,1,0,0:0:0:0:
192,192,207195,1,0,0:0:0:0:
320,192,207195,1,0,0:0:0:0:
448,192,207345,1,0,0:0:0:0:
320,192,207345,1,0,0:0:0:0:
320,192,207495,1,0,0:0:0:0:
192,192,207495,1,0,0:0:0:0:
64,192,207495,1,0,0:0:0:0:
448,192,207645,1,0,0:0:0:0:
64,192,207645,1,0,0:0:0:0:
192,192,207645,1,0,0:0:0:0:
448,192,207795,1,0,0:0:0:0:
192,192,207795,1,0,0:0:0:0:
448,192,207945,1,0,0:0:0:0:
64,192,207945,1,0,0:0:0:0:
320,192,207945,1,0,0:0:0:0:
64,192,208095,1,0,0:0:0:0:
192,192,208095,1,0,0:0:0:0:
320,192,208095,1,0,0:0:0:0:
448,192,208095,1,0,0:0:0:0:
448,192,208245,1,0,0:0:0:0:
192,192,208245,1,0,0:0:0:0:
448,192,208395,1,0,0:0:0:0:
64,192,208395,1,0,0:0:0:0:
448,192,208545,1,0,0:0:0:0:
64,192,208545,1,0,0:0:0:0:
320,192,208695,1,0,0:0:0:0:
64,192,208695,1,0,0:0:0:0:
448,192,208695,1,0,0:0:0:0:
192,192,208845,1,0,0:0:0:0:
320,192,208845,1,0,0:0:0:0:
192,192,208995,1,0,0:0:0:0:
448,192,208995,1,0,0:0:0:0:
320,192,208995,1,0,0:0:0:0:
192,192,209145,1,0,0:0:0:0:
448,192,209145,1,0,0:0:0:0:
64,192,209145,1,0,0:0:0:0:
64,192,209295,1,0,0:0:0:0:
192,192,209295,1,0,0:0:0:0:
320,192,209295,1,0,0:0:0:0:
448,192,209295,1,0,0:0:0:0:
192,192,209445,1,0,0:0:0:0:
448,192,209445,1,0,0:0:0:0:
192,192,209595,1,0,0:0:0:0:
320,192,209595,1,0,0:0:0:0:
64,192,209595,1,0,0:0:0:0:
192,192,209745,1,0,0:0:0:0:
448,192,209745,1,0,0:0:0:0:
64,192,209895,1,0,0:0:0:0:
448,192,209895,1,0,0:0:0:0:
320,192,209895,1,0,0:0:0:0:
192,192,210045,1,0,0:0:0:0:
320,192,210045,1,0,0:0:0:0:
64,192,210045,1,0,0:0:0:0:
192,192,210195,1,0,0:0:0:0:
448,192,210195,1,0,0:0:0:0:
320,192,210195,1,0,0:0:0:0:
192,192,210345,1,0,0:0:0:0:
448,192,210345,1,0,0:0:0:0:
64,192,210495,1,0,0:0:0:0:
320,192,210495,1,0,0:0:0:0:
448,192,210495,1,0,0:0:0:0:
192,192,210495,1,0,0:0:0:0:
192,192,210645,1,0,0:0:0:0:
320,192,210645,1,0,0:0:0:0:
192,192,210795,1,0,0:0:0:0:
64,192,210795,1,0,0:0:0:0:
192,192,210945,1,0,0:0:0:0:
320,192,210945,1,0,0:0:0:0:
192,192,211095,1,0,0:0:0:0:
64,192,211095,1,0,0:0:0:0:
448,192,211095,1,0,0:0:0:0:
320,192,211245,1,0,0:0:0:0:
448,192,211245,1,0,0:0:0:0:
320,192,211395,1,0,0:0:0:0:
448,192,211395,1,0,0:0:0:0:
192,192,211395,1,0,0:0:0:0:
320,192,211545,1,0,0:0:0:0:
448,192,211545,1,0,0:0:0:0:
64,192,211545,1,0,0:0:0:0:
64,192,211695,1,0,0:0:0:0:
192,192,211695,1,0,0:0:0:0:
448,192,211695,1,0,0:0:0:0:
320,192,211695,1,0,0:0:0:0:
64,192,211845,1,0,0:0:0:0:
192,192,211845,1,0,0:0:0:0:
320,192,211845,1,0,0:0:0:0:
64,192,211995,1,0,0:0:0:0:
192,192,211995,1,0,0:0:0:0:
448,192,211995,1,0,0:0:0:0:
448,192,212145,1,0,0:0:0:0:
64,192,212145,1,0,0:0:0:0:
320,192,212295,1,0,0:0:0:0:
448,192,212295,1,0,0:0:0:0:
64,192,212295,1,0,0:0:0:0:
320,192,212445,1,0,0:0:0:0:
192,192,212445,1,0,0:0:0:0:
448,192,212445,1,0,0:0:0:0:
192,192,212595,1,0,0:0:0:0:
320,192,212595,1,0,0:0:0:0:
448,192,212595,1,0,0:0:0:0:
64,192,212745,1,0,0:0:0:0:
192,192,212745,1,0,0:0:0:0:
448,192,212745,1,0,0:0:0:0:
192,192,212895,1,0,0:0:0:0:
64,192,212895,1,0,0:0:0:0:
320,192,212895,1,0,0:0:0:0:
448,192,212895,1,0,0:0:0:0:
192,192,213045,1,0,0:0:0:0:
64,192,213045,1,0,0:0:0:0:
320,192,213195,1,0,0:0:0:0:
192,192,213195,1,0,0:0:0:0:
64,192,213195,1,0,0:0:0:0:
64,192,213345,1,0,0:0:0:0:
320,192,213345,1,0,0:0:0:0:
448,192,213345,1,0,0:0:0:0:
64,192,213495,1,0,0:0:0:0:
448,192,213495,1,0,0:0:0:0:
192,192,213513,1,0,0:0:0:0:
320,192,213532,1,0,0:0:0:0:
64,192,213645,1,0,0:0:0:0:
192,192,213663,1,0,0:0:0:0:
320,192,213795,1,0,0:0:0:0:
64,192,213795,1,0,0:0:0:0:
448,192,213828,1,0,0:0:0:0:
192,192,213945,1,0,0:0:0:0:
448,192,213945,1,0,0:0:0:0:
320,192,213978,1,0,0:0:0:0:
192,192,214095,1,0,0:0:0:0:
320,192,214095,1,0,0:0:0:0:
64,192,214095,1,0,0:0:0:0:
448,192,214128,1,0,0:0:0:0:
192,192,214245,1,0,0:0:0:0:
320,192,214320,1,0,0:0:0:0:
192,192,214395,1,0,0:0:0:0:
448,192,214395,128,0,215245:0:0:0:0:
64,192,214455,1,0,0:0:0:0:
320,192,214515,1,0,0:0:0:0:
192,192,214575,1,0,0:0:0:0:
64,192,214670,1,0,0:0:0:0:
320,192,214695,1,0,0:0:0:0:
192,192,214761,1,0,0:0:0:0:
320,192,214845,128,0,215145:0:0:0:0:
64,192,214861,1,0,0:0:0:0:
192,192,214994,128,0,215337:0:0:0:0:
64,192,215020,128,0,215595:0:0:0:0:
