osu file format v14

[General]
AudioFilename: audio.mp3
AudioLeadIn: 0
PreviewTime: 169378
Countdown: 0
SampleSet: Soft
StackLeniency: 0.7
Mode: 0
LetterboxInBreaks: 0
WidescreenStoryboard: 0

[Editor]
Bookmarks: 13886,27407,54449,81491,95012,115294,142336,169378,182900,209942,230224
DistanceSpacing: 1.9
BeatDivisor: 4
GridSize: 4
TimelineZoom: 1

[Metadata]
Title:Ryumka vodki na stole
TitleUnicode:Рюмка водки на столе
Artist:Grigory Leps
ArtistUnicode:Григорий Лепс
Creator:Myah
Version:Toska
Source:
Tags:Grigoriy A glass of vodka on the table tolko tol'ko rumka riffy collab myahkey godsenger froskya revialink russian pop chanson шансон только На струнах дождя Na strunah dozhdya
BeatmapID:4031530
BeatmapSetID:1948021

[Difficulty]
HPDrainRate:5
CircleSize:4
OverallDifficulty:7
ApproachRate:7
SliderMultiplier:1.8
SliderTickRate:1

[Events]
//Background and Video events
0,0,"911-transformed.jpeg",0,0
//Break Periods
//Storyboard Layer 0 (Background)
//Storyboard Layer 1 (Fail)
//Storyboard Layer 2 (Pass)
//Storyboard Layer 3 (Foreground)
//Storyboard Layer 4 (Overlay)
//Storyboard Sound Samples

[TimingPoints]
13886,845.070422535211,4,2,1,70,1,0
27407,-133.333333333333,4,2,1,50,0,0
41773,-117.647058823529,4,2,1,50,0,0
49378,-133.333333333333,4,2,1,50,0,0
54449,-117.647058823529,4,2,1,60,0,0
81491,-83.3333333333333,4,2,1,80,0,0
115294,-100,4,2,1,60,0,0
129660,-86.9565217391304,4,2,1,65,0,0
142336,-100,4,2,1,60,0,0
169378,-74.0740740740741,4,2,1,80,0,0
182900,-80,4,2,1,80,0,0
209942,-68.9655172413793,4,2,1,90,0,0
226421,-125,4,2,1,90,0,0

[Colours]
Combo1 : 174,91,98
Combo2 : 112,112,201
Combo3 : 138,171,101

[HitObjects]
96,242,13886,6,0,P|171:261|248:285,1,135,6|0,1:1|0:0,0:0:0:0:
346,200,14731,2,0,P|338:155|273:149,1,90,10|0,0:1|0:0,0:0:0:0:
313,292,15364,1,0,1:0:0:0:
364,362,15576,1,0,1:0:0:0:
390,120,15998,1,0,1:0:0:0:
127,217,16421,2,0,P|51:207|2:204,1,90,8|0,0:1|0:0,0:0:0:0:
197,269,17055,1,0,1:0:0:0:
267,179,17266,6,0,P|257:145|252:126,1,45,6|0,1:2|0:0,0:0:0:0:
261,130,18111,1,10,0:1:0:0:
351,351,18533,1,2,0:1:0:0:
254,308,18745,2,0,P|224:313|147:346,2,90,2|2|2,1:1|0:1|0:1,0:1:0:0:
83,265,19801,1,8,0:1:0:0:
188,191,20012,1,8,0:3:0:0:
310,230,20224,1,4,0:3:0:0:
385,184,20435,1,0,1:0:0:0:
472,214,20646,6,0,P|486:147|518:19,1,180,4|8,1:2|0:1,0:0:0:0:
508,30,21702,2,0,P|478:52|456:70,1,45,2|0,0:1|0:1,0:0:0:0:
332,33,22125,1,2,1:1:0:0:
393,135,22336,2,0,P|384:174|379:202,1,45,2|0,1:0|0:1,0:0:0:0:
319,250,22759,2,0,P|336:292|345:318,1,45,2|2,1:0|0:1,0:0:0:0:
368,369,23181,1,8,0:1:0:0:
372,364,23604,1,0,0:0:0:0:
84,347,24026,6,0,B|44:259|158:280|91:155,1,180,4|8,1:2|0:1,0:0:0:0:
59,31,25294,1,0,1:0:0:0:
51,38,25505,1,0,1:1:0:0:
46,58,25716,1,4,1:2:0:0:
150,124,26139,1,0,1:0:0:0:
187,114,26350,1,0,0:1:0:0:
265,121,26562,2,0,P|304:142|321:155,1,45,8|8,0:1|0:3,0:0:0:0:
339,223,26984,1,4,0:3:0:0:
339,223,27407,6,0,P|346:179|419:149,1,101.250003862381,4|0,1:2|0:0,0:0:0:0:
466,143,28252,1,0,0:0:0:0:
466,143,28674,2,0,L|475:232,1,67.5000025749208,2|2,0:0|0:0,0:0:0:0:
422,263,29308,2,0,L|416:319,2,33.7500012874604
466,360,30364,1,2,0:0:0:0:
466,360,30787,6,0,L|344:348,1,101.250003862381,2|0,0:0|0:0,0:0:0:0:
314,297,31632,1,0,0:0:0:0:
305,299,31843,1,0,0:0:0:0:
296,304,32055,2,0,L|174:292,2,101.250003862381,2|2|2,0:0|0:0|0:0,0:0:0:0:
351,253,33533,1,2,0:0:0:0:
306,191,33745,1,2,0:0:0:0:
311,185,33956,1,2,0:0:0:0:
315,182,34167,6,0,P|309:130|252:134,1,101.250003862381,2|0,0:0|0:0,0:0:0:0:
202,90,35012,1,0,0:0:0:0:
196,95,35224,1,0,0:0:0:0:
191,100,35435,2,0,L|105:109,1,67.5000025749208,2|2,0:0|0:0,0:0:0:0:
73,166,36069,1,0,0:0:0:0:
75,173,36280,2,0,L|84:229,1,33.7500012874604,2|0,0:0|0:0,0:0:0:0:
143,249,36702,2,0,L|134:305,1,33.7500012874604,2|0,0:0|0:0,0:0:0:0:
124,355,37125,2,0,L|212:370,1,67.5000025749208,2|2,0:0|0:0,0:0:0:0:
304,377,38181,5,0,0:0:0:0:
300,372,38393,2,0,L|317:280,1,67.5000025749208,2|0,0:0|0:0,0:0:0:0:
276,241,39026,2,0,P|298:214|341:224,1,67.5000025749208,2|0,0:0|0:0,0:0:0:0:
430,249,39871,1,2,0:0:0:0:
400,177,40083,1,2,0:0:0:0:
458,124,40294,1,2,0:0:0:0:
454,117,40505,1,2,0:0:0:0:
450,110,40716,1,2,0:0:0:0:
445,102,40928,6,0,L|336:88,1,101.250003862381,2|0,0:0|0:0,0:0:0:0:
289,41,41773,2,0,P|256:46|233:111,1,76.5000014591217,2|0,0:0|0:0,0:0:0:0:
174,128,42407,2,0,L|195:238,1,76.5000014591217,2|0,0:0|0:0,0:0:0:0:
206,289,43252,1,0,0:0:0:0:
210,283,43463,2,0,L|102:296,1,76.5000014591217,2|0,0:0|0:0,0:0:0:0:
81,237,44097,1,2,0:0:0:0:
84,230,44308,2,0,P|123:279|67:343,1,153.000002918243
80,348,45576,5,2,0:0:0:0:
26,292,45787,1,2,0:0:0:0:
90,246,45998,2,0,L|194:267,1,76.5000014591217,2|0,0:0|0:0,0:0:0:0:
204,331,46632,2,0,L|345:320,1,114.750002188683,2|0,0:0|0:0,0:0:0:0:
464,310,47688,1,2,0:0:0:0:
417,246,48322,1,0,0:0:0:0:
421,236,48533,1,0,0:0:0:0:
424,228,48745,1,0,0:0:0:0:
377,170,48956,5,0,0:0:0:0:
375,161,49167,1,0,0:0:0:0:
371,151,49378,2,0,L|380:89,2,45.0000017166138,2|0|0,0:0|0:0|0:0,0:0:0:0:
317,202,50224,1,0,0:0:0:0:
321,208,50435,2,0,L|191:223,2,101.250003862381,0|2|0,0:0|0:0|0:0,0:0:0:0:
382,255,51914,5,0,0:0:0:0:
381,263,52125,1,0,0:0:0:0:
379,272,52336,1,0,0:0:0:0:
378,280,52547,1,0,0:0:0:0:
419,343,52759,2,0,B|277:286|327:392|175:331,1,236.250009012223,2|0,0:0|0:0,0:0:0:0:
152,272,54449,6,0,P|101:257|42:288,1,114.750002188683,4|0,1:2|0:0,0:0:0:0:
56,358,55294,1,8,0:1:0:0:
202,328,55716,1,0,1:0:0:0:
112,174,56139,2,0,P|126:131|147:89,1,76.5000014591217,0|0,1:0|0:0,0:0:0:0:
116,30,56773,1,0,0:0:0:0:
109,34,56984,2,0,P|79:24|50:22,2,38.2500007295609,8|0|0,0:1|0:0|0:0,0:0:0:0:
273,66,57829,6,0,P|343:40|403:25,1,114.750002188683,0|0,1:2|0:0,0:0:0:0:
469,79,58674,1,8,0:1:0:0:
474,71,58885,1,0,0:0:0:0:
389,120,59097,2,0,P|404:170|412:205,1,76.5000014591217,2|0,1:2|1:0,0:0:0:0:
482,275,59731,1,0,0:0:0:0:
452,287,59942,1,0,0:0:0:0:
411,320,60153,1,0,0:0:0:0:
371,383,60364,2,0,P|417:373|433:370,1,38.2500007295609,8|0,0:1|0:0,0:0:0:0:
500,378,60787,1,0,0:0:0:0:
499,368,61209,6,0,P|455:350|357:328,1,114.750002188683,0|0,1:2|0:0,0:0:0:0:
312,370,62055,1,8,0:1:0:0:
316,363,62266,1,0,0:0:0:0:
234,317,62477,2,0,P|194:335|184:340,1,38.2500007295609,0|0,1:0|0:0,0:0:0:0:
101,367,62900,1,0,1:0:0:0:
82,322,63111,1,0,0:0:0:0:
64,306,63322,1,0,0:0:0:0:
48,301,63533,1,0,0:0:0:0:
35,302,63745,2,0,P|46:324|55:349,1,38.2500007295609,8|0,0:1|0:0,0:0:0:0:
99,217,64167,1,0,0:0:0:0:
106,227,64378,1,0,0:0:0:0:
47,144,64590,6,0,B|66:82|17:97|38:21,1,114.750002188683,0|0,1:0|0:0,0:0:0:0:
116,10,65435,2,0,P|121:28|114:52,1,38.2500007295609,8|0,0:1|0:0,0:0:0:0:
28,147,65857,1,2,1:2:0:0:
26,138,66280,1,0,1:0:0:0:
70,163,66491,1,0,0:0:0:0:
108,226,66702,1,0,0:0:0:0:
124,310,66914,1,0,0:0:0:0:
86,384,67125,1,8,0:1:0:0:
81,375,67336,1,0,0:0:0:0:
7,344,67547,2,0,P|6:319|14:279,1,38.2500007295609
49,224,67970,6,0,P|110:210|175:180,1,114.750002188683,0|0,1:2|0:0,0:0:0:0:
200,119,68815,1,8,0:1:0:0:
234,267,69238,1,2,1:2:0:0:
345,360,69660,1,2,1:2:0:0:
331,325,70083,2,0,P|365:290|378:279,1,38.2500007295609
494,289,70505,1,8,0:1:0:0:
435,132,70716,2,0,P|423:183|415:232,1,76.5000014591217
437,358,71350,5,0,1:2:0:0:
434,367,71773,1,0,0:0:0:0:
493,298,71984,1,0,0:0:0:0:
424,199,72195,1,8,0:1:0:0:
426,205,72618,2,0,P|415:163|411:144,1,38.2500007295609,2|0,1:2|0:0,0:0:0:0:
418,71,73040,2,0,P|468:34|522:2,1,114.750002188683,2|0,1:2|0:0,0:0:0:0:
337,37,73885,2,0,P|314:18|301:8,1,38.2500007295609,8|0,0:1|0:0,0:0:0:0:
347,119,74308,1,0,0:0:0:0:
355,118,74731,6,0,P|347:156|339:211,1,76.5000014591217,0|0,1:2|0:0,0:0:0:0:
376,273,75364,1,0,0:0:0:0:
382,266,75576,1,8,0:1:0:0:
319,355,75998,2,0,P|304:347|268:334,1,38.2500007295609,0|0,1:0|0:0,0:0:0:0:
211,314,76421,2,0,P|173:343|142:376,1,76.5000014591217,0|0,1:0|0:0,0:0:0:0:
16,317,77266,2,0,P|23:351|33:374,1,38.2500007295609,8|0,0:1|0:0,0:0:0:0:
20,307,77688,1,0,0:0:0:0:
112,258,78111,6,0,B|176:106|43:166|106:3,1,267.750005106926,0|0,1:2|0:0,0:0:0:0:
215,23,79801,1,0,1:0:0:0:
223,48,80012,1,0,0:0:0:0:
211,93,80224,2,0,P|180:77|177:65,1,38.2500007295609,8|0,0:1|0:0,0:0:0:0:
328,59,80646,1,8,0:1:0:0:
389,122,80857,1,8,0:3:0:0:
506,55,81069,1,4,0:3:0:0:
502,45,81280,1,0,1:0:0:0:
336,55,81491,6,2,P|358:114|316:213,1,161.999995056153,6|0,1:0|0:0,0:1:0:0:
484,261,82336,2,2,P|362:287|289:371,1,215.999993408203,10|0,0:1|1:0,0:1:0:0:
184,308,83393,5,0,0:0:0:0:
134,318,83604,1,0,0:0:0:0:
105,341,83815,1,0,0:0:0:0:
98,361,84026,2,2,L|112:214,1,107.999996704102,10|0,0:1|0:0,0:1:0:0:
29,203,84660,1,0,0:0:0:0:
192,154,84871,2,2,P|213:99|146:62,1,107.999996704102,2|0,1:0|0:0,0:1:0:0:
90,114,85505,1,0,0:0:0:0:
0,9,85716,6,0,P|53:6|141:-5,1,107.999996704102,10|2,0:1|1:0,0:1:0:0:
215,80,86350,1,2,0:1:0:0:
293,5,86562,1,0,1:0:0:0:
344,188,86773,2,0,P|428:201|514:204,1,161.999995056153,2|10,0:1|0:1,0:0:0:0:
430,112,87618,1,0,0:0:0:0:
441,102,87829,1,2,0:1:0:0:
444,93,88040,1,0,0:0:0:0:
512,197,88252,2,0,P|410:210|404:306,1,215.999993408203,4|8,1:2|0:1,0:0:0:0:
450,378,89308,5,0,0:0:0:0:
298,336,89519,2,2,P|332:344|347:370,1,53.9999983520508,2|0,1:0|0:0,0:1:0:0:
188,273,89942,2,0,L|208:378,1,107.999996704102,2|0,1:0|0:1,0:1:0:0:
109,230,90576,2,0,P|142:188|205:186,1,107.999996704102,2|0,0:1|0:1,0:1:0:0:
265,27,91209,2,2,B|236:152|315:124|272:246,1,215.999993408203,2|0,0:1|0:0,0:1:0:0:
373,193,92266,1,0,0:0:0:0:
381,185,92477,2,0,L|369:127,1,53.9999983520508,8|0,0:1|0:0,0:0:0:0:
361,38,92900,1,0,1:0:0:0:
355,56,93111,1,0,0:0:0:0:
471,149,93322,6,2,L|317:134,1,107.999996704102,6|8,1:0|0:1,0:1:0:0:
241,202,93956,1,4,0:3:0:0:
176,86,94167,1,10,0:1:0:0:
265,39,94378,1,4,0:3:0:0:
251,127,94590,1,0,1:0:0:0:
168,360,95012,6,2,P|62:303|6:282,1,161.999995056153,6|0,1:0|0:0,0:1:0:0:
20,71,95857,2,2,P|48:87|48:134,1,53.9999983520508,10|0,0:1|0:0,0:1:0:0:
16,208,96280,1,0,1:0:0:0:
87,181,96491,1,0,0:0:0:0:
127,202,96702,1,0,1:0:0:0:
150,245,96914,1,0,0:0:0:0:
144,276,97125,1,0,0:0:0:0:
128,290,97336,1,0,0:0:0:0:
26,361,97547,2,2,B|122:334|92:391|203:368,1,161.999995056153,10|0,0:1|0:0,0:1:0:0:
315,317,98393,6,2,P|390:338|477:369,1,161.999995056153,2|0,1:1|0:0,0:1:0:0:
512,200,99238,2,0,P|500:177|453:148,1,53.9999983520508,10|0,0:1|0:0,0:0:0:0:
248,262,99660,2,0,L|313:241,1,53.9999983520508,2|0,1:0|0:0,0:0:0:0:
101,305,100083,2,0,P|59:281|28:277,1,53.9999983520508,2|0,1:0|0:0,0:0:0:0:
167,365,100505,1,0,0:1:0:0:
171,249,100716,2,2,P|161:201|153:125,1,107.999996704102,2|0,0:1|0:0,0:1:0:0:
169,12,101350,2,0,P|176:56|179:87,1,53.9999983520508,2|0,0:1|0:0,0:0:0:0:
64,158,101773,5,4,1:2:0:0:
58,151,102195,1,0,0:0:0:0:
143,132,102407,1,0,0:0:0:0:
217,172,102618,2,0,P|258:160|279:157,1,53.9999983520508,8|0,0:1|0:0,0:0:0:0:
409,219,103040,1,2,1:1:0:0:
505,260,103252,1,0,0:0:0:0:
484,136,103463,2,0,P|497:110|508:86,1,53.9999983520508,2|0,1:1|0:0,0:0:0:0:
382,9,103885,2,0,P|390:44|397:64,1,53.9999983520508,2|0,0:1|0:0,0:0:0:0:
379,150,104308,1,8,0:1:0:0:
384,144,104519,1,0,0:0:0:0:
303,196,104731,2,0,P|275:185|240:176,1,53.9999983520508,2|0,0:1|0:0,0:0:0:0:
111,226,105153,5,0,1:2:0:0:
202,382,105576,1,0,0:0:0:0:
387,318,105998,1,8,0:1:0:0:
353,244,106209,1,0,0:0:0:0:
298,310,106421,2,0,P|292:342|289:364,1,53.9999983520508,0|0,1:0|0:0,0:0:0:0:
219,246,106843,6,0,P|149:219|37:191,1,161.999995056153,4|0,1:2|0:0,0:0:0:0:
263,150,107688,2,0,P|346:129|464:115,1,161.999995056153,12|0,0:1|0:0,0:0:0:0:
201,15,108533,5,4,0:2:0:0:
210,30,109378,5,0,0:0:0:0:
148,152,109801,1,0,1:0:0:0:
218,245,110224,1,0,1:0:0:0:
229,240,111069,5,2,1:2:0:0:
181,323,111280,1,4,0:3:0:0:
274,370,111491,2,0,P|367:338|481:307,1,215.999993408203,4|0,1:0|0:0,0:0:0:0:
487,311,112759,1,0,0:0:0:0:
431,227,113181,1,0,1:0:0:0:
458,191,113393,1,0,0:0:0:0:
430,115,113604,1,0,1:0:0:0:
457,27,113815,1,12,0:1:0:0:
466,21,114238,5,0,1:0:0:0:
384,51,114449,1,12,1:0:0:0:
323,8,114660,1,4,0:3:0:0:
251,64,114871,2,0,P|199:51|182:49,1,53.9999983520508,4|0,0:3|0:0,0:0:0:0:
108,1,115294,6,0,L|125:112,1,90,4|0,1:2|0:0,0:0:0:0:
59,141,115928,1,0,0:0:0:0:
147,179,116139,2,0,L|142:241,1,45,8|0,0:1|0:0,0:0:0:0:
68,270,116562,1,0,1:0:0:0:
70,281,116773,1,0,0:0:0:0:
136,350,116984,2,0,P|197:301|303:253,1,180,0|8,1:0|0:1,0:0:0:0:
352,199,118040,1,0,0:0:0:0:
362,207,118252,2,0,L|346:157,1,45
462,179,118674,2,0,P|445:242|425:329,1,135,0|0,1:2|0:0,0:0:0:0:
479,369,119519,5,10,0:1:0:0:
354,311,119942,1,2,1:1:0:0:
473,174,120364,2,0,B|368:170|415:236|286:225,1,180,2|8,1:1|0:1,0:0:0:0:
233,183,121421,1,2,0:0:0:0:
166,207,121632,1,2,0:1:0:0:
119,166,121843,1,2,0:2:0:0:
143,117,122055,2,0,P|139:200|127:309,1,180,2|8,1:2|0:1,0:0:0:0:
128,296,123322,6,0,P|103:300|77:321,1,45,0|0,1:0|0:0,0:0:0:0:
17,256,123745,2,0,L|1:166,2,60,0|0|0,1:0|0:0|0:0,0:0:0:0:
20,183,124590,1,8,0:1:0:0:
4,43,125012,1,0,0:0:0:0:
12,55,125224,1,0,0:0:0:0:
17,67,125435,6,0,P|59:67|107:96,1,90,0|0,1:2|0:0,0:0:0:0:
171,44,126069,1,0,0:0:0:0:
253,119,126280,2,0,P|291:93|258:41,2,90,8|0|0,0:1|1:0|1:0,0:0:0:0:
160,163,127336,1,2,0:1:0:0:
144,196,127547,1,2,0:1:0:0:
171,226,127759,5,2,0:0:0:0:
175,217,127864,5,2,0:0:0:0:
178,208,127970,5,10,0:1:0:0:
83,154,128181,5,2,0:0:0:0:
5,251,128393,2,0,P|30:246|83:239,1,45,2|0,0:0|0:0,0:0:0:0:
155,319,128815,2,0,P|221:324|306:335,1,135,0|0,1:2|0:0,0:0:0:0:
392,269,129660,6,0,L|397:198,1,51.7500009870529,8|0,0:1|0:0,0:0:0:0:
512,285,130083,2,0,L|508:350,1,51.7500009870529,0|0,1:0|0:0,0:0:0:0:
447,154,130505,1,0,1:0:0:0:
512,99,130716,1,0,0:0:0:0:
324,18,131139,1,0,0:0:0:0:
310,9,131350,2,0,L|308:130,1,103.500001974106,8|0,0:1|0:0,0:0:0:0:
248,158,131984,1,0,0:0:0:0:
362,234,132195,1,0,1:2:0:0:
367,224,132618,6,0,L|366:162,1,51.7500009870529
194,264,133040,1,8,0:1:0:0:
207,254,133463,1,0,1:0:0:0:
248,335,133674,1,0,0:0:0:0:
157,370,133885,2,0,P|108:358|42:346,1,103.500001974106,0|0,1:0|0:0,0:0:0:0:
34,266,134519,1,0,0:0:0:0:
38,251,134731,1,8,0:1:0:0:
248,174,135153,1,0,0:0:0:0:
310,371,135576,1,0,1:2:0:0:
302,365,135787,6,0,B|301:311|350:335|344:267,1,103.500001974106,2|0,0:0|0:0,0:0:0:0:
425,223,136421,1,8,0:1:0:0:
417,207,136632,1,0,0:0:0:0:
391,187,136843,1,0,1:0:0:0:
344,177,137055,1,0,0:0:0:0:
272,119,137266,6,0,L|238:237,1,103.500001974106,0|0,1:0|0:0,0:0:0:0:
167,197,137900,1,0,0:0:0:0:
254,298,138111,1,8,0:1:0:0:
237,299,138322,1,0,0:0:0:0:
217,301,138533,1,0,0:0:0:0:
85,171,138956,2,0,L|521:259,1,414.000007896424,2|2,1:2|1:2,0:0:0:0:
450,160,140857,2,0,P|382:194|383:290,1,155.250002961159,2|8,0:0|0:1,0:0:0:0:
512,355,141702,1,4,0:1:0:0:
502,342,141914,2,0,L|428:355,1,51.7500009870529
372,362,142336,6,0,P|307:336|188:299,1,180,4|8,1:2|0:1,0:0:0:0:
90,362,143604,1,0,1:0:0:0:
11,212,144026,2,0,P|58:242|69:255,1,45,0|0,1:0|0:0,0:0:0:0:
129,206,144449,1,0,0:0:0:0:
132,199,144660,1,0,0:0:0:0:
90,120,144871,2,0,P|80:94|75:65,1,45,8|0,0:1|0:0,0:0:0:0:
120,5,145294,1,0,0:0:0:0:
249,86,145716,5,0,1:2:0:0:
395,13,146139,1,2,0:0:0:0:
446,65,146350,1,0,0:0:0:0:
402,132,146562,1,8,0:1:0:0:
472,225,146773,2,0,P|464:275|462:296,1,45,2|0,0:0|1:0,0:0:0:0:
476,219,147195,1,0,0:0:0:0:
372,260,147407,2,0,P|389:312|410:359,1,90,2|2,1:2|0:1,0:0:0:0:
490,367,148040,1,0,0:0:0:0:
496,359,148252,1,8,0:1:0:0:
457,287,148463,1,2,0:0:0:0:
496,190,148674,1,2,0:1:0:0:
418,106,148885,1,2,0:0:0:0:
512,1,149097,6,0,P|456:14|326:40,1,180,0|8,1:2|0:1,0:0:0:0:
212,12,150364,1,0,1:0:0:0:
218,18,150576,1,0,0:0:0:0:
255,106,150787,2,0,P|243:155|234:216,1,90,0|0,1:0|0:0,0:0:0:0:
293,337,151632,1,8,0:1:0:0:
224,304,151843,2,0,P|180:322|123:356,1,90
35,365,152477,6,0,P|44:320|50:295,1,45,0|2,1:2|0:0,0:0:0:0:
13,237,152900,1,2,0:1:0:0:
15,230,153111,1,0,0:0:0:0:
90,188,153322,1,8,0:1:0:0:
4,48,153745,1,0,1:0:0:0:
181,85,154167,2,0,P|256:68|336:52,1,135,0|0,1:0|0:0,0:0:0:0:
419,86,155012,1,8,0:1:0:0:
414,78,155224,1,0,0:0:0:0:
498,11,155435,1,0,0:0:0:0:
486,49,155646,1,8,0:1:0:0:
498,131,155857,6,0,P|507:187|513:236,1,90,4|0,1:2|0:0,0:0:0:0:
364,357,156702,2,0,P|334:363|311:371,1,45,10|0,0:1|0:0,0:0:0:0:
236,318,157125,2,0,P|216:348|205:371,1,45,2|0,1:1|0:0,0:0:0:0:
98,367,157547,2,0,P|39:346|5:337,1,90,2|0,1:1|0:0,0:0:0:0:
5,345,158393,1,10,0:1:0:0:
96,273,158604,1,2,0:1:0:0:
58,161,158815,1,2,0:1:0:0:
220,33,159238,6,0,P|302:20|370:9,1,135,2|0,1:1|0:0,0:0:0:0:
424,59,160083,1,8,0:1:0:0:
421,53,160294,1,0,0:0:0:0:
348,120,160505,1,2,1:1:0:0:
404,196,160716,1,2,0:1:0:0:
330,310,160928,2,0,P|281:298|260:294,2,45,2|2|0,1:1|0:1|0:0,0:0:0:0:
182,357,161562,2,0,P|129:363|63:377,1,90,2|0,0:1|0:0,0:0:0:0:
15,255,162195,2,0,P|24:304|30:320,1,45,2|0,0:1|0:0,0:0:0:0:
140,204,162618,6,0,P|190:141|282:41,1,180,2|8,1:1|0:1,0:0:0:0:
210,2,163674,1,0,0:0:0:0:
144,59,163885,1,0,1:0:0:0:
138,51,164097,1,0,0:0:0:0:
53,28,164308,2,0,P|21:75|21:144,2,90,0|0|8,1:0|0:0|0:1,0:0:0:0:
96,140,165364,2,0,L|84:189,1,45,2|0,0:1|0:0,0:0:0:0:
141,281,165787,1,2,0:1:0:0:
10,375,165998,5,0,1:0:0:0:
59,264,166209,1,8,0:1:0:0:
93,353,166421,1,0,0:0:0:0:
176,336,166632,1,0,1:0:0:0:
288,374,166843,1,8,0:1:0:0:
362,338,167055,1,0,0:0:0:0:
413,340,167266,1,0,1:0:0:0:
442,354,167477,1,8,0:1:0:0:
450,373,167688,1,0,0:0:0:0:
434,287,167900,1,4,0:3:0:0:
491,210,168111,1,4,0:3:0:0:
472,88,168322,1,4,0:3:0:0:
370,24,168533,1,8,0:1:0:0:
289,93,168745,1,4,0:3:0:0:
281,179,168956,1,4,0:3:0:0:
329,239,169167,1,4,0:3:0:0:
396,266,169378,6,2,P|305:251|196:239,1,182.250000695229,6|0,1:0|0:0,0:1:0:0:
61,352,170224,2,2,P|107:248|169:77,1,243.000000926971,10|0,0:1|1:0,0:1:0:0:
105,57,171280,1,0,0:0:0:0:
167,129,171491,1,0,0:0:0:0:
257,44,171702,1,0,0:0:0:0:
45,5,171914,2,2,P|60:65|69:136,1,121.500000463486,10|0,0:1|0:0,0:1:0:0:
13,198,172547,1,0,1:0:0:0:
144,248,172759,2,2,P|152:187|166:128,1,121.500000463486,2|0,1:0|1:0,0:1:0:0:
128,22,173393,5,0,0:0:0:0:
122,29,173604,2,0,L|261:48,1,121.500000463486,10|2,0:1|1:0,0:0:0:0:
287,117,174238,1,2,0:1:0:0:
399,7,174449,2,0,P|420:59|358:91,1,121.500000463486,0|0,1:0|0:0,0:0:0:0:
285,110,175083,1,0,0:0:0:0:
502,179,175294,2,0,P|469:183|418:193,1,60.7500002317429,10|0,0:1|0:0,0:0:0:0:
345,234,175716,1,2,0:1:0:0:
258,198,175928,1,2,1:0:0:0:
512,178,176139,6,0,P|397:146|279:102,1,243.000000926971,4|8,1:2|0:1,0:0:0:0:
232,38,177195,1,0,0:0:0:0:
156,189,177407,2,0,P|169:158|200:124,1,60.7500002317429,2|0,1:0|1:0,0:0:0:0:
63,233,177829,1,2,1:0:0:0:
74,236,178040,2,2,P|49:186|-28:132,1,121.500000463486,0|0,0:0|0:0,0:1:0:0:
7,324,178674,1,8,0:1:0:0:
0,336,178885,2,0,L|82:329,1,60.7500002317429,2|0,0:1|0:1,0:0:0:0:
161,275,179308,1,2,0:1:0:0:
231,370,179519,6,0,B|302:380|276:326|356:339,1,121.500000463486,2|0,1:1|0:0,0:1:0:0:
140,351,180364,1,8,0:1:0:0:
169,271,180576,1,0,0:0:0:0:
129,205,180787,1,0,1:0:0:0:
171,145,180998,1,0,1:0:0:0:
151,114,181209,6,0,L|265:100,1,60.7500002317429,6|0,1:0|0:0,0:0:0:0:
311,161,181632,2,0,L|371:168,1,60.7500002317429,0|0,1:0|0:0,0:0:0:0:
246,35,182055,1,10,0:1:0:0:
261,227,182477,1,0,1:0:0:0:
259,238,182688,1,0,0:0:0:0:
197,296,182900,6,2,P|128:275|11:248,1,168.75,6|0,1:0|0:0,0:1:0:0:
5,32,183745,2,2,P|71:58|93:122,1,112.5,10|0,0:1|1:0,0:1:0:0:
56,180,184378,1,0,1:0:0:0:
48,175,184590,1,0,1:0:0:0:
50,162,184801,1,2,0:2:0:0:
91,133,185012,1,4,0:2:0:0:
146,168,185224,1,2,0:2:0:0:
155,253,185435,2,0,P|142:301|129:334,1,56.25,10|2,0:1|0:2,0:0:0:0:
361,173,185857,2,0,P|374:141|398:103,1,56.25,0|0,0:0|1:0,0:0:0:0:
224,2,186280,5,2,1:1:0:0:
232,9,186702,2,0,L|225:67,1,56.25
304,172,187125,1,10,0:1:0:0:
159,365,187547,1,2,1:0:0:0:
116,297,187759,1,0,1:0:0:0:
220,285,187970,2,0,P|267:274|300:270,1,56.25,2|0,1:0|0:0,0:0:0:0:
408,347,188393,1,0,1:0:0:0:
412,336,188604,1,2,0:1:0:0:
484,240,188815,2,0,P|474:216|464:172,1,56.25,8|0,0:1|0:0,0:0:0:0:
504,13,189238,1,2,0:1:0:0:
500,22,189449,1,2,0:1:0:0:
377,85,189660,6,0,P|320:57|206:18,1,168.75,4|0,1:2|0:0,0:0:0:0:
37,146,190505,1,8,0:1:0:0:
40,136,190716,1,0,0:0:0:0:
136,88,190928,1,2,1:1:0:0:
48,10,191139,1,0,1:0:0:0:
112,198,191350,2,0,P|103:231|97:271,1,56.25,2|0,1:1|0:0,0:0:0:0:
183,363,191773,1,2,1:1:0:0:
181,353,191984,1,0,0:0:0:0:
18,356,192195,2,0,P|58:359|95:368,1,56.25,8|0,0:1|0:0,0:0:0:0:
217,248,192618,2,0,P|256:269|274:280,1,56.25,2|0,0:1|0:0,0:0:0:0:
494,309,193040,6,0,P|389:341|292:376,1,168.75,0|0,1:2|0:0,0:0:0:0:
190,333,193885,2,0,P|229:335|241:365,1,56.25,8|0,0:1|0:0,0:0:0:0:
98,370,194308,1,0,1:0:0:0:
84,365,194519,1,0,0:0:0:0:
119,222,194731,2,0,P|49:243|2:268,1,112.5,4|8,1:2|0:1,0:0:0:0:
21,269,195259,5,8,0:1:0:0:
23,280,195364,5,0,1:0:0:0:
33,133,195576,5,12,0:1:0:0:
38,146,195681,5,8,0:1:0:0:
41,163,195787,5,0,1:0:0:0:
75,7,195998,5,4,0:3:0:0:
80,20,196103,5,4,0:3:0:0:
83,37,196209,5,4,0:3:0:0:
218,87,196421,6,2,P|296:55|437:10,1,225,6|8,1:0|0:1,0:1:0:0:
295,195,197688,1,2,1:1:0:0:
146,140,197900,1,2,0:1:0:0:
289,209,198111,2,0,P|302:288|304:317,1,84.375,2|0,1:1|0:0,0:0:0:0:
288,346,198533,1,2,0:1:0:0:
381,296,198745,1,2,0:1:0:0:
217,238,198956,1,8,0:1:0:0:
223,245,199167,1,2,0:1:0:0:
139,365,199378,2,0,P|100:355|68:349,1,56.25,2|0,1:1|0:0,0:0:0:0:
61,226,199801,6,2,P|38:134|8:-2,1,225,2|8,1:0|0:1,0:1:0:0:
158,200,201069,1,2,1:1:0:0:
105,334,201280,1,2,0:1:0:0:
284,186,201491,2,0,P|259:213|218:265,1,84.375,2|0,1:1|0:0,0:0:0:0:
213,287,201914,1,2,0:1:0:0:
77,218,202125,1,2,0:1:0:0:
119,379,202336,1,8,0:1:0:0:
137,279,202547,1,2,0:1:0:0:
209,167,202759,1,2,0:1:0:0:
345,100,202970,1,4,0:2:0:0:
512,104,203181,6,2,P|406:54|306:-5,1,225,6|8,1:1|0:1,0:1:0:0:
38,226,204449,1,2,0:1:0:0:
154,165,204660,1,2,0:1:0:0:
42,104,204871,2,0,P|29:50|24:18,1,84.375,2|0,1:0|0:0,0:0:0:0:
50,2,205294,1,2,0:1:0:0:
0,172,205505,1,2,0:1:0:0:
115,92,205716,1,8,0:1:0:0:
90,185,205928,1,2,0:1:0:0:
152,275,206139,1,0,0:1:0:0:
97,373,206350,1,2,0:1:0:0:
282,302,206562,6,0,P|343:298|359:299,1,56.25,4|2,1:2|0:1,0:0:0:0:
477,351,206984,1,0,0:0:0:0:
437,266,207195,1,0,0:0:0:0:
473,180,207407,1,8,0:1:0:0:
423,119,207618,1,0,0:0:0:0:
453,45,207829,1,0,1:0:0:0:
476,29,208040,1,0,0:0:0:0:
494,25,208252,5,4,1:0:0:0:
358,138,208463,1,4,0:3:0:0:
211,53,208674,1,4,0:3:0:0:
58,217,208885,1,4,0:3:0:0:
135,161,209097,1,8,0:1:0:0:
21,105,209308,1,4,0:3:0:0:
23,306,209519,1,4,0:3:0:0:
147,172,209731,1,4,0:3:0:0:
8,2,209942,6,2,P|101:17|230:41,1,195.750005973816,6|0,1:0|0:0,0:1:0:0:
326,190,210787,2,2,L|473:158,1,130.500003982544,10|0,0:1|1:0,0:1:0:0:
512,83,211421,1,0,0:0:0:0:
508,68,211632,1,0,1:0:0:0:
503,49,211843,1,0,0:0:0:0:
403,0,212055,1,0,0:0:0:0:
300,135,212266,1,0,0:0:0:0:
446,241,212477,2,2,P|458:209|499:165,1,65.250001991272,10|0,0:1|0:0,0:1:0:0:
301,369,212900,2,2,P|289:337|248:293,1,65.250001991272,0|0,0:0|0:0,0:1:0:0:
150,238,213322,6,2,P|207:161|339:141,1,195.750005973816,2|0,1:0|0:0,0:1:0:0:
425,266,214167,2,0,L|339:255,1,65.250001991272,10|0,0:1|0:0,0:0:0:0:
448,117,214590,2,0,L|527:109,1,65.250001991272,2|0,1:0|0:0,0:0:0:0:
375,43,215012,1,2,1:0:0:0:
365,83,215224,1,0,0:0:0:0:
295,159,215435,1,0,0:0:0:0:
282,122,215646,1,0,0:0:0:0:
459,207,215857,1,10,0:1:0:0:
402,332,216069,1,4,0:0:0:0:
254,244,216280,2,0,P|288:234|333:229,1,65.250001991272,6|0,0:0|0:0,0:0:0:0:
238,353,216702,6,0,P|206:345|161:343,1,65.250001991272,4|0,1:2|0:0,0:0:0:0:
44,371,217125,1,0,0:0:0:0:
82,305,217336,1,0,0:0:0:0:
21,184,217547,1,8,0:1:0:0:
57,101,217759,1,0,0:0:0:0:
222,173,217970,1,2,1:0:0:0:
185,255,218181,1,2,0:1:0:0:
160,103,218393,1,2,1:0:0:0:
260,91,218604,1,2,0:1:0:0:
285,349,218815,2,0,P|314:291|354:236,2,130.500003982544,2|8|2,0:1|0:1|0:1,0:0:0:0:
271,268,219871,1,0,0:0:0:0:
471,365,220083,6,2,L|443:203,1,130.500003982544,2|0,1:0|0:0,0:1:0:0:
397,166,220716,1,0,0:0:0:0:
494,10,220928,1,8,0:1:0:0:
487,117,221139,1,0,0:0:0:0:
487,117,221245,1,0,0:0:0:0:
487,117,221350,1,0,1:0:0:0:
405,55,221562,1,0,0:0:0:0:
448,236,221773,5,6,1:0:0:0:
290,120,222336,2,0,L|364:108,1,43.5000013275147,4|4,0:3|0:3,0:0:0:0:
397,166,222618,2,0,P|314:124|191:90,1,195.750005973816,4|0,1:0|0:0,0:0:0:0:
152,143,223463,1,4,0:0:0:0:
256,192,223674,12,0,226209,0:0:0:0:
33,88,226421,6,0,P|239:161|441:235,1,432,4|0,0:1|0:0,0:0:0:0:
501,188,229167,1,0,1:2:0:0:
416,309,229378,5,8,0:1:0:0:
392,299,229590,1,4,0:3:0:0:
321,344,229801,5,0,1:0:0:0:
299,347,230012,1,0,1:0:0:0:
281,261,230224,5,4,0:0:0:0:
