osu file format v14

[General]
AudioFilename: audio.mp3
AudioLeadIn: 0
PreviewTime: 169378
Countdown: 0
SampleSet: Soft
StackLeniency: 0.7
Mode: 0
LetterboxInBreaks: 0
WidescreenStoryboard: 1

[Editor]
Bookmarks: 13886,27407,54449,81491,95012,115294,142336,169378,182900,209942,230224
DistanceSpacing: 1.13
BeatDivisor: 4
GridSize: 4
TimelineZoom: 1

[Metadata]
Title:Ryumka vodki na stole
TitleUnicode:Рюмка водки на столе
Artist:Grigory Leps
ArtistUnicode:Григорий Лепс
Creator:Myah
Version:Collab Hard
Source:
Tags:Grigoriy A glass of vodka on the table tolko tol'ko rumka riffy collab myahkey godsenger froskya revialink russian pop chanson шансон только На струнах дождя Na strunah dozhdya
BeatmapID:4043656
BeatmapSetID:1948021

[Difficulty]
HPDrainRate:4
CircleSize:3.8
OverallDifficulty:5.5
ApproachRate:5.5
SliderMultiplier:1.8
SliderTickRate:1

[Events]
//Background and Video events
0,0,"911-transformed.jpeg",0,0
//Break Periods
//Storyboard Layer 0 (Background)
//Storyboard Layer 1 (Fail)
//Storyboard Layer 2 (Pass)
//Storyboard Layer 3 (Foreground)
//Storyboard Layer 4 (Overlay)
//Storyboard Sound Samples

[TimingPoints]
13886,845.070422535211,4,2,1,70,1,0
27407,-111.111111111111,4,2,1,50,0,0
54449,-100,4,2,1,60,0,0
68815,-90.9090909090909,4,2,1,60,0,0
81491,-80,4,2,1,80,0,0
115294,-100,4,2,1,60,0,0
129660,-100,4,2,1,65,0,0
142336,-100,4,2,1,60,0,0
156702,-90.9090909090909,4,2,1,60,0,0
169378,-80,4,2,1,80,0,0
209942,-80,4,2,1,90,0,0

[Colours]
Combo1 : 174,91,98
Combo2 : 112,112,201
Combo3 : 138,171,101

[HitObjects]
5,43,13886,6,0,L|159:66,1,135,6|0,1:1|0:0,0:0:0:0:
175,96,14731,2,0,L|280:86,1,90,10|0,0:1|0:0,0:0:0:0:
299,52,15364,1,0,1:0:0:0:
299,52,15576,1,0,1:0:0:0:
363,126,15998,1,0,1:0:0:0:
274,171,16421,2,0,B|226:164|244:198|176:187,1,90,8|0,0:1|0:0,0:0:0:0:
142,186,17055,1,0,1:0:0:0:
142,186,17266,5,6,1:2:0:0:
17,340,18111,2,0,P|27:306|80:302,1,90,10|2,0:1|0:1,0:0:0:0:
113,331,18745,2,0,L|210:317,1,90,2|2,1:1|0:1,0:1:0:0:
230,277,19378,1,0,1:0:0:0:
230,277,19590,2,0,L|282:290,1,45,2|8,0:1|0:1,0:0:0:0:
311,321,20012,1,8,0:3:0:0:
361,317,20224,1,4,0:3:0:0:
393,278,20435,1,0,1:0:0:0:
393,278,20646,6,0,L|347:96,1,180,4|8,1:2|0:1,0:0:0:0:
260,56,21702,2,0,P|263:17|318:11,1,90,2|2,0:1|1:1,0:0:0:0:
351,25,22336,1,2,1:0:0:0:
444,57,22759,1,2,1:0:0:0:
433,105,22970,1,2,0:1:0:0:
448,151,23181,2,0,L|437:205,2,45,8|0|0,0:1|0:0|0:0,0:0:0:0:
352,125,24026,6,0,P|363:195|378:305,1,180,4|8,1:2|0:1,0:0:0:0:
302,367,25294,1,0,1:0:0:0:
210,330,25716,2,0,P|222:288|279:289,2,90,4|0|8,1:2|1:0|0:1,0:0:0:0:
174,364,26773,1,8,0:3:0:0:
174,364,26984,1,4,0:3:0:0:
84,321,27407,6,0,P|104:265|121:138,1,161.999995056153,4|0,1:2|0:0,0:0:0:0:
106,76,28674,1,2,0:0:0:0:
192,98,29097,2,0,P|238:59|305:80,2,121.499996292114,2|0|2,0:0|0:0|0:0,0:0:0:0:
217,183,30787,6,0,P|273:188|348:227,1,121.499996292114,2|0,0:0|0:0,0:0:0:0:
369,189,31632,2,0,B|391:181|408:181,1,40.4999987640381
453,204,32055,2,0,P|425:243|453:288,1,80.9999975280763,2|0,0:0|0:0,0:0:0:0:
441,315,32688,2,0,P|396:334|356:360,1,80.9999975280763,2|0,0:0|0:0,0:0:0:0:
325,356,33322,1,2,0:0:0:0:
286,339,33533,1,2,0:0:0:0:
273,296,33745,1,2,0:0:0:0:
298,259,33956,1,2,0:0:0:0:
341,249,34167,6,0,P|315:172|304:92,1,161.999995056153,2|0,0:0|0:0,0:0:0:0:
242,27,35435,1,2,0:0:0:0:
152,15,35857,2,0,P|177:91|188:171,1,161.999995056153,2|2,0:0|0:0,0:0:0:0:
156,255,37125,1,2,0:0:0:0:
238,292,37547,6,0,B|293:286|262:240|363:229,1,121.499996292114,2|0,0:0|0:0,0:0:0:0:
383,242,38393,1,2,0:0:0:0:
407,156,38815,2,0,P|347:146|290:125,1,121.499996292114
224,65,39871,1,2,0:0:0:0:
200,103,40083,1,2,0:0:0:0:
160,123,40294,1,2,0:0:0:0:
115,123,40505,2,0,P|94:114|71:109,1,40.4999987640381,2|2,0:0|0:0,0:0:0:0:
34,95,40928,6,0,P|59:171|68:237,1,121.499996292114,2|0,0:0|0:0,0:0:0:0:
47,252,41773,2,0,P|89:259|124:318,1,80.9999975280763,2|0,0:0|0:0,0:0:0:0:
142,320,42407,1,2,0:0:0:0:
142,320,42618,2,0,P|194:304|274:304,1,121.499996292114
297,327,43463,2,0,P|303:281|311:220,1,80.9999975280763,2|0,0:0|0:0,0:0:0:0:
342,218,44097,1,2,0:0:0:0:
352,174,44308,6,0,P|425:158|456:214,1,121.499996292114
484,217,45153,1,0,0:0:0:0:
455,301,45576,1,2,0:0:0:0:
413,284,45787,1,2,0:0:0:0:
375,308,45998,2,0,P|335:315|284:332,1,80.9999975280763,2|0,0:0|0:0,0:0:0:0:
267,293,46632,1,2,0:0:0:0:
267,293,46843,2,0,P|228:281|188:274,1,80.9999975280763
116,326,47688,6,0,P|98:268|138:205,1,121.499996292114,2|0,0:0|0:0,0:0:0:0:
162,196,48533,1,0,0:0:0:0:
126,114,48956,1,0,0:0:0:0:
114,71,49167,1,0,0:0:0:0:
145,39,49378,5,2,0:0:0:0:
231,59,49801,1,0,0:0:0:0:
318,76,50224,1,0,0:0:0:0:
354,50,50435,2,0,P|351:32|344:-1,2,40.4999987640381
397,59,51069,6,0,P|382:129|367:213,1,121.499996292114,2|0,0:0|0:0,0:0:0:0:
402,212,51914,1,0,0:0:0:0:
402,212,52125,1,0,0:0:0:0:
382,301,52547,1,0,0:0:0:0:
382,301,52759,2,0,B|296:290|313:350|243:331,1,121.499996292114,2|0,0:0|0:0,0:0:0:0:
224,330,53604,1,0,0:0:0:0:
190,300,53815,1,0,0:0:0:0:
191,255,54026,1,0,0:0:0:0:
225,227,54238,1,0,0:0:0:0:
268,235,54449,6,0,B|178:239|221:280|114:278,1,135,4|0,1:2|0:0,0:0:0:0:
99,253,55294,1,8,0:1:0:0:
129,170,55716,2,0,L|114:110,1,45,0|0,1:0|0:0,0:0:0:0:
81,93,56139,2,0,L|193:116,1,90,0|0,1:0|0:0,0:0:0:0:
207,86,56773,1,0,0:0:0:0:
256,82,56984,2,0,P|295:106|266:153,2,90,8|0|0,0:1|0:0|1:2,0:0:0:0:
208,168,58252,5,0,0:0:0:0:
216,216,58463,1,0,0:0:0:0:
255,245,58674,1,8,0:1:0:0:
304,244,58885,1,0,0:0:0:0:
346,217,59097,2,0,L|333:115,1,90,2|0,1:2|1:0,0:0:0:0:
301,90,59731,2,0,L|238:97,2,45
322,45,60364,1,8,0:1:0:0:
370,32,60576,1,0,0:0:0:0:
415,52,60787,1,0,0:0:0:0:
503,7,61209,6,0,L|490:155,1,135,0|0,1:2|0:0,0:0:0:0:
451,171,62055,2,0,L|471:239,1,45,8|0,0:1|0:0,0:0:0:0:
478,261,62477,1,0,1:0:0:0:
445,298,62688,1,0,0:0:0:0:
395,289,62900,2,0,P|332:259|261:230,1,135,0|0,1:0|0:0,0:0:0:0:
239,196,63745,2,0,L|163:210,2,45,8|0|0,0:1|0:0|0:0,0:0:0:0:
265,155,64378,1,0,0:0:0:0:
265,155,64590,6,0,P|311:135|357:107,1,90,0|0,1:0|0:0,0:0:0:0:
359,70,65224,1,0,0:0:0:0:
359,70,65435,1,8,0:1:0:0:
424,143,65857,1,2,1:2:0:0:
508,90,66280,1,0,1:0:0:0:
463,68,66491,1,0,0:0:0:0:
414,76,66702,1,0,0:0:0:0:
383,115,66914,1,0,0:0:0:0:
389,164,67125,2,0,L|399:228,1,45,8|0,0:1|0:0,0:0:0:0:
429,244,67547,2,0,P|408:281|366:277,1,90,0|0,0:0|1:2,0:0:0:0:
294,208,68393,5,0,0:0:0:0:
253,180,68604,1,0,0:0:0:0:
207,169,68815,2,0,L|103:190,1,99.0000030212403,8|2,0:1|1:2,0:0:0:0:
45,150,69449,2,0,P|99:185|133:278,1,148.50000453186
185,326,70294,1,0,0:0:0:0:
185,326,70505,1,8,0:1:0:0:
185,326,70716,2,0,P|130:321|87:315,1,99.0000030212403
32,365,71350,2,0,P|131:350|246:339,1,198.000006042481,0|8,1:2|0:1,0:0:0:0:
325,271,72618,6,0,P|350:273|381:282,1,49.5000015106202,2|0,1:2|0:0,0:0:0:0:
432,326,73040,1,2,1:2:0:0:
484,219,73463,1,0,0:0:0:0:
374,173,73885,1,8,0:1:0:0:
374,173,74097,1,0,0:0:0:0:
374,173,74308,1,0,0:0:0:0:
418,62,74731,5,0,1:2:0:0:
494,228,75364,1,0,0:0:0:0:
494,228,75576,1,8,0:1:0:0:
509,110,75998,2,0,P|480:117|448:143,1,49.5000015106202,0|0,1:0|0:0,0:0:0:0:
407,178,76421,2,0,P|357:158|282:135,2,99.0000030212403,0|0|8,1:0|0:0|0:1,0:0:0:0:
408,66,77688,1,0,0:0:0:0:
408,66,77900,1,0,0:0:0:0:
408,66,78111,6,0,P|203:176|-8:336,1,495.000015106202,0|8,1:2|0:1,0:0:0:0:
56,232,80646,5,8,0:1:0:0:
124,259,80857,1,8,0:3:0:0:
180,308,81069,1,4,0:3:0:0:
251,187,81491,6,2,P|175:177|140:87,1,168.75,6|0,1:0|0:0,0:1:0:0:
196,39,82336,2,2,B|287:33|255:96|372:82,1,168.75,10|0,0:1|0:0,0:1:0:0:
426,40,83181,1,0,1:0:0:0:
495,155,83604,1,0,0:0:0:0:
422,268,84026,2,2,B|343:281|426:310|281:335|342:281|267:297,1,168.75,10|0,0:1|0:0,0:1:0:0:
204,353,84871,2,2,P|231:282|250:185,1,168.75,2|0,1:0|0:0,0:1:0:0:
292,118,85716,6,0,P|267:105|239:107,1,56.25,10|0,0:1|0:0,0:1:0:0:
172,159,86139,1,2,1:0:0:0:
144,79,86350,2,0,P|119:66|91:68,1,56.25,2|0,0:1|1:0,0:0:0:0:
23,119,86773,2,0,P|50:190|65:261,1,112.5,2|0,0:1|0:0,0:0:0:0:
6,291,87407,2,0,P|34:336|88:338,1,112.5,10|2,0:1|0:1,0:0:0:0:
154,285,88040,1,0,0:0:0:0:
204,353,88252,6,0,P|284:310|432:289,1,225,4|8,1:2|0:1,0:0:0:0:
330,183,89519,1,2,1:0:0:0:
248,209,89731,1,0,0:0:0:0:
184,155,89942,1,2,1:0:0:0:
184,71,90153,2,0,P|240:59|255:58,1,56.25,0|0,0:0|0:1,0:0:0:0:
312,15,90576,1,2,0:1:0:0:
312,15,90787,2,0,P|339:19|367:26,1,56.25,0|0,0:0|0:1,0:0:0:0:
449,43,91209,6,2,B|409:151|487:103|479:207|409:151|398:254|479:207|463:314|398:254|427:375,1,337.5,2|8,0:1|0:1,0:1:0:0:
341,378,92688,1,0,0:0:0:0:
298,311,92900,1,0,1:0:0:0:
221,293,93111,1,0,0:0:0:0:
158,349,93322,6,2,P|101:323|1:305,1,112.5,6|8,1:0|0:1,0:1:0:0:
14,234,93956,1,4,0:3:0:0:
88,193,94167,1,10,0:1:0:0:
50,123,94378,1,4,0:3:0:0:
50,123,94590,1,0,1:0:0:0:
140,24,95012,6,2,P|196:35|193:107,1,112.5,6|0,1:0|0:0,0:1:0:0:
157,151,95646,1,0,0:0:0:0:
157,151,95857,2,2,L|185:291,1,112.5,10|0,0:1|1:0,0:1:0:0:
140,336,96491,1,0,0:0:0:0:
140,336,96702,2,0,L|219:340,1,56.25,0|0,1:0|0:0,0:0:0:0:
265,290,97125,2,0,L|321:287,1,56.25
384,342,97547,2,2,P|469:308|445:216,1,168.75,10|0,0:1|0:0,0:1:0:0:
497,161,98393,2,2,P|410:173|303:192,1,168.75,2|0,1:1|0:0,0:1:0:0:
257,143,99238,6,0,L|180:131,1,56.25,10|0,0:1|0:0,0:0:0:0:
149,200,99660,2,0,L|63:211,1,56.25,2|0,1:0|0:0,0:0:0:0:
19,165,100083,1,2,1:0:0:0:
19,165,100294,2,0,P|26:109|87:94,1,112.5,0|2,0:0|0:1,0:0:0:0:
119,19,100928,2,0,L|207:36,1,56.25
234,88,101350,1,2,0:1:0:0:
296,30,101562,1,0,0:0:0:0:
354,90,101773,2,0,P|368:197|383:323,1,225,4|8,1:2|0:1,0:0:0:0:
462,350,102829,5,0,0:0:0:0:
462,350,103040,2,0,L|479:255,1,56.25,2|0,1:1|0:0,0:0:0:0:
484,210,103463,2,0,L|401:226,1,56.25,2|0,1:1|0:0,0:0:0:0:
369,280,103885,2,2,L|229:258,1,112.5,2|8,0:1|0:1,0:1:0:0:
192,316,104519,1,0,0:0:0:0:
192,316,104731,2,2,P|151:288|139:230,2,112.5,2|0|2,0:1|1:1|0:1,0:1:0:0:
245,188,105998,2,0,P|137:207|-2:235,2,225,8|4|12,0:1|1:2|0:1,0:0:0:0:
405,297,108533,5,4,0:2:0:0:
405,297,109378,1,0,0:0:0:0:
444,191,109801,1,0,1:0:0:0:
336,157,110224,1,0,1:0:0:0:
336,157,111069,6,0,L|245:172,1,56.25,2|4,1:2|0:3,0:0:0:0:
248,212,111491,2,0,L|14:171,1,225,4|0,1:0|0:0,0:0:0:0:
45,284,112759,1,0,0:0:0:0:
155,264,113181,1,0,1:0:0:0:
145,155,113604,1,0,1:0:0:0:
145,155,113815,1,12,0:1:0:0:
246,105,114238,5,0,1:0:0:0:
246,105,114449,2,0,L|328:123,2,56.25,12|4|4,1:0|0:3|0:3,0:0:0:0:
222,53,115083,1,0,0:0:0:0:
254,22,115294,6,0,L|426:59,1,135,4|0,1:2|0:0,0:0:0:0:
430,27,116139,1,8,0:1:0:0:
465,119,116562,2,0,P|452:144|448:165,1,45,0|0,1:0|0:0,0:0:0:0:
464,207,116984,2,0,P|382:178|322:235,1,135,0|0,1:0|0:0,0:0:0:0:
312,236,117829,1,8,0:1:0:0:
312,236,118040,2,0,L|300:310,2,45
274,203,118674,6,0,P|223:194|175:182,1,90,0|0,1:2|0:0,0:0:0:0:
141,176,119308,1,0,0:0:0:0:
141,176,119519,2,0,P|97:204|110:276,1,90,10|2,0:1|1:1,0:0:0:0:
93,289,120153,2,0,P|144:296|236:321,1,135
316,280,121209,1,8,0:1:0:0:
349,316,121421,2,0,P|341:342|337:366,2,45,2|2|2,0:0|0:1|0:2,0:0:0:0:
396,300,122055,6,0,P|436:270|396:192,1,135,2|0,1:2|0:0,0:0:0:0:
367,179,122900,1,8,0:1:0:0:
402,86,123322,2,0,P|376:79|345:71,1,45,0|0,1:0|0:0,0:0:0:0:
328,34,123745,2,0,B|237:35|264:88|193:77,1,135,0|0,1:0|0:0,0:0:0:0:
160,55,124590,1,8,0:1:0:0:
105,137,125012,1,0,0:0:0:0:
117,185,125224,1,0,0:0:0:0:
129,232,125435,6,0,L|250:252,1,90,0|0,1:2|0:0,0:0:0:0:
308,207,126280,1,8,0:1:0:0:
379,275,126702,1,0,1:0:0:0:
338,365,127125,1,0,1:0:0:0:
292,345,127336,2,0,L|241:356,1,45,2|2,0:1|0:1,0:0:0:0:
209,322,127759,1,2,0:0:0:0:
209,322,127970,2,0,L|120:307,1,90,10|2,0:1|0:0,0:0:0:0:
75,328,128604,1,0,0:0:0:0:
42,290,128815,6,0,P|35:250|72:209,1,90,0|0,1:2|0:0,0:0:0:0:
145,157,129660,2,0,P|129:114|115:60,1,90,8|0,0:1|1:0,0:0:0:0:
202,20,130505,1,0,1:0:0:0:
234,56,130716,2,0,P|225:77|218:99,1,45
235,145,131139,2,0,P|278:129|332:115,1,90
356,82,131773,1,0,0:0:0:0:
402,98,131984,5,0,0:0:0:0:
402,98,132195,2,0,P|435:148|392:221,1,135,0|0,1:2|0:0,0:0:0:0:
362,233,133040,1,8,0:1:0:0:
371,331,133463,2,0,P|350:322|328:315,1,45,0|0,1:0|0:0,0:0:0:0:
282,332,133885,2,0,P|270:288|254:246,1,90,0|0,1:0|0:0,0:0:0:0:
207,230,134519,2,0,P|218:186|234:144,1,90
254,98,135153,1,0,0:0:0:0:
177,34,135576,6,0,P|151:87|46:86,1,135,0|0,1:2|0:0,0:0:0:0:
37,82,136421,1,8,0:1:0:0:
8,176,136843,1,0,1:0:0:0:
51,199,137055,1,0,0:0:0:0:
77,228,137266,2,0,P|98:272|72:316,1,90,0|0,1:0|0:0,0:0:0:0:
106,351,137900,2,0,P|152:338|165:338,1,45,0|8,0:0|0:1,0:0:0:0:
186,305,138322,1,0,0:0:0:0:
186,305,138533,1,0,0:0:0:0:
265,363,138956,6,0,P|282:307|296:267,1,90,2|0,1:2|0:0,0:0:0:0:
331,247,139590,1,0,0:0:0:0:
316,199,139801,2,0,P|273:173|274:121,1,90
319,52,140646,1,2,1:2:0:0:
319,52,140857,2,0,B|360:47|395:111|338:100|390:53|436:77,1,135,2|8,0:0|0:1,0:0:0:0:
468,115,141702,2,0,P|444:158|433:232,1,90,4|0,0:1|0:0,0:0:0:0:
448,244,142336,6,0,B|359:255|410:289|322:300,1,135,4|0,1:2|0:0,0:0:0:0:
291,331,143181,2,0,P|245:323|169:315,1,90,8|0,0:1|1:0,0:0:0:0:
156,340,143815,1,0,0:0:0:0:
121,305,144026,2,0,P|113:268|161:238,1,90,0|0,1:0|0:0,0:0:0:0:
184,202,144660,1,0,0:0:0:0:
184,202,144871,2,0,P|215:203|262:211,1,45,8|0,0:1|0:0,0:0:0:0:
268,236,145294,2,0,P|311:228|379:221,1,90,0|0,0:0|1:2,0:0:0:0:
454,207,146139,5,2,0:0:0:0:
477,163,146350,1,0,0:0:0:0:
456,117,146562,1,8,0:1:0:0:
410,96,146773,2,0,P|385:89|343:82,1,45,2|0,0:0|1:0,0:0:0:0:
329,61,147195,1,0,0:0:0:0:
329,61,147407,2,0,P|299:63|252:71,1,45,2|0,1:2|0:0,0:0:0:0:
245,34,147829,2,0,L|260:150,1,90,2|8,0:1|0:1,0:0:0:0:
295,153,148463,1,2,0:0:0:0:
295,153,148674,2,0,L|292:216,1,45,2|2,0:1|0:0,0:0:0:0:
327,233,149097,2,0,P|241:217|115:200,1,180,0|8,1:2|0:1,0:0:0:0:
125,160,150153,6,0,P|126:133|185:105,1,90
208,66,150787,2,0,P|251:61|326:50,1,90,0|0,1:0|0:0,0:0:0:0:
390,16,151632,1,8,0:1:0:0:
390,16,151843,2,0,P|383:46|376:83,1,45
399,105,152266,1,0,0:0:0:0:
399,105,152477,2,0,P|445:109|457:57,1,90,0|2,1:2|0:1,0:0:0:0:
385,13,153322,6,0,L|323:21,1,45,8|0,0:1|0:0,0:0:0:0:
311,59,153745,2,0,L|211:44,2,90,0|0|0,1:0|1:0|0:0,0:0:0:0:
377,132,155012,1,8,0:1:0:0:
355,176,155224,1,0,0:0:0:0:
387,213,155435,1,0,0:0:0:0:
367,260,155646,1,8,0:1:0:0:
367,260,155857,2,0,P|299:243|212:228,1,135,4|0,1:2|0:0,0:0:0:0:
177,278,156702,5,10,0:1:0:0:
118,174,157125,1,2,1:1:0:0:
225,124,157547,1,2,1:1:0:0:
27,18,158393,5,10,0:1:0:0:
58,85,158604,1,2,0:1:0:0:
43,157,158815,1,2,0:1:0:0:
14,272,159238,6,0,P|108:251|222:232,1,198.000006042481,2|8,1:1|0:1,0:0:0:0:
290,148,160505,2,0,P|322:155|368:169,1,49.5000015106202,2|2,1:1|0:1,0:0:0:0:
383,218,160928,2,0,B|376:262|376:262|381:273|381:273|373:329,2,99.0000030212403,2|0|0,1:1|0:0|0:0,0:0:0:0:
487,161,162195,1,2,0:1:0:0:
439,51,162618,2,0,P|320:41|304:97,1,198.000006042481,2|8,1:1|0:1,0:0:0:0:
265,207,163885,6,0,L|209:171,1,49.5000015106202,0|0,1:0|0:0,0:0:0:0:
159,141,164308,2,0,L|25:168,2,99.0000030212403,0|0|8,1:0|0:0|0:1,0:0:0:0:
197,77,165364,2,0,P|224:45|277:69,1,99.0000030212403,2|2,0:1|0:1,0:0:0:0:
335,100,165998,5,0,1:0:0:0:
317,172,166209,1,8,0:1:0:0:
417,235,166632,1,0,1:0:0:0:
428,308,166843,1,8,0:1:0:0:
323,365,167266,1,0,1:0:0:0:
253,339,167477,1,8,0:1:0:0:
174,249,167900,5,4,0:3:0:0:
101,266,168111,1,4,0:3:0:0:
32,236,168322,1,4,0:3:0:0:
21,162,168533,1,8,0:1:0:0:
70,106,168745,1,4,0:3:0:0:
143,97,168956,1,4,0:3:0:0:
190,153,169167,1,4,0:3:0:0:
258,181,169378,6,2,P|332:197|447:227,1,168.75,6|0,1:0|0:0,0:1:0:0:
446,138,170224,2,2,P|369:116|345:5,1,168.75,10|0,0:1|0:0,0:1:0:0:
256,11,171069,2,0,P|229:29|185:30,1,56.25,0|0,1:0|0:0,0:0:0:0:
158,102,171491,2,0,P|130:96|107:79,1,56.25
41,132,171914,2,2,P|73:188|99:315,1,168.75,10|0,0:1|1:0,0:1:0:0:
70,368,172759,6,2,P|120:335|186:373,1,112.5,2|0,1:0|1:0,0:1:0:0:
289,268,173604,2,0,P|256:243|252:211,1,56.25,10|0,0:1|0:0,0:0:0:0:
286,153,174026,1,2,1:0:0:0:
242,80,174238,2,0,P|254:55|279:42,1,56.25,2|0,0:1|1:0,0:0:0:0:
360,18,174660,2,0,P|411:45|487:59,1,112.5
463,142,175294,2,0,P|409:129|365:161,1,112.5,10|2,0:1|0:1,0:0:0:0:
370,245,175928,1,2,1:0:0:0:
289,268,176139,6,0,P|230:247|168:240,2,112.5,4|0|8,1:2|0:0|0:1,0:0:0:0:
267,349,177195,1,0,0:0:0:0:
267,349,177407,2,0,P|231:338|200:330,1,56.25,2|0,1:0|1:0,0:0:0:0:
131,354,177829,1,2,1:0:0:0:
91,279,178040,2,2,P|63:286|37:294,2,56.25,0|0|0,0:0|0:0|0:0,0:1:0:0:
109,199,178674,1,8,0:1:0:0:
47,141,178885,2,2,P|88:110|162:139,1,112.5,2|2,0:1|0:1,0:1:0:0:
182,44,179519,6,2,B|240:29|210:62|264:70|240:29|292:35|264:70|316:74|292:35|346:55,1,168.75,2|2,1:1|0:0,0:1:0:0:
423,21,180364,2,0,P|436:48|427:77,1,56.25,8|0,0:1|0:0,0:0:0:0:
383,143,180787,1,0,1:0:0:0:
444,207,180998,1,0,1:0:0:0:
444,207,181209,2,2,P|400:263|436:316,1,112.5,6|0,1:0|1:0,0:1:0:0:
288,377,182055,2,2,P|295:323|254:287,1,112.5,10|0,0:1|1:0,0:1:0:0:
176,277,182688,5,0,0:0:0:0:
176,277,182900,2,2,P|114:231|171:156,1,168.75,6|0,1:0|0:0,0:1:0:0:
174,80,183745,2,2,P|227:94|297:111,1,112.5,10|0,0:1|1:0,0:1:0:0:
355,62,184378,1,0,1:0:0:0:
355,62,184590,1,0,1:0:0:0:
417,118,184801,6,0,P|449:115|492:104,1,56.25,2|4,0:2|0:2,0:0:0:0:
484,193,185224,2,0,P|453:195|410:206,1,56.25,2|10,0:2|0:1,0:0:0:0:
366,257,185646,2,0,P|335:247|285:239,1,56.25,2|0,0:2|0:0,0:0:0:0:
277,170,186069,1,0,1:0:0:0:
277,170,186280,2,0,P|181:190|225:266,1,168.75,2|0,1:1|0:0,0:0:0:0:
137,308,187125,6,0,P|187:296|278:284,1,112.5,10|2,0:1|1:0,0:0:0:0:
314,235,187759,1,0,1:0:0:0:
314,235,187970,2,0,P|349:273|331:325,1,112.5,2|0,1:0|1:0,0:0:0:0:
445,234,188815,1,8,0:1:0:0:
361,114,189238,1,2,0:1:0:0:
436,142,189449,1,2,0:1:0:0:
488,76,189660,2,0,P|387:102|240:128,1,225,4|8,1:2|0:1,0:0:0:0:
215,189,190716,5,0,0:0:0:0:
215,189,190928,2,0,P|186:170|187:133,1,56.25,2|0,1:1|1:0,0:0:0:0:
119,94,191350,2,0,P|134:72|169:62,1,56.25,2|0,1:1|0:0,0:0:0:0:
227,9,191773,2,2,P|280:21|343:30,1,112.5,2|8,1:1|0:1,0:1:0:0:
396,90,192407,1,0,0:0:0:0:
469,48,192618,2,2,P|457:106|452:190,2,112.5,2|0|0,0:1|1:2|0:0,0:1:0:0:
358,164,193885,6,0,P|433:204|447:292,1,168.75,8|0,0:1|0:0,0:0:0:0:
369,251,194731,1,4,1:2:0:0:
255,346,195153,6,0,L|249:294,2,28.125,8|8|0,0:1|0:1|1:0,0:0:0:0:
174,322,195576,2,0,L|165:272,2,28.125,12|8|0,0:1|0:1|1:0,0:0:0:0:
107,373,195998,2,0,L|98:329,2,28.125,4|4|4,0:3|0:3|0:3,0:0:0:0:
26,347,196421,6,2,P|40:241|152:215,1,225,6|8,1:0|0:1,0:1:0:0:
268,151,197688,1,2,1:1:0:0:
322,215,197900,1,2,0:1:0:0:
263,275,198111,2,0,P|309:254|385:238,1,112.5,2|2,1:1|0:1,0:0:0:0:
432,296,198745,1,2,0:1:0:0:
432,296,198956,2,0,P|458:263|457:230,1,56.25,8|2,0:1|0:1,0:0:0:0:
418,176,199378,1,2,1:1:0:0:
496,52,199801,2,2,B|366:21|397:91|275:53,1,225,2|8,1:0|0:1,0:1:0:0:
131,30,201069,5,2,1:1:0:0:
160,109,201280,1,2,0:1:0:0:
144,26,201491,2,0,P|80:41|15:52,1,112.5,2|2,1:1|0:1,0:0:0:0:
4,123,202125,1,2,0:1:0:0:
4,123,202336,2,0,P|20:139|50:182,1,56.25,8|2,0:1|0:1,0:0:0:0:
19,250,202759,1,2,0:1:0:0:
19,250,202970,1,4,0:2:0:0:
19,250,203181,2,2,P|130:273|127:180,1,225,6|8,1:1|0:1,0:1:0:0:
178,117,204238,6,2,P|234:127|296:133,1,112.5,2|2,0:1|0:1,0:1:0:0:
351,189,204871,2,0,P|409:178|483:162,1,112.5,2|2,1:0|0:1,0:0:0:0:
510,99,205505,1,2,0:1:0:0:
510,99,205716,1,8,0:1:0:0:
510,99,205928,1,2,0:1:0:0:
484,242,206350,1,2,0:1:0:0:
484,242,206562,2,0,P|434:221|360:204,1,112.5,4|0,1:2|0:0,0:0:0:0:
314,151,207195,5,0,0:0:0:0:
314,151,207407,2,0,P|226:153|218:224,1,168.75,8|0,0:1|0:0,0:0:0:0:
284,267,208252,1,4,1:0:0:0:
156,339,208674,5,4,0:3:0:0:
84,294,208885,2,0,L|99:217,1,56.25,4|8,0:3|0:1,0:0:0:0:
46,182,209308,1,4,0:3:0:0:
94,113,209519,1,4,0:3:0:0:
173,142,209731,1,4,0:3:0:0:
227,77,209942,6,2,P|211:158|193:261,1,168.75,6|0,1:0|0:0,0:1:0:0:
248,309,210787,2,2,P|305:324|337:283,1,112.5,10|0,0:1|1:0,0:1:0:0:
300,157,211632,1,0,1:0:0:0:
360,98,211843,2,0,P|354:64|344:26,2,56.25
444,96,212477,2,2,P|428:177|410:280,1,168.75,10|0,0:1|0:0,0:1:0:0:
328,263,213322,2,2,P|342:179|359:97,1,168.75,2|0,1:0|0:0,0:1:0:0:
322,20,214167,6,0,P|294:26|275:46,1,56.25,10|0,0:1|0:0,0:0:0:0:
191,53,214590,2,0,P|176:76|176:104,1,56.25,2|0,1:0|0:0,0:0:0:0:
224,174,215012,1,2,1:0:0:0:
199,255,215224,2,0,P|134:270|78:283,1,112.5
14,242,215857,1,10,0:1:0:0:
51,168,216069,1,4,0:0:0:0:
51,168,216280,2,0,P|46:136|37:94,1,56.25,6|0,0:0|0:0,0:0:0:0:
31,28,216702,6,0,B|142:42|95:100|199:106,1,168.75,4|0,1:2|0:0,0:0:0:0:
224,174,217547,2,0,P|229:201|233:229,1,56.25,8|0,0:1|0:0,0:0:0:0:
256,310,217970,1,2,1:0:0:0:
335,339,218181,1,2,0:1:0:0:
372,263,218393,1,2,1:0:0:0:
451,290,218604,1,2,0:1:0:0:
480,211,218815,2,2,B|421:159|432:220|369:190|421:159|359:127|369:190|305:154|359:127|275:116,1,225,2|2,0:1|0:1,0:1:0:0:
238,45,219871,1,0,0:0:0:0:
163,5,220083,6,2,B|123:113|201:65|193:169|123:113|112:216|193:169|177:276|112:216|141:337,1,337.5,2|0,1:0|1:0,0:1:0:0:
218,367,221562,1,0,0:0:0:0:
218,367,221773,2,2,P|260:314|362:352,1,168.75,6|0,1:0|0:0,0:1:0:0:
390,258,222618,2,2,P|331:203|353:126,1,168.75,6|2,1:1|0:1,0:1:0:0:
419,73,223463,1,4,0:0:0:0:
256,192,223674,12,4,226421,0:1:0:0:
256,192,226843,12,0,228745,0:0:0:0:
82,81,229167,5,0,1:2:0:0:
108,60,229378,2,0,L|165:79,1,56.25,8|4,0:1|0:3,0:0:0:0:
170,110,229801,2,0,L|257:94,2,56.25,0|0|4,1:0|1:0|0:0,0:0:0:0:
