osu file format v14

[General]
AudioFilename: audio.mp3
AudioLeadIn: 0
PreviewTime: 71
Countdown: 1
SampleSet: Normal
StackLeniency: 0.7
Mode: 1
LetterboxInBreaks: 0
WidescreenStoryboard: 0

[Editor]
DistanceSpacing: 1.1
BeatDivisor: 4
GridSize: 32
TimelineZoom: 1

[Metadata]
Title:THE ICE WOLF SONG!
TitleUnicode:THE ICE WOLF SONG!
Artist:Griffinilla
ArtistUnicode:Griffinilla
Creator:Vulkin
Version:Chill Oni
Source:Undertale
Tags:snowdin
BeatmapID:1048046
BeatmapSetID:491901

[Difficulty]
HPDrainRate:5
CircleSize:5
OverallDifficulty:5
ApproachRate:5
SliderMultiplier:1.4
SliderTickRate:1

[Events]
//Background and Video events
0,0,"CPf7aUcUwAAkX3a.png",0,0
//Break Periods
//Storyboard Layer 0 (Background)
//Storyboard Layer 1 (Fail)
//Storyboard Layer 2 (Pass)
//Storyboard Layer 3 (Foreground)
//Storyboard Sound Samples

[TimingPoints]
71,645.161290322581,4,1,0,100,1,0

[HitObjects]
256,192,71,5,8,0:0:0:0:
256,192,393,1,0,0:0:0:0:
256,192,716,1,0,0:0:0:0:
256,192,1038,1,8,0:0:0:0:
256,192,1200,1,8,0:0:0:0:
256,192,1522,1,0,0:0:0:0:
256,192,1683,1,0,0:0:0:0:
256,192,1845,1,0,0:0:0:0:
256,192,2006,1,8,0:0:0:0:
256,192,2167,1,0,0:0:0:0:
256,192,2329,1,8,0:0:0:0:
256,192,2651,1,8,0:0:0:0:
256,192,2974,1,0,0:0:0:0:
256,192,3135,1,8,0:0:0:0:
256,192,3296,1,8,0:0:0:0:
256,192,3619,1,0,0:0:0:0:
256,192,3780,1,0,0:0:0:0:
256,192,3941,1,8,0:0:0:0:
256,192,4103,1,8,0:0:0:0:
256,192,4264,1,0,0:0:0:0:
256,192,4425,1,0,0:0:0:0:
256,192,4587,1,8,0:0:0:0:
256,192,4909,1,8,0:0:0:0:
256,192,5232,1,0,0:0:0:0:
256,192,5554,1,0,0:0:0:0:
256,192,5877,1,8,0:0:0:0:
256,192,6200,1,8,0:0:0:0:
256,192,6522,1,0,0:0:0:0:
256,192,6683,1,0,0:0:0:0:
256,192,6845,1,8,0:0:0:0:
256,192,7167,1,0,0:0:0:0:
256,192,7329,1,0,0:0:0:0:
256,192,7490,1,8,0:0:0:0:
256,192,7812,1,8,0:0:0:0:
256,192,7974,1,8,0:0:0:0:
256,192,8135,1,0,0:0:0:0:
256,192,8296,1,0,0:0:0:0:
256,192,8458,1,8,0:0:0:0:
256,192,8780,1,8,0:0:0:0:
256,192,8941,1,8,0:0:0:0:
256,192,9103,1,0,0:0:0:0:
256,192,9264,1,0,0:0:0:0:
256,192,9425,1,8,0:0:0:0:
256,192,9587,1,0,0:0:0:0:
256,192,9748,1,8,0:0:0:0:
256,192,10071,1,0,0:0:0:0:
256,192,10393,1,8,0:0:0:0:
256,192,10716,1,0,0:0:0:0:
256,192,11038,1,8,0:0:0:0:
256,192,11361,1,0,0:0:0:0:
256,192,11522,1,8,0:0:0:0:
256,192,11845,1,8,0:0:0:0:
256,192,12006,1,8,0:0:0:0:
256,192,12167,1,0,0:0:0:0:
256,192,12329,1,8,0:0:0:0:
256,192,12490,1,8,0:0:0:0:
256,192,12651,1,0,0:0:0:0:
256,192,12974,1,8,0:0:0:0:
256,192,13296,1,0,0:0:0:0:
256,192,13458,1,0,0:0:0:0:
256,192,13619,1,8,0:0:0:0:
256,192,13780,1,0,0:0:0:0:
256,192,13941,1,8,0:0:0:0:
256,192,14103,1,8,0:0:0:0:
256,192,14264,1,0,0:0:0:0:
256,192,14425,1,8,0:0:0:0:
256,192,14587,1,0,0:0:0:0:
256,192,14748,1,0,0:0:0:0:
256,192,14909,1,8,0:0:0:0:
256,192,15232,1,8,0:0:0:0:
256,192,15554,1,0,0:0:0:0:
256,192,15877,1,8,0:0:0:0:
256,192,16200,1,8,0:0:0:0:
256,192,16361,1,8,0:0:0:0:
256,192,16522,1,0,0:0:0:0:
256,192,16683,1,0,0:0:0:0:
256,192,16845,1,8,0:0:0:0:
256,192,17006,1,0,0:0:0:0:
256,192,17167,1,8,0:0:0:0:
256,192,17490,1,8,0:0:0:0:
256,192,17651,1,0,0:0:0:0:
256,192,17812,1,8,0:0:0:0:
256,192,18135,1,0,0:0:0:0:
256,192,18296,1,0,0:0:0:0:
256,192,18458,1,8,0:0:0:0:
256,192,18619,1,8,0:0:0:0:
256,192,18780,1,0,0:0:0:0:
256,192,19103,1,8,0:0:0:0:
256,192,19425,1,8,0:0:0:0:
256,192,19587,1,8,0:0:0:0:
256,192,19748,1,0,0:0:0:0:
256,192,19909,1,0,0:0:0:0:
256,192,20071,1,8,0:0:0:0:
256,192,20232,1,0,0:0:0:0:
256,192,20393,1,0,0:0:0:0:
256,192,20716,1,8,0:0:0:0:
256,192,20877,1,8,0:0:0:0:
256,192,21038,1,0,0:0:0:0:
256,192,21200,1,0,0:0:0:0:
256,192,21361,1,8,0:0:0:0:
256,192,21683,1,0,0:0:0:0:
256,192,21845,1,8,0:0:0:0:
256,192,22006,1,0,0:0:0:0:
256,192,22167,1,0,0:0:0:0:
256,192,22329,1,8,0:0:0:0:
256,192,22490,1,0,0:0:0:0:
256,192,22651,1,8,0:0:0:0:
256,192,22974,1,0,0:0:0:0:
256,192,23135,1,0,0:0:0:0:
256,192,23296,1,8,0:0:0:0:
256,192,23458,1,8,0:0:0:0:
256,192,23619,1,0,0:0:0:0:
256,192,23941,1,8,0:0:0:0:
256,192,24103,1,8,0:0:0:0:
256,192,24264,1,0,0:0:0:0:
256,192,24425,1,0,0:0:0:0:
256,192,24587,1,8,0:0:0:0:
256,192,24909,1,0,0:0:0:0:
256,192,25071,1,8,0:0:0:0:
256,192,25232,1,0,0:0:0:0:
256,192,25393,1,0,0:0:0:0:
256,192,25554,1,8,0:0:0:0:
256,192,25716,1,8,0:0:0:0:
256,192,25877,1,0,0:0:0:0:
256,192,26200,1,0,0:0:0:0:
256,192,26361,1,0,0:0:0:0:
256,192,26522,1,8,0:0:0:0:
256,192,26683,1,0,0:0:0:0:
256,192,26845,1,8,0:0:0:0:
256,192,27167,1,8,0:0:0:0:
256,192,27329,1,8,0:0:0:0:
256,192,27490,1,0,0:0:0:0:
256,192,27651,1,0,0:0:0:0:
256,192,27812,1,8,0:0:0:0:
256,192,27974,1,8,0:0:0:0:
256,192,28135,1,0,0:0:0:0:
256,192,28296,1,0,0:0:0:0:
256,192,28458,1,8,0:0:0:0:
256,192,28780,1,0,0:0:0:0:
256,192,28941,1,0,0:0:0:0:
256,192,29103,1,8,0:0:0:0:
256,192,29264,1,8,0:0:0:0:
256,192,29425,1,0,0:0:0:0:
256,192,29748,1,8,0:0:0:0:
256,192,29909,1,8,0:0:0:0:
256,192,30071,1,0,0:0:0:0:
256,192,30232,1,0,0:0:0:0:
256,192,30393,1,8,0:0:0:0:
256,192,30716,1,8,0:0:0:0:
256,192,31038,1,0,0:0:0:0:
256,192,31361,1,8,0:0:0:0:
256,192,31522,1,8,0:0:0:0:
256,192,31683,1,0,0:0:0:0:
256,192,32006,1,0,0:0:0:0:
256,192,32167,1,0,0:0:0:0:
256,192,32329,1,8,0:0:0:0:
256,192,32490,1,0,0:0:0:0:
256,192,32651,1,8,0:0:0:0:
256,192,32974,1,8,0:0:0:0:
256,192,33135,1,8,0:0:0:0:
256,192,33296,1,0,0:0:0:0:
256,192,33458,1,0,0:0:0:0:
256,192,33619,1,8,0:0:0:0:
256,192,33941,1,0,0:0:0:0:
256,192,34103,1,0,0:0:0:0:
256,192,34264,1,8,0:0:0:0:
256,192,34425,1,0,0:0:0:0:
256,192,34587,1,8,0:0:0:0:
256,192,34909,1,8,0:0:0:0:
256,192,35071,1,8,0:0:0:0:
256,192,35232,1,8,0:0:0:0:
256,192,35393,1,0,0:0:0:0:
256,192,35554,1,0,0:0:0:0:
256,192,35877,1,0,0:0:0:0:
256,192,36200,1,8,0:0:0:0:
256,192,36361,1,8,0:0:0:0:
256,192,36522,1,0,0:0:0:0:
256,192,36683,1,0,0:0:0:0:
256,192,36845,1,8,0:0:0:0:
256,192,37167,1,8,0:0:0:0:
256,192,37490,1,0,0:0:0:0:
256,192,37651,1,0,0:0:0:0:
256,192,37812,1,8,0:0:0:0:
256,192,37974,1,0,0:0:0:0:
256,192,38135,1,0,0:0:0:0:
256,192,38296,1,0,0:0:0:0:
256,192,38458,1,8,0:0:0:0:
256,192,38619,1,0,0:0:0:0:
256,192,38780,1,0,0:0:0:0:
256,192,39103,1,0,0:0:0:0:
256,192,39264,1,0,0:0:0:0:
256,192,39425,1,8,0:0:0:0:
256,192,39587,1,0,0:0:0:0:
256,192,39748,1,8,0:0:0:0:
256,192,40071,1,8,0:0:0:0:
256,192,40232,1,8,0:0:0:0:
256,192,40393,1,0,0:0:0:0:
256,192,40554,1,0,0:0:0:0:
256,192,40716,1,8,0:0:0:0:
256,192,41038,1,8,0:0:0:0:
