osu file format v14

[General]
AudioFilename: audio.mp3
AudioLeadIn: 0
PreviewTime: 56151
Countdown: 0
SampleSet: None
StackLeniency: 0.5
Mode: 0
LetterboxInBreaks: 0
WidescreenStoryboard: 0

[Editor]
DistanceSpacing: 1.3
BeatDivisor: 4
GridSize: 4
TimelineZoom: 1.9

[Metadata]
Title:Hikaru nara (TV size)
TitleUnicode:光るなら (TV Size)
Artist:Griffin x Glaceon
ArtistUnicode:Griffin x Glaceon
Creator:Glaceon
Version:cute lolis glaceon and griffin
Source:四月は君の嘘
Tags:
BeatmapID:1973557
BeatmapSetID:945048

[Difficulty]
HPDrainRate:5
CircleSize:4
OverallDifficulty:8.8
ApproachRate:9.2
SliderMultiplier:2
SliderTickRate:1

[Events]
//Background and Video events
0,0,"dasjdh89d7h32d32d.jpg",0,0
//Break Periods
//Storyboard Layer 0 (Background)
//Storyboard Layer 1 (Fail)
//Storyboard Layer 2 (Pass)
//Storyboard Layer 3 (Foreground)
//Storyboard Sound Samples

[TimingPoints]
-755,375,4,2,0,70,1,0
745,-133.333333333333,4,2,0,70,0,0
3745,-117.647058823529,4,2,0,70,0,0
11151,-117.647058823529,4,2,0,5,0,0
11245,-117.647058823529,4,2,0,70,0,0
29151,-117.647058823529,4,2,0,5,0,0
29245,-117.647058823529,4,2,0,70,0,0
38151,-117.647058823529,4,2,0,5,0,0
38245,-117.647058823529,4,2,0,70,0,0
41245,-133.333333333333,4,2,0,70,0,0
42651,-133.333333333333,4,2,0,5,0,0
42745,-133.333333333333,4,2,0,70,0,0
44151,-133.333333333333,4,2,0,5,0,0
44245,-133.333333333333,4,2,0,70,0,0
45651,-133.333333333333,4,2,0,5,0,0
45745,-133.333333333333,4,2,0,70,0,0
47245,-117.647058823529,4,2,0,70,0,0
50151,-117.647058823529,4,2,0,5,0,0
50245,-117.647058823529,4,2,0,70,0,0
56245,374.414976599064,4,2,0,70,1,1
78616,-100,4,2,0,5,0,1
78669,375,4,2,0,70,1,1
80169,-117.647058823529,4,2,0,70,0,0
80450,-117.647058823529,4,2,0,5,0,0
80566,375,4,2,0,70,1,0
80566,-117.647058823529,4,2,0,70,0,0
81691,375,4,2,0,70,1,0
81691,-117.647058823529,4,2,0,70,0,0
98097,-117.647058823529,4,2,0,5,0,0
98191,-117.647058823529,4,2,0,70,0,0
108691,-117.647058823529,4,2,0,5,0,0

[HitObjects]
61,278,745,6,0,L|55:372,2,75.0000028610231
37,156,1307,6,0,B|77:180|123:166|110:160|157:153|202:176,1,150.000005722046
302,235,1870,1,0,0:0:0:0:
255,82,2057,6,0,B|219:125|219:125|118:119,1,150.000005722046
225,0,2620,1,0,0:0:0:0:
345,102,2807,5,0,0:0:0:0:
352,109,3557,1,0,0:0:0:0:
352,109,3651,1,0,0:0:0:0:
352,109,3745,5,0,0:0:0:0:
240,296,3932,1,0,0:0:0:0:
256,68,4120,5,0,0:0:0:0:
443,218,4307,2,0,L|356:209,1,85.0000016212464
185,196,4682,1,0,0:0:0:0:
325,21,4870,1,0,0:0:0:0:
325,21,4963,1,0,0:0:0:0:
325,21,5057,1,0,0:0:0:0:
293,252,5245,5,0,0:0:0:0:
169,96,5432,1,0,0:0:0:0:
163,296,5620,1,0,0:0:0:0:
260,130,5807,2,0,L|251:40,1,85.0000016212464
79,146,6182,2,0,L|70:235,1,85.0000016212464
362,213,6557,1,0,0:0:0:0:
362,213,6651,1,0,0:0:0:0:
362,213,6745,6,0,B|315:169|315:169|201:180,1,170.000003242493
386,304,7307,2,0,P|438:265|451:221,1,85.0000016212464
410,81,7682,2,0,P|417:145|449:178,1,85.0000016212464
484,26,8057,1,0,0:0:0:0:
316,83,8245,6,0,P|254:107|132:87,1,170.000003242493
50,224,8807,2,0,L|161:214,1,85.0000016212464
74,38,9182,2,0,P|53:92|62:143,1,85.0000016212464
229,20,9557,1,0,0:0:0:0:
134,216,9745,6,0,B|217:219|217:219|229:212|229:212|322:216,2,170.000003242493
375,137,10682,1,0,0:0:0:0:
343,330,10870,2,0,P|306:269|306:190,1,127.50000243187
292,132,11245,6,0,L|183:140,1,85.0000016212464
390,251,11620,2,0,L|499:259,1,85.0000016212464
375,137,11995,1,0,0:0:0:0:
288,288,12182,1,0,0:0:0:0:
465,133,12370,2,0,P|443:80|398:50,1,85.0000016212464
217,146,12745,6,0,P|279:168|385:126,1,170.000003242493
124,119,13307,2,0,L|132:223,1,85.0000016212464
292,85,13682,2,0,L|298:0,1,85.0000016212464
124,119,14057,1,0,0:0:0:0:
392,104,14245,5,0,0:0:0:0:
110,36,14432,1,0,0:0:0:0:
110,36,14807,5,0,0:0:0:0:
351,239,14995,1,0,0:0:0:0:
351,239,15370,5,0,0:0:0:0:
298,0,15557,1,0,0:0:0:0:
298,0,15932,5,0,0:0:0:0:
180,292,16120,1,0,0:0:0:0:
225,72,16307,1,0,0:0:0:0:
284,325,16495,1,0,0:0:0:0:
137,123,16682,1,0,0:0:0:0:
387,169,16870,1,0,0:0:0:0:
155,298,17057,1,0,0:0:0:0:
363,16,17245,6,0,B|406:67|406:67|383:189,1,170.000003242493
344,305,17807,1,0,0:0:0:0:
290,125,17995,1,0,0:0:0:0:
245,340,18182,1,0,0:0:0:0:
386,168,18370,1,0,0:0:0:0:
177,201,18557,1,0,0:0:0:0:
432,341,18745,6,0,L|424:236,1,85.0000016212464
408,68,19120,1,0,0:0:0:0:
263,256,19307,2,0,L|376:245,1,85.0000016212464
492,76,19682,2,0,L|379:65,1,85.0000016212464
217,44,20057,1,0,0:0:0:0:
409,172,20245,5,0,0:0:0:0:
409,172,20620,1,0,0:0:0:0:
321,10,20807,1,0,0:0:0:0:
290,200,20995,2,0,L|304:84,1,85.0000016212464
195,253,21370,1,0,0:0:0:0:
364,252,21557,1,0,0:0:0:0:
200,80,21745,6,0,L|210:164,1,85.0000016212464
241,335,22120,1,0,0:0:0:0:
381,135,22307,2,0,P|321:115|262:124,1,85.0000016212464
445,241,22682,2,0,P|492:199|514:143,1,85.0000016212464
357,20,23057,1,0,0:0:0:0:
357,20,23151,1,0,0:0:0:0:
357,20,23245,5,0,0:0:0:0:
357,20,23620,2,0,L|345:139,1,85.0000016212464
261,236,23995,1,0,0:0:0:0:
434,141,24182,1,0,0:0:0:0:
186,172,24370,2,0,P|166:225|171:288,1,85.0000016212464
320,294,24651,1,0,0:0:0:0:
320,294,24745,6,0,P|284:250|227:223,1,85.0000016212464
72,158,25120,2,0,P|106:133|131:99,1,85.0000016212464
0,103,25495,1,0,0:0:0:0:
21,235,25682,1,0,0:0:0:0:
215,91,25870,2,0,L|105:101,1,85.0000016212464
260,235,26245,6,0,L|370:245,1,85.0000016212464
215,91,26620,1,0,0:0:0:0:
381,34,26807,1,0,0:0:0:0:
175,181,26995,2,0,P|135:143|120:93,1,85.0000016212464
293,149,27370,1,0,0:0:0:0:
164,265,27557,6,0,L|178:148,1,85.0000016212464
282,64,27932,2,0,L|292:148,1,85.0000016212464
138,298,28307,2,0,L|152:181,1,85.0000016212464
256,97,28682,1,0,0:0:0:0:
261,312,28870,2,0,P|195:317|115:282,1,127.50000243187
70,240,29245,5,0,0:0:0:0:
70,240,29620,2,0,L|80:128,1,85.0000016212464
257,19,29995,1,0,0:0:0:0:
152,177,30182,1,0,0:0:0:0:
164,6,30370,1,0,0:0:0:0:
245,187,30557,1,0,0:0:0:0:
44,69,30745,6,0,L|154:80,1,85.0000016212464
329,178,31120,2,0,L|219:189,1,85.0000016212464
410,96,31495,1,0,0:0:0:0:
190,263,31682,2,0,P|163:220|156:169,1,85.0000016212464
202,74,32057,1,0,0:0:0:0:
314,342,32245,6,0,B|272:326|223:337|232:344|185:359|143:339,2,170.000003242493
476,315,33182,1,0,0:0:0:0:
336,203,33370,1,0,0:0:0:0:
376,384,33557,1,0,0:0:0:0:
433,168,33745,5,0,0:0:0:0:
251,207,33932,2,0,L|370:200,1,85.0000016212464
466,79,34307,2,0,L|347:72,1,85.0000016212464
182,150,34682,1,0,0:0:0:0:
296,5,34870,1,0,0:0:0:0:
318,125,35057,1,0,0:0:0:0:
93,95,35245,6,0,P|154:58|260:83,2,170.000003242493
16,202,36182,1,0,0:0:0:0:
189,234,36370,2,0,L|179:116,1,85.0000016212464
105,178,36651,1,0,0:0:0:0:
105,178,36745,6,0,L|97:262,1,85.0000016212464
261,255,37120,2,0,P|195:233|153:238,1,85.0000016212464
304,344,37495,1,0,0:0:0:0:
299,174,37682,1,0,0:0:0:0:
394,322,37870,2,0,P|446:275|457:201,1,127.50000243187
442,134,38245,5,0,0:0:0:0:
261,255,38432,1,0,0:0:0:0:
273,83,38620,2,0,L|376:89,1,85.0000016212464
192,201,38995,2,0,L|89:207,1,85.0000016212464
273,83,39370,1,0,0:0:0:0:
81,293,39557,6,0,P|38:262|18:208,1,85.0000016212464
151,91,39932,1,0,0:0:0:0:
180,283,40120,2,0,P|174:335|137:380,1,85.0000016212464
270,203,40495,2,0,L|368:212,1,85.0000016212464
235,83,40870,2,0,L|137:92,1,85.0000016212464
298,27,41245,5,0,0:0:0:0:
317,128,41432,1,0,0:0:0:0:
452,74,41620,2,0,L|367:66,1,75.0000028610231
235,83,41995,1,0,0:0:0:0:
235,83,42370,2,0,P|221:132|249:202,1,112.500004291535
297,238,42745,5,0,0:0:0:0:
188,247,42932,1,0,0:0:0:0:
248,318,43120,1,0,0:0:0:0:
141,326,43307,2,0,B|100:283|100:283|119:175,1,150.000005722046
141,58,43870,2,0,P|184:76|268:65,1,112.500004291535
315,31,44245,5,0,0:0:0:0:
359,129,44432,1,0,0:0:0:0:
234,243,44620,1,0,0:0:0:0:
278,145,44807,1,0,0:0:0:0:
418,192,44995,2,0,P|378:214|326:212,1,75.0000028610231
167,186,45370,2,0,P|149:232|168:310,1,112.500004291535
215,347,45745,5,0,0:0:0:0:
83,288,45932,2,0,L|181:294,1,75.0000028610231
235,130,46307,2,0,B|195:94|195:94|76:124,1,150.000005722046
251,219,46870,1,0,0:0:0:0:
296,74,47057,1,0,0:0:0:0:
146,227,47245,5,0,0:0:0:0:
334,173,47432,1,0,0:0:0:0:
110,96,47620,1,0,0:0:0:0:
377,101,47807,1,0,0:0:0:0:
242,303,47995,2,0,L|253:197,1,85.0000016212464
265,41,48370,1,0,0:0:0:0:
334,173,48557,1,0,0:0:0:0:
161,80,48745,5,0,0:0:0:0:
349,28,48932,1,0,0:0:0:0:
157,197,49120,2,0,L|43:185,1,85.0000016212464
236,116,49495,1,0,0:0:0:0:
248,260,49682,1,0,0:0:0:0:
14,129,49870,2,0,P|-4:196|16:254,1,127.50000243187
83,290,50245,6,0,L|73:383,1,85.0000016212464
248,260,50620,2,0,L|238:175,1,85.0000016212464
86,89,50995,1,0,0:0:0:0:
165,207,51182,1,0,0:0:0:0:
153,6,51370,1,0,0:0:0:0:
15,232,51557,6,0,B|76:264|76:264|175:204,1,170.000003242493
328,97,52120,1,0,0:0:0:0:
328,97,52495,2,0,L|214:109,1,85.0000016212464
339,240,52870,2,0,L|453:252,1,85.0000016212464
147,120,53245,5,0,0:0:0:0:
309,345,53432,1,0,0:0:0:0:
309,345,53807,5,0,0:0:0:0:
394,34,53995,1,0,0:0:0:0:
394,34,54370,5,0,0:0:0:0:
68,309,54557,2,0,P|122:331|245:272,1,170.000003242493
295,142,55120,5,0,0:0:0:0:
138,250,55307,1,0,0:0:0:0:
207,64,55495,1,0,0:0:0:0:
323,280,55682,1,0,0:0:0:0:
294,35,55870,1,0,0:0:0:0:
224,298,56057,1,0,0:0:0:0:
377,80,56245,5,0,0:0:0:0:
109,128,56432,1,0,0:0:0:0:
390,202,56619,1,0,0:0:0:0:
133,302,56806,2,0,L|145:169,1,100
261,69,57181,1,0,0:0:0:0:
51,190,57368,1,0,0:0:0:0:
312,244,57555,6,0,B|406:244|406:244|409:237|409:237|530:237,1,200
214,142,58117,1,0,0:0:0:0:
285,338,58304,2,0,P|311:268|305:210,1,100
261,69,58678,1,0,0:0:0:0:
221,269,58865,1,0,0:0:0:0:
340,111,59053,1,0,0:0:0:0:
121,168,59240,5,0,0:0:0:0:
390,259,59427,1,0,0:0:0:0:
116,275,59614,1,0,0:0:0:0:
349,11,59801,2,0,L|337:138,1,100
221,269,60176,1,0,0:0:0:0:
427,132,60363,1,0,0:0:0:0:
111,68,60550,6,0,L|123:195,1,100
137,341,60925,1,0,0:0:0:0:
305,165,61112,2,0,L|188:182,1,100
361,274,61486,1,0,0:0:0:0:
341,73,61674,2,0,P|312:124|309:207,1,100
452,47,62048,1,0,0:0:0:0:
465,223,62235,5,0,0:0:0:0:
268,13,62422,1,0,0:0:0:0:
489,133,62609,1,0,0:0:0:0:
282,238,62797,2,0,L|177:245,1,100
389,126,63171,2,0,L|494:133,1,100
268,13,63546,6,0,B|215:-6|155:6|166:15|108:34|55:9,1,200
65,188,64107,1,0,0:0:0:0:
213,75,64294,1,0,0:0:0:0:
182,296,64482,1,0,0:0:0:0:
0,117,64669,2,0,P|66:98|179:194,1,200
265,347,65230,5,0,0:0:0:0:
258,147,65418,1,0,0:0:0:0:
88,299,65605,1,0,0:0:0:0:
356,246,65792,2,0,L|344:115,1,100
257,265,66166,1,0,0:0:0:0:
439,317,66354,1,0,0:0:0:0:
183,354,66541,1,0,0:0:0:0:
501,367,66728,5,0,0:0:0:0:
258,147,66915,1,0,0:0:0:0:
321,384,67103,5,0,0:0:0:0:
410,122,67290,1,0,0:0:0:0:
437,376,67477,5,0,0:0:0:0:
328,88,67664,1,0,0:0:0:0:
183,354,67851,5,0,0:0:0:0:
490,162,68039,1,0,0:0:0:0:
176,121,68226,5,0,0:0:0:0:
414,287,68413,1,0,0:0:0:0:
323,0,68600,1,0,0:0:0:0:
235,264,68787,2,0,L|357:252,1,100
176,121,69162,2,0,L|54:109,1,100
405,50,69536,6,0,P|420:108|413:165,1,100
334,254,69911,1,0,0:0:0:0:
512,172,70098,1,0,0:0:0:0:
298,146,70285,2,0,P|254:169|219:205,1,100
430,331,70659,2,0,B|463:262|463:262|412:135,1,200
268,34,71221,5,0,0:0:0:0:
473,80,71408,1,0,0:0:0:0:
180,123,71596,1,0,0:0:0:0:
368,0,71783,2,0,L|357:136,1,100
296,217,72157,1,0,0:0:0:0:
473,80,72344,1,0,0:0:0:0:
194,51,72532,1,0,0:0:0:0:
421,207,72719,5,0,0:0:0:0:
284,33,72906,1,0,0:0:0:0:
180,294,73093,1,0,0:0:0:0:
400,121,73280,2,0,L|266:126,1,100
99,179,73655,1,0,0:0:0:0:
284,33,73842,1,0,0:0:0:0:
259,285,74029,1,0,0:0:0:0:
116,45,74216,5,0,0:0:0:0:
148,310,74404,1,0,0:0:0:0:
229,93,74591,1,0,0:0:0:0:
0,188,74778,2,0,L|112:177,1,100
328,102,75152,2,0,L|216:91,1,100
327,354,75527,6,0,P|351:286|348:238,1,100
184,153,75901,1,0,0:0:0:0:
267,282,76088,1,0,0:0:0:0:
420,51,76276,2,0,B|454:101|454:101|417:245,1,200
167,289,76837,2,0,L|280:281,1,100
113,110,77212,5,0,0:0:0:0:
29,340,77399,1,0,0:0:0:0:
212,100,77586,1,0,0:0:0:0:
224,363,77773,5,0,0:0:0:0:
152,39,77961,1,0,0:0:0:0:
86,280,78148,1,0,0:0:0:0:
295,95,78335,6,0,P|340:75|459:88,1,150
484,146,78669,6,0,L|466:287,1,100
238,326,79044,1,0,0:0:0:0:
380,164,79231,1,0,0:0:0:0:
393,378,79419,1,0,0:0:0:0:
266,140,79606,1,0,0:0:0:0:
471,245,79794,1,0,0:0:0:0:
163,331,79981,1,0,0:0:0:0:
350,79,80169,6,0,P|302:48|197:58,1,127.50000243187
163,87,80566,2,0,L|172:198,1,85.0000016212464
344,255,80941,2,0,L|350:170,1,85.0000016212464
105,242,81316,2,0,P|148:263|205:269,1,85.0000016212464
63,144,81691,6,0,P|23:170|-10:217,1,85.0000016212464
168,156,82066,2,0,P|164:108|141:55,1,85.0000016212464
33,272,82441,2,0,L|40:383,1,85.0000016212464
254,202,82816,2,0,L|259:117,1,85.0000016212464
157,250,83191,5,0,0:0:0:0:
310,293,83378,1,0,0:0:0:0:
126,355,83566,1,0,0:0:0:0:
341,212,83753,6,0,B|427:220|427:220|429:214|429:214|525:222,1,170.000003242493
277,111,84316,1,0,0:0:0:0:
234,281,84503,1,0,0:0:0:0:
390,103,84691,1,0,0:0:0:0:
121,136,84878,6,0,P|187:152|289:95,1,170.000003242493
41,77,85441,2,0,P|23:124|30:180,1,85.0000016212464
338,166,85816,2,0,P|306:126|254:104,1,85.0000016212464
97,324,86191,6,0,L|207:312,1,85.0000016212464
422,175,86566,2,0,L|312:163,1,85.0000016212464
174,1,86941,1,0,0:0:0:0:
350,87,87128,1,0,0:0:0:0:
157,184,87316,2,0,L|169:74,1,85.0000016212464
261,250,87691,5,0,0:0:0:0:
18,279,87878,2,0,P|63:249|123:245,1,85.0000016212464
250,353,88253,2,0,P|201:329|168:279,1,85.0000016212464
256,139,88628,1,0,0:0:0:0:
324,302,88816,1,0,0:0:0:0:
342,96,89003,1,0,0:0:0:0:
214,252,89191,5,0,0:0:0:0:
428,122,89378,1,0,0:0:0:0:
175,90,89566,1,0,0:0:0:0:
417,289,89753,6,0,B|409:238|417:194|426:205|445:162|419:92,1,170.000003242493
260,36,90316,1,0,0:0:0:0:
326,347,90503,6,0,P|390:380|509:352,1,170.000003242493
223,286,91066,2,0,L|231:385,1,85.0000016212464
329,152,91441,2,0,L|321:251,1,85.0000016212464
223,18,91816,2,0,L|231:117,1,85.0000016212464
155,249,92191,5,0,0:0:0:0:
310,74,92378,1,0,0:0:0:0:
97,103,92566,1,0,0:0:0:0:
322,236,92753,2,0,L|431:228,1,85.0000016212464
181,109,93128,2,0,L|72:101,1,85.0000016212464
394,34,93503,1,0,0:0:0:0:
394,34,93597,1,0,0:0:0:0:
394,34,93691,5,0,0:0:0:0:
238,201,93878,1,0,0:0:0:0:
277,0,94066,1,0,0:0:0:0:
435,165,94253,2,0,P|399:133|332:116,1,85.0000016212464
238,288,94628,2,0,P|283:272|331:223,1,85.0000016212464
137,257,95003,1,0,0:0:0:0:
424,360,95191,6,0,L|413:243,1,85.0000016212464
395,76,95566,1,0,0:0:0:0:
206,166,95753,2,0,L|318:174,1,85.0000016212464
479,69,96128,2,0,L|367:77,1,85.0000016212464
135,46,96503,1,0,0:0:0:0:
135,46,96597,1,0,0:0:0:0:
135,46,96691,6,0,B|194:73|194:73|317:32,2,170.000003242493
0,111,97628,1,0,0:0:0:0:
99,261,97816,2,0,P|142:227|248:219,1,127.50000243187
291,235,98191,6,0,L|276:353,1,85.0000016212464
99,261,98566,2,0,L|88:176,1,85.0000016212464
332,102,98941,1,0,0:0:0:0:
195,246,99128,1,0,0:0:0:0:
163,40,99316,2,0,L|266:47,1,85.0000016212464
430,227,99691,6,0,P|370:191|333:79,1,170.000003242493
511,248,100253,2,0,P|482:291|439:311,1,85.0000016212464
252,81,100628,2,0,P|303:84|342:111,1,85.0000016212464
133,214,101003,1,0,0:0:0:0:
133,214,101097,1,0,0:0:0:0:
133,214,101191,5,0,0:0:0:0:
436,126,101378,1,0,0:0:0:0:
436,126,101753,5,0,0:0:0:0:
97,86,101941,1,0,0:0:0:0:
97,86,102316,5,0,0:0:0:0:
466,29,102503,2,0,L|453:215,1,170.000003242493
248,311,103066,5,0,0:0:0:0:
373,142,103253,1,0,0:0:0:0:
356,357,103441,1,0,0:0:0:0:
278,124,103628,1,0,0:0:0:0:
162,362,103816,1,0,0:0:0:0:
247,37,104003,1,0,0:0:0:0:
256,192,104097,12,0,108691,0:0:0:0:
