osu file format v14

[General]
AudioFilename: audio.mp3
AudioLeadIn: 0
PreviewTime: 15139
Countdown: 0
SampleSet: Soft
StackLeniency: 0.7
Mode: 3
LetterboxInBreaks: 0
SpecialStyle: 0
WidescreenStoryboard: 0

[Editor]
DistanceSpacing: 1.5
BeatDivisor: 4
GridSize: 32
TimelineZoom: 1

[Metadata]
Title:Mumbo AFK (elybeatmaker Remix)
TitleUnicode:Mumbo AFK (elybeatmaker Remix)
Artist:Grian
ArtistUnicode:Grian
Creator:SpeckyYT
Version:MN
Source:YouTube
Tags:mumbo jumbo
BeatmapID:1759669
BeatmapSetID:840706

[Difficulty]
HPDrainRate:5
CircleSize:4
OverallDifficulty:5
ApproachRate:5
SliderMultiplier:3
SliderTickRate:1

[Events]
//Background and Video events
Video,0,"Grian - Mumbo AFK (elybeatmaker Remix) (1).mp4"
0,0,"afk.jpg",0,0
//Break Periods
//Storyboard Layer 0 (Background)
//Storyboard Layer 1 (Fail)
//Storyboard Layer 2 (Pass)
//Storyboard Layer 3 (Foreground)
//Storyboard Sound Samples

[TimingPoints]
500,472.44094488189,4,2,0,100,1,0

[HitObjects]
64,192,500,5,0,0:0:0:0:
192,192,736,1,0,0:0:0:0:
320,192,972,1,0,0:0:0:0:
448,192,1208,1,0,0:0:0:0:
448,192,1444,1,0,0:0:0:0:
320,192,1681,1,0,0:0:0:0:
192,192,1917,1,0,0:0:0:0:
64,192,2153,1,0,0:0:0:0:
192,192,2389,128,0,4279:0:0:0:0:
448,192,4279,1,0,0:0:0:0:
320,192,4515,1,0,0:0:0:0:
192,192,4751,1,0,0:0:0:0:
64,192,4988,1,0,0:0:0:0:
64,192,5224,1,0,0:0:0:0:
192,192,5460,1,0,0:0:0:0:
320,192,5696,1,0,0:0:0:0:
448,192,5933,1,0,0:0:0:0:
192,192,6169,128,0,8059:0:0:0:0:
64,192,8059,1,0,0:0:0:0:
192,192,8295,1,0,0:0:0:0:
320,192,8531,1,0,0:0:0:0:
448,192,8767,1,0,0:0:0:0:
448,192,9003,1,0,0:0:0:0:
320,192,9240,1,0,0:0:0:0:
192,192,9476,1,0,0:0:0:0:
64,192,9712,1,0,0:0:0:0:
448,192,9948,128,0,10421:0:0:0:0:
320,192,10421,128,0,10893:0:0:0:0:
192,192,10893,128,0,11366:0:0:0:0:
64,192,11366,128,0,11838:0:0:0:0:
448,192,11838,1,0,0:0:0:0:
320,192,12074,1,0,0:0:0:0:
64,192,12192,1,0,0:0:0:0:
192,192,12311,1,0,0:0:0:0:
320,192,12547,1,0,0:0:0:0:
448,192,12783,128,0,13255:0:0:0:0:
320,192,13255,128,0,13492:0:0:0:0:
192,192,13492,128,0,13728:0:0:0:0:
64,192,13728,128,8,14437:0:0:0:0:
64,192,15618,1,8,0:0:0:0:
320,192,15854,1,0,0:0:0:0:
192,192,16090,1,8,0:0:0:0:
320,192,16326,1,0,0:0:0:0:
448,192,16562,1,8,0:0:0:0:
192,192,16799,1,0,0:0:0:0:
64,192,17035,1,8,0:0:0:0:
448,192,17271,1,0,0:0:0:0:
192,192,17507,128,8,18452:0:0:0:0:
320,192,19397,1,8,0:0:0:0:
192,192,19633,1,0,0:0:0:0:
320,192,19870,1,8,0:0:0:0:
448,192,20106,1,0,0:0:0:0:
320,192,20342,1,8,0:0:0:0:
192,192,20578,1,0,0:0:0:0:
64,192,20814,1,8,0:0:0:0:
448,192,21051,1,0,0:0:0:0:
320,192,21287,128,8,22232:0:0:0:0:
448,192,23177,1,8,0:0:0:0:
192,192,23413,1,0,0:0:0:0:
320,192,23649,1,8,0:0:0:0:
64,192,23885,1,0,0:0:0:0:
320,192,24122,1,8,0:0:0:0:
64,192,24358,1,0,0:0:0:0:
320,192,24594,1,8,0:0:0:0:
192,192,24830,1,0,0:0:0:0:
448,192,25066,128,8,25539:0:0:0:0:
320,192,25539,128,8,26011:0:0:0:0:
192,192,26011,128,8,26484:0:0:0:0:
64,192,26484,128,8,26956:0:0:0:0:
448,192,26956,1,8,0:0:0:0:
320,192,27192,1,0,0:0:0:0:
192,192,27311,1,0,0:0:0:0:
448,192,27429,1,8,0:0:0:0:
320,192,27665,1,0,0:0:0:0:
192,192,27901,128,8,28374:0:0:0:0:
320,192,28374,1,8,0:0:0:0:
192,192,28610,1,0,0:0:0:0:
64,192,28846,128,8,30263:0:0:0:0:
64,192,30736,1,8,0:0:0:0:
64,192,31208,1,8,0:0:0:0:
64,192,31681,1,8,0:0:0:0:
192,192,32153,1,8,0:0:0:0:
320,192,32389,1,0,0:0:0:0:
192,192,32625,1,8,0:0:0:0:
192,192,33098,1,8,0:0:0:0:
192,192,33570,1,8,0:0:0:0:
192,192,34043,1,8,0:0:0:0:
192,192,34279,1,0,0:0:0:0:
320,192,34515,1,8,0:0:0:0:
320,192,34988,1,8,0:0:0:0:
320,192,35460,1,8,0:0:0:0:
192,192,35933,1,8,0:0:0:0:
64,192,36169,1,0,0:0:0:0:
448,192,36405,1,8,0:0:0:0:
448,192,36877,1,8,0:0:0:0:
448,192,37350,1,8,0:0:0:0:
192,192,38295,1,8,0:0:0:0:
320,192,38531,1,0,0:0:0:0:
448,192,38767,1,8,0:0:0:0:
192,192,39003,1,0,0:0:0:0:
320,192,39240,1,8,0:0:0:0:
64,192,39476,1,0,0:0:0:0:
320,192,39712,1,8,0:0:0:0:
192,192,39948,1,0,0:0:0:0:
448,192,40185,128,8,41129:0:0:0:0:
192,192,42074,1,8,0:0:0:0:
320,192,42311,1,0,0:0:0:0:
64,192,42547,1,8,0:0:0:0:
192,192,42783,1,0,0:0:0:0:
448,192,43019,1,8,0:0:0:0:
320,192,43255,1,0,0:0:0:0:
192,192,43492,1,8,0:0:0:0:
320,192,43728,1,0,0:0:0:0:
448,192,43964,128,8,44909:0:0:0:0:
192,192,45854,1,8,0:0:0:0:
320,192,46090,1,0,0:0:0:0:
192,192,46326,1,8,0:0:0:0:
320,192,46562,1,0,0:0:0:0:
448,192,46799,1,8,0:0:0:0:
192,192,47035,1,0,0:0:0:0:
320,192,47271,1,8,0:0:0:0:
64,192,47507,1,0,0:0:0:0:
448,192,47744,128,8,48216:0:0:0:0:
320,192,48216,128,8,48688:0:0:0:0:
192,192,48688,128,8,49161:0:0:0:0:
64,192,49161,128,8,49633:0:0:0:0:
320,192,49633,1,8,0:0:0:0:
192,192,49870,1,0,0:0:0:0:
320,192,49988,1,0,0:0:0:0:
448,192,50106,1,8,0:0:0:0:
320,192,50342,1,0,0:0:0:0:
192,192,50578,128,8,51051:0:0:0:0:
320,192,51051,1,0,0:0:0:0:
192,192,51287,1,0,0:0:0:0:
64,192,51523,1,8,0:0:0:0:
448,192,51759,1,0,0:0:0:0:
320,192,51877,1,0,0:0:0:0:
192,192,51996,1,8,0:0:0:0:
64,192,52232,1,0,0:0:0:0:
448,192,52468,128,8,52940:0:0:0:0:
192,192,52940,1,8,0:0:0:0:
320,192,53177,1,0,0:0:0:0:
64,192,53413,128,8,55066:0:0:0:0:
192,192,53413,1,8,0:0:0:0:
448,192,53649,1,0,0:0:0:0:
192,192,53885,1,8,0:0:0:0:
320,192,54122,1,0,0:0:0:0:
192,192,54358,1,8,0:0:0:0:
448,192,54594,1,0,0:0:0:0:
192,192,54830,1,8,0:0:0:0:
448,192,55066,1,0,0:0:0:0:
192,192,55303,1,8,0:0:0:0:
320,192,55303,128,8,57192:0:0:0:0:
64,192,55539,1,0,0:0:0:0:
448,192,55775,1,8,0:0:0:0:
64,192,56011,1,0,0:0:0:0:
192,192,56248,1,8,0:0:0:0:
64,192,56484,1,0,0:0:0:0:
448,192,56720,1,8,0:0:0:0:
192,192,56956,1,0,0:0:0:0:
192,192,57192,128,8,58846:0:0:0:0:
320,192,57429,1,0,0:0:0:0:
64,192,57665,1,10,0:0:0:0:
320,192,57901,1,0,0:0:0:0:
448,192,58137,1,10,0:0:0:0:
320,192,58374,1,0,0:0:0:0:
64,192,58610,1,10,0:0:0:0:
448,192,58846,1,0,0:0:0:0:
64,192,59082,128,8,59555:0:0:0:0:
448,192,59555,128,8,60027:0:0:0:0:
64,192,60972,1,0,0:0:0:0:
192,192,61208,1,0,0:0:0:0:
320,192,61444,1,0,0:0:0:0:
448,192,61681,1,0,0:0:0:0:
448,192,61917,1,0,0:0:0:0:
320,192,62153,1,0,0:0:0:0:
192,192,62389,1,0,0:0:0:0:
64,192,62625,1,0,0:0:0:0:
192,192,62862,128,0,63807:0:0:0:0:
448,192,64751,1,0,0:0:0:0:
320,192,64988,1,0,0:0:0:0:
192,192,65224,1,0,0:0:0:0:
64,192,65460,1,0,0:0:0:0:
64,192,65696,1,0,0:0:0:0:
192,192,65933,1,0,0:0:0:0:
320,192,66169,1,0,0:0:0:0:
448,192,66405,1,0,0:0:0:0:
192,192,66641,128,0,67586:0:0:0:0:
64,192,68531,1,0,0:0:0:0:
192,192,68767,1,0,0:0:0:0:
320,192,69003,1,0,0:0:0:0:
448,192,69240,1,0,0:0:0:0:
448,192,69476,1,0,0:0:0:0:
320,192,69712,1,0,0:0:0:0:
192,192,69948,1,0,0:0:0:0:
64,192,70185,1,0,0:0:0:0:
448,192,70421,128,0,70893:0:0:0:0:
320,192,70893,128,0,71366:0:0:0:0:
192,192,71366,128,0,71838:0:0:0:0:
64,192,71838,128,0,72311:0:0:0:0:
320,192,72311,1,0,0:0:0:0:
192,192,72547,1,0,0:0:0:0:
320,192,72665,1,0,0:0:0:0:
448,192,72783,1,0,0:0:0:0:
192,192,73019,1,0,0:0:0:0:
64,192,73255,128,0,73728:0:0:0:0:
192,192,73728,1,0,0:0:0:0:
320,192,73964,1,0,0:0:0:0:
448,192,74200,128,0,75145:0:0:0:0:
448,192,75618,1,0,0:0:0:0:
320,192,75736,1,0,0:0:0:0:
192,192,75854,1,0,0:0:0:0:
64,192,75972,1,0,0:0:0:0:
448,192,76090,1,0,0:0:0:0:
