osu file format v14

[General]
AudioFilename: audio.mp3
AudioLeadIn: 0
PreviewTime: 15139
Countdown: 0
SampleSet: None
StackLeniency: 0.2
Mode: 0
LetterboxInBreaks: 0
SkinPreference:Default
WidescreenStoryboard: 1

[Editor]
DistanceSpacing: 1.5
BeatDivisor: 4
GridSize: 16
TimelineZoom: 1

[Metadata]
Title:Mumbo AFK (elybeatmaker Remix)
TitleUnicode:Mumbo AFK (elybeatmaker Remix)
Artist:Grian
ArtistUnicode:Grian
Creator:SpeckyYT
Version:Extra
Source:YouTube
Tags:mumbo jumbo
BeatmapID:1827993
BeatmapSetID:840706

[Difficulty]
HPDrainRate:8.3
CircleSize:4.2
OverallDifficulty:8.1
ApproachRate:8.7
SliderMultiplier:2.2
SliderTickRate:1

[Events]
//Background and Video events
Video,0,"Grian - Mumbo AFK (elybeatmaker Remix) (1).mp4"
0,0,"afk.jpg",0,0
//Break Periods
//Storyboard Layer 0 (Background)
//Storyboard Layer 1 (Fail)
//Storyboard Layer 2 (Pass)
//Storyboard Layer 3 (Foreground)
//Storyboard Sound Samples

[TimingPoints]
500,472.44094488189,4,3,0,100,1,0

[HitObjects]
256,192,500,5,0,0:0:0:0:
144,96,736,1,0,0:0:0:0:
320,48,972,1,0,0:0:0:0:
384,208,1208,1,0,0:0:0:0:
256,272,1444,1,0,0:0:0:0:
128,176,1681,1,0,0:0:0:0:
208,64,1917,1,0,0:0:0:0:
352,128,2153,1,0,0:0:0:0:
320,160,2271,1,0,0:0:0:0:
288,192,2389,1,0,0:0:0:0:
84,120,4279,5,0,0:0:0:0:
205,59,4515,1,0,0:0:0:0:
320,48,4751,1,0,0:0:0:0:
359,127,4987,1,0,0:0:0:0:
256,128,5223,1,0,0:0:0:0:
177,130,5460,1,0,0:0:0:0:
208,64,5696,1,0,0:0:0:0:
96,16,5932,1,0,0:0:0:0:
112,48,6050,1,0,0:0:0:0:
96,80,6168,1,0,0:0:0:0:
144,272,8059,5,0,0:0:0:0:
304,240,8295,1,0,0:0:0:0:
128,160,8531,1,0,0:0:0:0:
256,96,8767,1,0,0:0:0:0:
432,176,9003,1,0,0:0:0:0:
320,288,9240,1,0,0:0:0:0:
208,144,9476,1,0,0:0:0:0:
336,48,9712,1,0,0:0:0:0:
400,96,9948,5,0,0:0:0:0:
112,320,10421,1,0,0:0:0:0:
32,32,10893,1,0,0:0:0:0:
400,320,11366,1,0,0:0:0:0:
176,64,11838,5,0,0:0:0:0:
240,256,12074,1,0,0:0:0:0:
272,240,12192,1,0,0:0:0:0:
304,224,12311,1,0,0:0:0:0:
384,96,12547,1,0,0:0:0:0:
208,80,12783,1,0,0:0:0:0:
48,144,13255,1,0,0:0:0:0:
96,256,13492,1,0,0:0:0:0:
128,240,13610,1,0,0:0:0:0:
160,256,13728,1,0,0:0:0:0:
96,112,15618,5,0,0:0:0:0:
160,288,15854,1,0,0:0:0:0:
192,64,16090,1,0,0:0:0:0:
272,256,16326,1,0,0:0:0:0:
272,128,16562,1,0,0:0:0:0:
160,272,16799,1,0,0:0:0:0:
224,80,17035,1,0,0:0:0:0:
288,320,17271,1,0,0:0:0:0:
400,256,17507,2,0,B|480:224|480:144|480:32,1,220
128,320,19397,6,0,B|208:288|208:288|272:320|272:320,1,110
240,208,19870,2,0,P|176:208|144:288,1,110
48,240,20342,2,0,P|48:176|80:208,1,110
176,112,20814,2,0,B|208:64|208:64|272:112,1,110
416,192,21287,1,0,0:0:0:0:
112,64,23177,5,0,0:0:0:0:
256,304,23413,1,0,0:0:0:0:
384,128,23649,1,0,0:0:0:0:
256,224,23885,1,0,0:0:0:0:
96,256,24122,1,0,0:0:0:0:
80,80,24358,1,0,0:0:0:0:
256,48,24594,1,0,0:0:0:0:
448,160,24830,1,0,0:0:0:0:
464,48,25066,5,0,0:0:0:0:
96,320,25539,1,0,0:0:0:0:
64,32,26011,1,0,0:0:0:0:
416,320,26484,1,0,0:0:0:0:
91,52,26956,1,0,0:0:0:0:
258,61,27192,1,0,0:0:0:0:
213,162,27429,1,0,0:0:0:0:
367,192,27665,1,0,0:0:0:0:
393,52,27901,1,0,0:0:0:0:
88,202,28374,1,0,0:0:0:0:
31,275,28610,1,0,0:0:0:0:
190,313,28846,1,0,0:0:0:0:
32,48,30736,5,0,0:0:0:0:
160,48,31208,1,0,0:0:0:0:
160,176,31681,1,0,0:0:0:0:
304,176,32153,1,0,0:0:0:0:
304,96,32389,1,0,0:0:0:0:
480,48,32625,5,0,0:0:0:0:
352,48,33097,1,0,0:0:0:0:
352,176,33570,1,0,0:0:0:0:
208,176,34042,1,0,0:0:0:0:
208,96,34278,1,0,0:0:0:0:
96,96,34515,1,0,0:0:0:0:
96,256,34988,1,0,0:0:0:0:
272,256,35460,1,0,0:0:0:0:
464,256,35933,1,0,0:0:0:0:
464,160,36169,1,0,0:0:0:0:
256,112,36405,1,0,0:0:0:0:
80,304,36877,1,0,0:0:0:0:
