osu file format v14

[General]
AudioFilename: audio.mp3
AudioLeadIn: 0
PreviewTime: 50473
Countdown: 1
SampleSet: Soft
StackLeniency: 0.7
Mode: 0
LetterboxInBreaks: 0
WidescreenStoryboard: 1

[Editor]
Bookmarks: 9677,21677,31277,40877,52877,60077,79277,88877,98477,110477,117677,134477,136877
DistanceSpacing: 1.2
BeatDivisor: 4
GridSize: 32
TimelineZoom: 1.6

[Metadata]
Title:Fly Theme 12
TitleUnicode:Полетная мелодия 12
Artist:Gregory Semenov
ArtistUnicode:Григорий Семенов
Creator:Rubiha
Version:Terron (Normal)
Source:Space Rangers
Tags:Video Game Grigoriy Semyonov Космические рейнджеры instrumental
BeatmapID:1368940
BeatmapSetID:434681

[Difficulty]
HPDrainRate:4
CircleSize:3
OverallDifficulty:4
ApproachRate:5
SliderMultiplier:1.60000000596047
SliderTickRate:1

[Events]
//Background and Video events
0,0,"terron.jpg",0,0
//Break Periods
2,79257,87673
//Storyboard Layer 0 (Background)
//Storyboard Layer 1 (Fail)
//Storyboard Layer 2 (Pass)
//Storyboard Layer 3 (Foreground)
//Storyboard Layer 4 (Overlay)
//Storyboard Sound Samples

[TimingPoints]
73,600,4,2,1,35,1,0
9673,-100,4,2,5,35,0,0
9973,-100,4,2,4,20,0,0
10273,-100,4,2,3,35,0,0
10873,-100,4,2,4,35,0,0
11173,-100,4,2,3,35,0,0
12073,-100,4,2,2,40,0,0
12373,-100,4,2,4,20,0,0
12673,-100,4,2,3,35,0,0
13273,-100,4,2,4,35,0,0
13573,-100,4,2,3,35,0,0
14773,-100,4,2,4,20,0,0
15073,-100,4,2,3,35,0,0
15673,-100,4,2,4,35,0,0
15973,-100,4,2,3,35,0,0
16873,-100,4,2,6,65,0,0
17023,-100,4,2,3,35,0,0
18073,-100,4,2,4,35,0,0
18673,-100,4,2,3,35,0,0
18973,-100,4,2,5,35,0,0
19873,-100,4,2,3,35,0,0
20473,-100,4,2,4,35,0,0
21073,-100,4,2,3,35,0,0
21673,-100,4,2,7,45,0,0
21973,-100,4,2,4,35,0,0
22123,-100,4,2,3,35,0,0
22873,-100,4,2,4,35,0,0
23173,-100,4,2,4,20,0,0
23773,-100,4,2,4,35,0,0
24073,-100,4,2,5,35,0,0
24223,-100,4,2,3,35,0,0
25273,-100,4,2,4,35,0,0
25573,-100,4,2,3,35,0,0
26473,-100,4,2,9,35,0,0
26773,-100,4,2,4,35,0,0
27073,-100,4,2,3,35,0,0
27673,-100,4,2,4,35,0,0
27973,-100,4,2,3,35,0,0
28573,-100,4,2,4,35,0,0
28873,-100,4,2,5,35,0,0
29173,-100,4,2,4,35,0,0
29473,-100,4,2,3,35,0,0
29773,-100,4,2,4,35,0,0
30373,-100,4,2,3,35,0,0
31273,-100,4,2,10,45,0,0
31573,-100,4,2,4,35,0,0
31723,-100,4,2,3,35,0,0
32473,-100,4,2,5,35,0,0
33973,-100,4,2,4,35,0,0
34273,-100,4,2,3,35,0,0
34873,-100,4,2,4,35,0,0
35023,-100,4,2,3,35,0,0
36073,-100,4,2,11,40,0,0
36373,-100,4,2,4,35,0,0
36673,-100,4,2,3,35,0,0
37273,-100,4,2,4,35,0,0
37573,-100,4,2,3,35,0,0
38173,-100,4,2,5,35,0,0
38773,-100,4,2,4,35,0,0
39073,-100,4,2,3,35,0,0
39673,-100,4,2,4,35,0,0
39973,-100,4,2,3,35,0,0
40873,-100,4,2,13,60,0,0
41173,-100,4,2,4,35,0,0
41323,-100,4,2,3,35,0,0
42073,-100,4,2,4,35,0,0
42373,-100,4,2,3,35,0,0
42973,-100,4,2,5,35,0,0
43423,-100,4,2,3,35,0,0
43573,-100,4,2,4,35,0,0
43873,-100,4,2,3,35,0,0
44473,-100,4,2,4,35,0,0
44623,-100,4,2,3,35,0,0
45373,-100,4,2,5,35,0,0
45673,-100,4,2,14,60,0,0
45973,-100,4,2,4,35,0,0
46273,-100,4,2,3,35,0,0
46873,-100,4,2,4,35,0,0
47023,-100,4,2,3,35,0,0
47773,-100,4,2,5,35,0,0
48373,-100,4,2,4,35,0,0
48673,-100,4,2,3,35,0,0
49273,-100,4,2,4,35,0,0
49573,-100,4,2,3,35,0,0
50473,-100,4,2,15,60,0,0
50773,-100,4,2,4,35,0,0
50923,-100,4,2,3,35,0,0
51673,-100,4,2,4,35,0,0
51823,-100,4,2,3,35,0,0
52573,-100,4,2,5,35,0,0
53023,-100,4,2,3,35,0,0
54073,-100,4,2,4,35,0,0
54223,-100,4,2,3,35,0,0
55273,-100,4,2,16,80,0,0
55573,-100,4,2,4,35,0,0
55873,-100,4,2,3,35,0,0
56473,-100,4,2,4,35,0,0
56773,-100,4,2,3,35,0,0
57673,-100,4,2,5,35,0,0
58873,-100,4,2,4,35,0,0
59473,-100,4,2,2,70,0,0
60073,-100,4,2,3,45,0,1
60673,-100,4,2,13,60,0,1
60823,-100,4,2,3,45,0,1
61873,-100,4,2,14,60,0,1
62023,-100,4,2,3,45,0,1
63073,-100,4,2,6,65,0,1
63223,-100,4,2,3,45,0,1
64273,-100,4,2,6,65,0,1
64423,-100,4,2,3,45,0,1
65473,-100,4,2,2,45,0,1
65623,-100,4,2,3,45,0,1
66673,-100,4,2,2,45,0,1
66823,-100,4,2,3,45,0,1
67873,-100,4,2,7,45,0,1
68023,-100,4,2,3,45,0,1
69073,-100,4,2,7,45,0,1
69223,-100,4,2,3,45,0,1
70273,-100,4,2,9,45,0,1
70423,-100,4,2,3,45,0,1
71473,-100,4,2,9,45,0,1
71623,-100,4,2,3,45,0,1
72673,-100,4,2,15,70,0,1
72823,-100,4,2,3,45,0,1
73873,-100,4,2,16,85,0,1
74023,-100,4,2,3,45,0,1
75073,-100,4,2,11,45,0,1
75223,-100,4,2,3,45,0,1
76273,-100,4,2,11,45,0,1
76423,-100,4,2,3,45,0,1
76873,-100,4,2,12,85,0,1
79273,-100,4,2,3,45,0,0
88873,-100,4,2,10,45,0,0
89173,-100,4,2,4,35,0,0
89323,-100,4,2,3,35,0,0
90073,-100,4,2,5,35,0,0
91573,-100,4,2,4,20,0,0
91873,-100,4,2,3,35,0,0
92473,-100,4,2,4,35,0,0
92623,-100,4,2,3,35,0,0
93373,-100,4,2,5,35,0,0
93673,-100,4,2,11,40,0,0
93973,-100,4,2,4,35,0,0
94273,-100,4,2,3,35,0,0
94873,-100,4,2,4,35,0,0
95173,-100,4,2,3,35,0,0
95773,-100,4,2,5,35,0,0
96373,-100,4,2,4,35,0,0
96673,-100,4,2,3,35,0,0
97273,-100,4,2,4,35,0,0
97573,-100,4,2,3,35,0,0
98473,-100,4,2,13,60,0,0
98773,-100,4,2,4,35,0,0
98923,-100,4,2,3,35,0,0
99673,-100,4,2,4,35,0,0
99973,-100,4,2,3,35,0,0
100573,-100,4,2,5,35,0,0
101173,-100,4,2,4,20,0,0
101473,-100,4,2,3,35,0,0
102073,-100,4,2,4,35,0,0
102223,-100,4,2,3,35,0,0
102973,-100,4,2,5,35,0,0
103273,-100,4,2,14,60,0,0
103573,-100,4,2,4,35,0,0
103873,-100,4,2,3,35,0,0
104473,-100,4,2,4,35,0,0
104623,-100,4,2,3,35,0,0
105373,-100,4,2,5,35,0,0
105973,-100,4,2,4,35,0,0
106273,-100,4,2,3,35,0,0
106873,-100,4,2,4,35,0,0
107173,-100,4,2,3,35,0,0
108073,-100,4,2,15,60,0,0
108373,-100,4,2,4,35,0,0
108523,-100,4,2,3,35,0,0
109273,-100,4,2,4,35,0,0
109423,-100,4,2,3,35,0,0
110173,-100,4,2,5,35,0,0
110623,-100,4,2,4,35,0,0
111073,-100,4,2,3,35,0,0
111673,-100,4,2,4,35,0,0
111823,-100,4,2,3,35,0,0
112573,-100,4,2,5,35,0,0
112873,-100,4,2,16,80,0,0
113173,-100,4,2,4,35,0,0
113473,-100,4,2,3,35,0,0
114073,-100,4,2,4,35,0,0
114373,-100,4,2,3,35,0,0
115273,-100,4,2,5,35,0,0
116473,-100,4,2,4,35,0,0
117073,-100,4,2,2,70,0,0
117673,-100,4,2,3,45,0,1
118273,-100,4,2,13,60,0,1
118423,-100,4,2,3,45,0,1
119473,-100,4,2,14,60,0,1
119623,-100,4,2,3,45,0,1
120673,-100,4,2,6,65,0,1
120823,-100,4,2,3,45,0,1
121873,-100,4,2,6,65,0,1
122023,-100,4,2,3,45,0,1
123073,-100,4,2,2,45,0,1
123223,-100,4,2,3,45,0,1
124273,-100,4,2,2,45,0,1
124423,-100,4,2,3,45,0,1
125473,-100,4,2,7,45,0,1
125623,-100,4,2,3,45,0,1
126673,-100,4,2,7,45,0,1
126823,-100,4,2,3,45,0,1
127873,-100,4,2,9,45,0,1
128023,-100,4,2,3,45,0,1
129073,-100,4,2,9,45,0,1
129223,-100,4,2,3,45,0,1
130273,-100,4,2,15,70,0,1
130423,-100,4,2,3,45,0,1
131473,-100,4,2,16,85,0,1
131623,-100,4,2,3,45,0,1
132673,-100,4,2,11,45,0,1
132823,-100,4,2,3,45,0,1
133873,-100,4,2,11,45,0,1
134023,-100,4,2,3,45,0,1
134473,-100,4,2,17,85,0,1
134623,-100,4,2,3,45,0,1
134773,-100,4,2,4,45,0,1
135073,-100,4,2,3,45,0,1
135373,-100,4,2,4,45,0,1
135673,-100,4,2,3,45,0,1
136573,-100,4,2,5,45,0,1
136873,-100,4,2,2,35,0,0

[Colours]
Combo1 : 228,1,223
Combo2 : 37,21,181
Combo3 : 135,26,255
Combo4 : 255,43,48
SliderBorder : 100,255,255
SliderTrackOverride : 0,20,40

[HitObjects]
47,47,9673,6,0,L|165:87,1,80.0000002980235,8|4,0:0|0:0,0:0:0:0:
213,104,10273,1,2,0:0:0:0:
304,133,10573,1,4,0:0:0:0:
385,183,10873,2,0,L|436:289,1,80.0000002980235,8|4,0:0|0:0,0:0:0:0:
369,337,11473,1,2,0:0:0:0:
261,179,12073,6,0,L|199:76,1,80.0000002980235,8|4,0:0|0:0,0:0:0:0:
134,66,12673,2,0,B|48:118,1,80.0000002980235,2|4,0:0|0:0,0:0:0:0:
56,203,13273,2,0,L|118:288,1,80.0000002980235,8|4,0:0|0:0,0:0:0:0:
164,342,13873,1,2,0:0:0:0:
355,322,14473,6,0,L|413:247,1,80.0000002980235,8|4,0:0|0:0,0:0:0:0:
417,163,15073,1,2,0:0:0:0:
368,80,15373,1,4,0:0:0:0:
273,66,15673,2,0,L|210:143,1,80.0000002980235,8|4,0:0|0:0,0:0:0:0:
166,206,16273,1,2,0:0:0:0:
276,363,16873,6,0,P|324:365|368:342,1,80.0000002980235,8|4,0:0|0:0,0:0:0:0:
402,270,17473,2,0,L|432:179,1,80.0000002980235,2|4,0:0|0:0,0:0:0:0:
408,99,18073,1,8,0:0:0:0:
333,39,18373,1,8,0:0:0:0:
238,20,18673,2,0,P|198:16|160:29,1,80.0000002980235,2|4,0:0|0:0,0:0:0:0:
117,114,19273,1,8,0:0:0:0:
252,266,19873,5,2,0:0:0:0:
252,266,20173,1,4,0:0:0:0:
252,266,20473,1,8,0:0:0:0:
160,296,20773,2,0,P|115:279|83:240,1,80.0000002980235,8|2,0:0|0:0,0:0:0:0:
24,190,21373,1,0,0:0:0:0:
54,99,21673,5,8,0:0:0:0:
145,129,21973,2,0,L|167:67,2,40.0000001490117,2|8|2,0:0|0:0|0:0,0:0:0:0:
236,157,22573,1,4,0:0:0:0:
266,65,22873,2,0,P|336:68|376:108,1,80.0000002980235,8|4,0:0|0:0,0:0:0:0:
419,130,23473,5,10,0:0:0:0:
439,223,23773,1,2,0:0:0:0:
346,196,24073,2,0,P|279:170|225:191,1,80.0000002980235,8|4,0:0|0:0,0:0:0:0:
176,171,24673,1,2,0:0:0:0:
221,86,24973,1,4,0:0:0:0:
133,45,25273,1,8,0:0:0:0:
86,129,25573,2,0,L|5:92,1,80.0000002980235,4|2,0:0|0:0,0:0:0:0:
52,284,26473,6,0,P|91:313|141:315,1,80.0000002980235,8|2,0:0|0:0,0:0:0:0:
217,325,27073,1,2,0:0:0:0:
300,278,27373,1,4,0:0:0:0:
339,190,27673,2,0,L|338:84,1,80.0000002980235,8|4,0:0|0:0,0:0:0:0:
259,55,28273,5,2,0:0:0:0:
163,55,28573,1,2,0:0:0:0:
81,105,28873,2,0,P|53:146|53:195,2,80.0000002980235,8|2|2,0:0|0:0|0:0,0:0:0:0:
163,55,29773,1,2,0:0:0:0:
259,55,30073,1,8,0:0:0:0:
355,55,30373,2,0,L|426:56,2,40.0000001490117,4|8|2,0:0|0:0|0:0,0:0:0:0:
180,136,31273,6,2,L|92:183,1,80.0000002980235,10|2,0:0|0:0,0:0:0:0:
35,235,31873,1,2,0:0:0:0:
94,310,32173,1,4,0:0:0:0:
189,300,32473,2,0,B|346:275|346:275|386:235|365:182,1,240.00000089407,2|4,0:0|0:0,0:0:0:0:
274,201,33673,5,8,0:0:0:0:
178,201,33973,1,2,0:0:0:0:
82,201,34273,2,0,L|15:271,1,80.0000002980235,2|4,0:0|0:0,0:0:0:0:
4,165,34873,1,8,0:0:0:0:
21,70,35173,1,4,0:0:0:0:
103,119,35473,1,2,0:0:0:0:
252,239,36073,6,0,P|245:287|271:340,2,80.0000002980235,8|2|2,0:0|0:0|2:0,0:0:0:0:
250,143,36973,2,0,L|229:51,1,80.0000002980235,4|8,2:0|2:0,0:0:0:0:
140,94,37573,2,0,L|120:187,1,80.0000002980235,4|2,0:0|0:0,0:0:0:0:
203,225,38173,6,0,P|218:267|205:322,2,80.0000002980235,4|8|2,0:0|0:0|0:0,0:0:0:0:
123,172,39073,2,0,P|75:183|33:214,1,80.0000002980235,2|4,0:0|0:0,0:0:0:0:
116,268,39673,1,8,0:0:0:0:
181,338,39973,2,0,L|235:338,2,40.0000001490117,4|8|2,0:0|0:0|0:0,0:0:0:0:
357,261,40873,5,8,0:0:0:0:
438,312,41173,2,0,L|483:342,2,40.0000001490117,2|0|2,0:0|0:0|0:0,0:0:0:0:
446,216,41773,2,0,P|453:167|434:124,1,80.0000002980235,4|8,0:0|0:0,0:0:0:0:
355,177,42373,2,0,P|345:127|363:84,1,80.0000002980235,4|2,0:0|0:0,0:0:0:0:
430,42,42973,1,4,0:0:0:0:
443,138,43273,2,0,L|508:138,2,40.0000001490117,8|8|2,0:0|0:0|0:0,0:0:0:0:
355,177,43873,6,0,P|315:175|280:157,2,80.0000002980235,2|4|8,0:0|0:0|0:2,0:0:0:0:
424,243,44773,1,4,0:0:0:0:
348,301,45073,2,0,P|304:324|257:320,1,80.0000002980235,2|4,0:0|0:0,0:0:0:0:
179,308,45673,6,0,B|167:202,1,80.0000002980235,8|2,0:0|0:0,0:0:0:0:
156,133,46273,1,2,0:0:0:0:
207,51,46573,1,4,0:0:0:0:
299,77,46873,2,0,B|310:168,1,80.0000002980235,8|4,0:0|0:0,0:0:0:0:
321,251,47473,5,2,0:0:0:0:
394,189,47773,1,4,0:0:0:0:
474,241,48073,2,0,L|523:218,2,40.0000001490117,8|0|2,0:0|0:0|0:0,0:0:0:0:
418,319,48673,1,2,0:0:0:0:
327,288,48973,1,4,0:0:0:0:
251,347,49273,1,8,0:0:0:0:
157,326,49573,2,0,L|94:356,2,40.0000001490117,4|8|2,0:0|0:0|0:0,0:0:0:0:
338,264,50473,5,8,0:0:0:0:
432,248,50773,2,0,L|479:287,2,40.0000001490117,2|8|2,0:0|0:0|0:0,0:0:0:0:
360,184,51373,1,4,0:0:0:0:
264,187,51673,2,0,P|221:194|180:232,1,80.0000002980235,8|4,0:0|0:0,0:0:0:0:
259,283,52273,2,0,L|353:325,1,80.0000002980235,2|4,0:0|0:0,0:0:0:0:
426,297,52873,2,0,L|457:330,2,40.0000001490117,8|8|0,0:0|0:0|0:0,0:0:0:0:
362,224,53473,5,2,0:0:0:0:
332,315,53773,1,4,0:0:0:0:
257,254,54073,1,8,0:0:0:0:
284,162,54373,1,4,0:0:0:0:
309,69,54673,6,0,L|371:30,2,40.0000001490117,2|8|4,0:0|0:0|0:0,0:0:0:0:
217,98,55273,2,0,B|119:91,1,80.0000002980235,8|2,0:0|0:0,0:0:0:0:
41,105,55873,2,0,B|23:188,2,80.0000002980235,2|4|8,0:0|0:0|0:0,0:0:0:0:
61,11,56773,1,4,0:0:0:0:
150,39,57073,1,2,0:0:0:0:
116,227,57673,5,8,0:0:0:0:
380,25,58873,1,8,0:0:0:0:
226,69,59473,1,2,0:0:0:0:
72,115,60073,5,2,0:0:0:0:
90,209,60373,1,4,0:0:0:0:
108,303,60673,2,0,L|203:276,1,80.0000002980235,8|4,0:0|0:0,0:0:0:0:
277,255,61273,1,2,0:0:0:0:
369,229,61573,1,4,0:0:0:0:
461,205,61873,2,0,L|489:295,1,80.0000002980235,8|4,0:0|0:0,0:0:0:0:
398,322,62473,6,0,L|315:350,1,80.0000002980235,2|4,0:0|0:0,0:0:0:0:
301,253,63073,2,0,L|359:177,1,80.0000002980235,8|4,0:0|0:0,0:0:0:0:
283,119,63673,1,2,0:0:0:0:
187,121,63973,1,4,0:0:0:0:
119,189,64273,2,0,L|178:263,1,80.0000002980235,8|4,0:0|0:0,0:0:0:0:
264,243,64873,6,0,P|317:237|369:264,1,80.0000002980235,2|4,0:0|0:0,0:0:0:0:
401,319,65473,1,8,0:0:0:0:
316,364,65773,1,4,0:0:0:0:
221,348,66073,2,0,P|174:329|148:290,2,80.0000002980235,2|4|8,2:0|2:0|2:0,2:2:0:0:
316,364,66973,1,4,2:0:0:0:
401,319,67273,6,0,P|448:284|464:235,1,80.0000002980235,2|4,0:0|0:0,0:0:0:0:
489,175,67873,1,8,0:0:0:0:
439,92,68173,1,4,0:0:0:0:
343,89,68473,2,0,P|301:115|277:155,1,80.0000002980235,2|4,0:0|0:0,0:0:0:0:
258,232,69073,1,8,0:0:0:0:
286,323,69373,1,4,0:0:0:0:
380,305,69673,6,0,L|481:282,1,80.0000002980235,2|4,0:0|0:0,0:0:0:0:
433,194,70273,2,0,L|338:208,1,80.0000002980235,8|4,2:0|2:0,0:0:0:0:
340,110,70873,2,0,L|441:86,1,80.0000002980235,2|4,2:0|2:0,0:0:0:0:
392,0,71473,2,0,L|297:15,1,80.0000002980235,8|4,2:0|0:0,0:0:0:0:
218,29,72073,5,2,2:0:0:0:
240,122,72373,1,4,2:0:0:0:
155,167,72673,2,0,L|126:92,1,80.0000002980235,8|4,2:0|2:0,0:0:0:0:
37,55,73273,2,0,L|10:147,1,80.0000002980235,2|4,2:0|2:0,0:0:0:0:
36,225,73873,2,0,L|91:294,1,80.0000002980235,8|4,2:0|0:0,0:0:0:0:
147,361,74473,5,2,2:0:0:0:
233,319,74773,1,4,2:0:0:0:
319,359,75073,1,8,2:0:0:0:
405,318,75373,2,0,L|471:274,1,80.0000002980235,4|2,2:0|0:0,0:0:0:0:
489,175,75973,1,4,2:0:0:0:
438,93,76273,1,8,2:0:0:0:
483,12,76573,1,4,0:0:0:0:
256,192,76873,12,8,78673,0:0:0:0:
365,107,88873,5,10,0:0:0:0:
425,181,89173,2,0,L|485:191,2,40.0000001490117,2|8|2,0:0|0:0|0:0,0:0:0:0:
331,205,89773,1,4,0:0:0:0:
267,132,90073,2,0,B|110:105|110:105|48:200,1,240.00000089407,2|4,0:0|0:0,0:0:0:0:
20,257,91273,5,8,0:0:0:0:
75,335,91573,2,0,P|117:353|176:363,1,80.0000002980235,4|2,0:0|0:0,0:0:0:0:
246,366,92173,1,4,0:0:0:0:
215,275,92473,2,0,L|178:166,1,80.0000002980235,8|4,0:0|0:0,0:0:0:0:
155,108,93073,1,2,0:0:0:0:
123,17,93373,1,4,0:0:0:0:
61,90,93673,6,0,P|14:62|-3:7,2,80.0000002980235,8|2|2,0:0|0:0|0:0,0:0:0:0:
63,186,94573,1,4,0:0:0:0:
91,277,94873,1,8,0:0:0:0:
159,344,95173,2,0,L|225:274,1,80.0000002980235,4|2,0:0|0:0,0:0:0:0:
243,194,95773,6,0,P|231:146|245:100,1,80.0000002980235,4|8,0:0|0:0,0:0:0:0:
315,61,96373,2,0,P|330:120|308:168,1,80.0000002980235,2|2,0:0|0:0,0:0:0:0:
333,233,96973,2,0,P|356:275|395:298,1,80.0000002980235,4|8,0:0|0:0,0:0:0:0:
466,338,97573,2,0,L|509:337,2,40.0000001490117,4|8|2,0:0|0:0|0:0,0:0:0:0:
274,345,98473,5,8,0:0:0:0:
178,337,98773,2,0,L|113:371,2,40.0000001490117,2|8|2,0:0|0:0|0:0,0:0:0:0:
181,241,99373,2,0,L|238:169,1,80.0000002980235,4|8,0:0|0:0,0:0:0:0:
324,154,99973,2,0,P|351:111|393:95,1,80.0000002980235,4|2,0:0|0:0,0:0:0:0:
418,185,100573,5,4,0:0:0:0:
375,270,100873,1,8,0:0:0:0:
284,302,101173,1,4,0:0:0:0:
188,293,101473,2,0,L|59:259,1,80.0000002980235,2|4,0:0|0:0,0:0:0:0:
93,177,102073,1,8,0:0:0:0:
182,141,102373,1,4,0:0:0:0:
277,144,102673,2,0,L|390:174,1,80.0000002980235,2|4,0:0|0:0,0:0:0:0:
426,228,103273,5,8,0:0:0:0:
360,299,103573,1,2,0:0:0:0:
265,281,103873,2,0,L|157:281,1,80.0000002980235,2|4,0:0|0:0,0:0:0:0:
90,299,104473,1,8,0:0:0:0:
29,224,104773,2,0,L|29:111,2,80.0000002980235,4|2|4,0:0|0:0|0:0,0:0:0:0:
125,224,105673,6,0,L|125:165,2,40.0000001490117,8|0|2,0:0|0:0|0:0,0:0:0:0:
221,224,106273,1,2,0:0:0:0:
221,320,106573,1,4,0:0:0:0:
125,320,106873,1,8,0:0:0:0:
125,224,107173,2,0,L|54:224,2,40.0000001490117,4|8|2,0:0|0:0|0:0,0:0:0:0:
309,171,108073,5,8,0:0:0:0:
401,144,108373,2,0,L|445:131,2,40.0000001490117,2|0|2,0:0|0:0|0:0,0:0:0:0:
370,53,108973,1,4,0:0:0:0:
277,79,109273,1,8,0:0:0:0:
185,49,109573,1,4,0:0:0:0:
150,138,109873,6,0,B|113:232,1,80.0000002980235,2|4,0:0|0:0,0:0:0:0:
71,294,110473,2,0,L|-1:291,2,40.0000001490117,8|8|2,0:0|0:0|0:0,0:0:0:0:
145,355,111073,1,2,0:0:0:0:
187,268,111373,1,4,0:0:0:0:
269,316,111673,1,8,0:0:0:0:
316,232,111973,1,4,0:0:0:0:
401,275,112273,6,0,L|435:332,2,40.0000001490117,2|8|4,0:0|0:0|0:0,0:0:0:0:
410,179,112873,2,0,L|357:91,1,80.0000002980235,8|2,0:0|0:0,0:0:0:0:
276,81,113473,2,0,P|251:35|193:14,2,80.0000002980235,2|4|8,0:0|0:0|0:0,0:0:0:0:
307,171,114373,1,4,0:0:0:0:
271,260,114673,1,2,0:0:0:0:
449,331,115273,5,8,0:0:0:0:
215,26,116473,1,8,0:0:0:0:
40,105,117073,1,2,0:0:0:0:
40,265,117673,6,0,B|40:345,1,80.0000002980235,2|4,0:0|0:0,0:0:0:0:
124,298,118273,2,0,L|124:196,1,80.0000002980235,8|4,0:0|0:0,0:0:0:0:
208,171,118873,2,0,L|208:251,1,80.0000002980235,2|4,0:0|0:0,0:0:0:0:
292,204,119473,2,0,L|293:88,1,80.0000002980235,8|4,0:0|0:0,0:0:0:0:
239,44,120073,6,0,L|128:44,1,80.0000002980235,2|4,2:0|2:0,0:0:0:0:
71,84,120673,1,8,2:0:0:0:
71,180,120973,1,4,2:0:0:0:
157,222,121273,2,0,L|157:323,2,80.0000002980235,2|4|8,2:0|2:0|2:0,0:0:0:0:
230,159,122173,1,4,2:0:0:0:
258,251,122473,6,0,L|282:340,1,80.0000002980235,2|4,0:0|0:0,0:0:0:0:
373,350,123073,1,8,0:0:0:0:
407,260,123373,2,0,L|342:208,1,80.0000002980235,4|2,0:0|0:0,0:0:0:0:
406,136,123973,1,4,0:0:0:0:
334,73,124273,1,8,0:0:0:0:
259,133,124573,1,4,0:0:0:0:
186,195,124873,6,0,L|76:195,1,80.0000002980235,2|4,0:0|0:0,0:0:0:0:
13,169,125473,2,0,L|12:82,1,80.0000002980235,8|4,0:0|0:0,0:0:0:0:
105,63,126073,2,0,P|144:65|184:60,1,80.0000002980235,2|4,0:0|0:0,0:0:0:0:
274,95,126673,2,0,B|337:193,1,80.0000002980235,8|4,0:0|0:0,0:0:0:0:
407,194,127273,5,2,0:0:0:0:
489,243,127573,2,0,L|457:334,1,80.0000002980235,4|8,0:0|0:0,0:0:0:0:
376,361,128173,1,4,0:0:0:0:
289,319,128473,2,0,L|179:316,2,80.0000002980235,2|4|8,0:0|0:0|0:0,0:0:0:0:
354,247,129373,1,4,0:0:0:0:
334,153,129673,5,2,2:0:0:0:
241,178,129973,2,0,L|174:236,1,80.0000002980235,4|8,2:0|2:0,0:0:0:0:
88,201,130573,1,4,2:0:0:0:
15,137,130873,2,0,L|68:76,1,80.0000002980235,2|4,2:0|2:0,0:0:0:0:
153,32,131473,1,8,2:0:0:0:
244,62,131773,1,4,0:0:0:0:
334,30,132073,6,0,L|384:112,1,80.0000002980235,2|4,2:0|2:0,0:0:0:0:
423,181,132673,1,8,0:0:0:0:
363,256,132973,1,4,0:0:0:0:
269,279,133273,2,0,L|170:267,2,80.0000002980235,2|4|8,2:0|2:0|2:0,0:0:0:0:
363,256,134173,1,4,0:0:0:0:
456,233,134473,6,0,L|500:286,2,40.0000001490117,8|8|2,0:0|0:0|0:0,0:0:0:0:
413,147,135073,2,0,L|320:115,1,80.0000002980235,2|2,0:0|0:0,0:0:0:0:
241,122,135673,2,0,L|192:151,2,40.0000001490117,2|8|4,0:0|0:0|0:0,0:0:0:0:
289,39,136273,2,0,L|258:-8,2,40.0000001490117,4|8|4,0:0|0:0|0:0,0:0:0:0:
385,31,136873,1,4,0:0:0:0:
