osu file format v14

[General]
AudioFilename: audio.mp3
AudioLeadIn: 0
PreviewTime: 50473
Countdown: 1
SampleSet: Soft
StackLeniency: 0.7
Mode: 0
LetterboxInBreaks: 0
WidescreenStoryboard: 1

[Editor]
Bookmarks: 9677,21677,26477,40877,52877,60077,79277,84077,98477,110477,117677,136877
DistanceSpacing: 1.7
BeatDivisor: 4
GridSize: 8
TimelineZoom: 2.3

[Metadata]
Title:Fly Theme 12
TitleUnicode:Полетная мелодия 12
Artist:Gregory Semenov
ArtistUnicode:Григорий Семенов
Creator:Rubiha
Version:Blazer (Hard)
Source:Space Rangers
Tags:Video Game Grigoriy Semyonov Космические рейнджеры instrumental
BeatmapID:1359927
BeatmapSetID:434681

[Difficulty]
HPDrainRate:5
CircleSize:4
OverallDifficulty:7
ApproachRate:7
SliderMultiplier:2.00000000596047
SliderTickRate:1

[Events]
//Background and Video events
0,0,"Blazer.jpg",0,0
//Break Periods
2,81573,83173
//Storyboard Layer 0 (Background)
//Storyboard Layer 1 (Fail)
//Storyboard Layer 2 (Pass)
//Storyboard Layer 3 (Foreground)
//Storyboard Layer 4 (Overlay)
//Storyboard Sound Samples

[TimingPoints]
73,600,4,2,1,35,1,0
9673,-100,4,2,5,35,0,0
9973,-100,4,2,4,20,0,0
10273,-100,4,2,3,35,0,0
10873,-100,4,2,4,35,0,0
11173,-100,4,2,3,35,0,0
11773,-100,4,2,5,35,0,0
12073,-100,4,2,2,40,0,0
12373,-100,4,2,4,20,0,0
12673,-100,4,2,3,35,0,0
13273,-100,4,2,4,35,0,0
13573,-100,4,2,3,35,0,0
14173,-100,4,2,5,35,0,0
14773,-100,4,2,4,20,0,0
15073,-100,4,2,3,35,0,0
15673,-100,4,2,4,35,0,0
15973,-100,4,2,3,35,0,0
16573,-100,4,2,5,35,0,0
16873,-100,4,2,6,65,0,0
17023,-100,4,2,3,35,0,0
18073,-100,4,2,4,35,0,0
18673,-100,4,2,3,35,0,0
18973,-100,4,2,5,35,0,0
19873,-100,4,2,3,35,0,0
20473,-100,4,2,4,35,0,0
21073,-100,4,2,3,35,0,0
21673,-100,4,2,7,45,0,0
21973,-100,4,2,4,35,0,0
22123,-100,4,2,3,35,0,0
22873,-100,4,2,4,35,0,0
23173,-100,4,2,4,20,0,0
23773,-100,4,2,4,35,0,0
24073,-100,4,2,5,35,0,0
24223,-100,4,2,3,35,0,0
25273,-100,4,2,4,35,0,0
25573,-100,4,2,3,35,0,0
26173,-100,4,2,5,35,0,0
26473,-100,4,2,9,35,0,0
26773,-100,4,2,4,35,0,0
27073,-100,4,2,3,35,0,0
27673,-100,4,2,4,35,0,0
27973,-100,4,2,3,35,0,0
28573,-100,4,2,4,35,0,0
28873,-100,4,2,5,35,0,0
29173,-100,4,2,4,35,0,0
29473,-100,4,2,3,35,0,0
29773,-100,4,2,4,35,0,0
30373,-100,4,2,3,35,0,0
30973,-100,4,2,5,35,0,0
31273,-100,4,2,10,45,0,0
31573,-100,4,2,4,35,0,0
31723,-100,4,2,3,35,0,0
32473,-100,4,2,5,35,0,0
32773,-100,4,2,3,35,0,0
33373,-100,4,2,5,35,0,0
33973,-100,4,2,4,35,0,0
34273,-100,4,2,3,35,0,0
34873,-100,4,2,4,35,0,0
35023,-100,4,2,3,35,0,0
35773,-100,4,2,5,35,0,0
36073,-100,4,2,11,40,0,0
36373,-100,4,2,4,35,0,0
36673,-100,4,2,3,35,0,0
37273,-100,4,2,4,35,0,0
37573,-100,4,2,3,35,0,0
38173,-100,4,2,5,35,0,0
38773,-100,4,2,4,35,0,0
39073,-100,4,2,3,35,0,0
39673,-100,4,2,4,35,0,0
39973,-100,4,2,3,35,0,0
40573,-100,4,2,5,35,0,0
40873,-100,4,2,13,60,0,0
41173,-100,4,2,4,35,0,0
41323,-100,4,2,3,35,0,0
42073,-100,4,2,4,35,0,0
42373,-100,4,2,3,35,0,0
42973,-100,4,2,5,35,0,0
43423,-100,4,2,3,35,0,0
43573,-100,4,2,4,35,0,0
43873,-100,4,2,3,35,0,0
44473,-100,4,2,4,35,0,0
44623,-100,4,2,3,35,0,0
45373,-100,4,2,5,35,0,0
45673,-100,4,2,14,60,0,0
45973,-100,4,2,4,35,0,0
46273,-100,4,2,3,35,0,0
46873,-100,4,2,4,35,0,0
47023,-100,4,2,3,35,0,0
47773,-100,4,2,5,35,0,0
48373,-100,4,2,4,35,0,0
48673,-100,4,2,3,35,0,0
49273,-100,4,2,4,35,0,0
49573,-100,4,2,3,35,0,0
50173,-100,4,2,5,35,0,0
50473,-100,4,2,15,60,0,0
50773,-100,4,2,4,35,0,0
50923,-100,4,2,3,35,0,0
51673,-100,4,2,4,35,0,0
51823,-100,4,2,3,35,0,0
52573,-100,4,2,5,35,0,0
53023,-100,4,2,3,35,0,0
54073,-100,4,2,4,35,0,0
54223,-100,4,2,3,35,0,0
55273,-100,4,2,16,80,0,0
55573,-100,4,2,4,35,0,0
55873,-100,4,2,3,35,0,0
56473,-100,4,2,4,35,0,0
56773,-100,4,2,3,35,0,0
57373,-100,4,2,5,35,0,0
57823,-100,4,2,3,35,0,0
57973,-100,4,2,4,35,0,0
58273,-100,4,2,3,35,0,0
58873,-100,4,2,4,35,0,0
59173,-100,4,2,3,35,0,0
59473,-100,4,2,2,70,0,0
60073,-100,4,2,3,45,0,1
60673,-100,4,2,13,60,0,1
60823,-100,4,2,3,45,0,1
61873,-100,4,2,14,60,0,1
62023,-100,4,2,3,45,0,1
63073,-100,4,2,6,65,0,1
63223,-100,4,2,3,45,0,1
64273,-100,4,2,6,65,0,1
64423,-100,4,2,3,45,0,1
65473,-100,4,2,2,45,0,1
65623,-100,4,2,3,45,0,1
66673,-100,4,2,2,45,0,1
66823,-100,4,2,3,45,0,1
67873,-100,4,2,7,45,0,1
68023,-100,4,2,3,45,0,1
69073,-100,4,2,7,45,0,1
69223,-100,4,2,3,45,0,1
70273,-100,4,2,9,45,0,1
70423,-100,4,2,3,45,0,1
71473,-100,4,2,9,45,0,1
71623,-100,4,2,3,45,0,1
72673,-100,4,2,15,70,0,1
72823,-100,4,2,3,45,0,1
73873,-100,4,2,16,85,0,1
74023,-100,4,2,3,45,0,1
75073,-100,4,2,11,45,0,1
75223,-100,4,2,3,45,0,1
76273,-100,4,2,11,45,0,1
76423,-100,4,2,3,45,0,1
76873,-100,4,2,12,85,0,1
78973,-100,4,2,5,45,0,1
79123,-100,4,2,3,45,0,1
79273,-100,4,2,7,45,0,0
79573,-100,4,2,4,35,0,0
79723,-100,4,2,3,35,0,0
80473,-100,4,2,4,35,0,0
80773,-100,4,2,3,35,0,0
81373,-100,4,2,2,35,0,0
84073,-100,4,2,9,40,0,0
84373,-100,4,2,4,35,0,0
84673,-100,4,2,3,35,0,0
85273,-100,4,2,4,35,0,0
85573,-100,4,2,3,35,0,0
86173,-100,4,2,5,35,0,0
86773,-100,4,2,4,20,0,0
87073,-100,4,2,3,35,0,0
87673,-100,4,2,4,35,0,0
87973,-100,4,2,3,35,0,0
88573,-100,4,2,5,35,0,0
88873,-100,4,2,10,45,0,0
89173,-100,4,2,4,35,0,0
89323,-100,4,2,3,35,0,0
90073,-100,4,2,5,35,0,0
91573,-100,4,2,4,20,0,0
91873,-100,4,2,3,35,0,0
92473,-100,4,2,4,35,0,0
92623,-100,4,2,3,35,0,0
93373,-100,4,2,5,35,0,0
93673,-100,4,2,11,40,0,0
93973,-100,4,2,4,35,0,0
94273,-100,4,2,3,35,0,0
94873,-100,4,2,4,35,0,0
95173,-100,4,2,3,35,0,0
95773,-100,4,2,5,35,0,0
96373,-100,4,2,4,35,0,0
96673,-100,4,2,3,35,0,0
97273,-100,4,2,4,35,0,0
97573,-100,4,2,3,35,0,0
98173,-100,4,2,5,35,0,0
98473,-100,4,2,13,60,0,0
98773,-100,4,2,4,35,0,0
98923,-100,4,2,3,35,0,0
99673,-100,4,2,4,35,0,0
99973,-100,4,2,3,35,0,0
100573,-100,4,2,5,35,0,0
101023,-100,4,2,3,35,0,0
101173,-100,4,2,4,20,0,0
101473,-100,4,2,3,35,0,0
102073,-100,4,2,4,35,0,0
102223,-100,4,2,3,35,0,0
102973,-100,4,2,5,35,0,0
103273,-100,4,2,14,60,0,0
103573,-100,4,2,4,35,0,0
103873,-100,4,2,3,35,0,0
104473,-100,4,2,4,35,0,0
104623,-100,4,2,3,35,0,0
105373,-100,4,2,5,35,0,0
105973,-100,4,2,4,35,0,0
106273,-100,4,2,3,35,0,0
106873,-100,4,2,4,35,0,0
107173,-100,4,2,3,35,0,0
107773,-100,4,2,5,35,0,0
108073,-100,4,2,15,60,0,0
108373,-100,4,2,4,35,0,0
108523,-100,4,2,3,35,0,0
109273,-100,4,2,4,35,0,0
109423,-100,4,2,3,35,0,0
110173,-100,4,2,5,35,0,0
110623,-100,4,2,4,35,0,0
111073,-100,4,2,3,35,0,0
111673,-100,4,2,4,35,0,0
111823,-100,4,2,3,35,0,0
112573,-100,4,2,5,35,0,0
112873,-100,4,2,16,80,0,0
113173,-100,4,2,4,35,0,0
113473,-100,4,2,3,35,0,0
114073,-100,4,2,4,35,0,0
114373,-100,4,2,3,35,0,0
114973,-100,4,2,5,35,0,0
115423,-100,4,2,3,35,0,0
115573,-100,4,2,4,35,0,0
115873,-100,4,2,3,35,0,0
116473,-100,4,2,4,35,0,0
116773,-100,4,2,3,35,0,0
117073,-100,4,2,2,70,0,0
117673,-100,4,2,3,45,0,1
118273,-100,4,2,13,60,0,1
118423,-100,4,2,3,45,0,1
119473,-100,4,2,14,60,0,1
119623,-100,4,2,3,45,0,1
120673,-100,4,2,6,65,0,1
120823,-100,4,2,3,45,0,1
121873,-100,4,2,6,65,0,1
122023,-100,4,2,3,45,0,1
123073,-100,4,2,2,45,0,1
123223,-100,4,2,3,45,0,1
124273,-100,4,2,2,45,0,1
124423,-100,4,2,3,45,0,1
125473,-100,4,2,7,45,0,1
125623,-100,4,2,3,45,0,1
126673,-100,4,2,7,45,0,1
126823,-100,4,2,3,45,0,1
127873,-100,4,2,9,45,0,1
128023,-100,4,2,3,45,0,1
129073,-100,4,2,9,45,0,1
129223,-100,4,2,3,45,0,1
130273,-100,4,2,15,70,0,1
130423,-100,4,2,3,45,0,1
131473,-100,4,2,16,85,0,1
131623,-100,4,2,3,45,0,1
132673,-100,4,2,11,45,0,1
132823,-100,4,2,3,45,0,1
133873,-100,4,2,11,45,0,1
134023,-100,4,2,3,45,0,1
134473,-100,4,2,17,85,0,1
134623,-100,4,2,3,45,0,1
134773,-100,4,2,4,45,0,1
135073,-100,4,2,3,45,0,1
135373,-100,4,2,4,45,0,1
135673,-100,4,2,3,45,0,1
136573,-100,4,2,5,45,0,1
136873,-100,4,2,2,35,0,0

[Colours]
Combo1 : 255,28,250
Combo2 : 37,21,181
Combo3 : 141,55,236
Combo4 : 255,43,48
SliderBorder : 100,255,255
SliderTrackOverride : 0,20,40

[HitObjects]
142,312,9673,6,0,P|199:313|247:299,1,100.000000298023,8|4,0:0|0:0,0:0:0:0:
263,173,10273,2,0,P|311:161|361:164,1,100.000000298023,2|4,0:0|0:0,0:0:0:0:
446,191,10873,1,8,0:0:0:0:
465,279,11173,1,4,0:0:0:0:
398,340,11473,1,2,0:0:0:0:
312,312,11773,1,4,0:0:0:0:
211,230,12073,6,0,P|203:178|211:126,1,100.000000298023,8|4,0:0|0:0,0:0:0:0:
324,70,12673,2,0,P|333:118|328:167,1,100.000000298023,2|4,0:0|0:0,0:0:0:0:
298,253,13273,1,8,0:0:0:0:
228,309,13573,1,4,0:0:0:0:
140,289,13873,2,0,P|57:255|15:228,1,100.000000298023,2|4,0:0|0:0,0:0:0:0:
38,121,14473,6,0,P|82:98|129:81,1,100.000000298023,8|4,0:0|0:0,0:0:0:0:
209,185,15073,2,0,P|255:167|298:141,1,100.000000298023,2|4,0:0|0:0,0:0:0:0:
335,59,15673,1,8,0:0:0:0:
257,13,15973,1,4,0:0:0:0:
180,59,16273,1,2,0:0:0:0:
195,148,16573,1,4,0:0:0:0:
329,188,16873,6,0,L|424:216,1,100.000000298023,8|4,0:0|0:0,0:0:0:0:
434,346,17473,2,0,B|384:366|330:358,2,100.000000298023,2|4|8,0:0|0:0|0:0,0:0:0:0:
490,276,18373,1,8,0:0:0:0:
510,188,18673,2,0,P|497:137|472:94,1,100.000000298023,2|4,0:0|0:0,0:0:0:0:
328,59,19273,5,8,0:0:0:0:
273,231,19873,1,2,0:0:0:0:
360,210,20173,1,4,0:0:0:0:
255,208,20473,1,8,0:0:0:0:
382,240,20773,1,8,0:0:0:0:
248,292,21073,1,2,0:0:0:0:
418,316,21373,1,0,0:0:0:0:
418,316,21523,1,8,0:0:0:0:
418,316,21673,6,0,P|456:270|462:216,1,100.000000298023,8|2,0:0|0:0,0:0:0:0:
463,231,22123,1,8,0:0:0:0:
463,231,22273,1,2,0:0:0:0:
405,176,22573,1,4,0:0:0:0:
316,192,22873,2,0,P|307:240|318:288,2,100.000000298023,8|4|10,0:0|0:0|0:0,0:0:0:0:
251,129,23773,1,2,0:0:0:0:
177,180,24073,5,8,0:0:0:0:
193,269,24373,1,4,0:0:0:0:
103,273,24673,2,0,P|47:249|18:202,1,100.000000298023,2|4,0:0|0:0,0:0:0:0:
14,129,25273,2,0,P|23:80|54:42,1,100.000000298023,8|4,0:0|0:0,0:0:0:0:
139,10,25873,1,2,0:0:0:0:
220,49,26173,1,4,0:0:0:0:
295,179,26473,6,0,L|418:171,1,100.000000298023,8|2,0:0|0:0,0:0:0:0:
474,129,27073,1,2,0:0:0:0:
406,69,27373,1,4,0:0:0:0:
316,70,27673,1,8,0:0:0:0:
226,72,27973,1,4,0:0:0:0:
274,148,28273,6,0,P|227:156|159:135,1,100.000000298023,2|2,0:0|0:0,0:0:0:0:
109,204,28873,2,0,L|46:282,1,100.000000298023,8|2,0:0|0:0,0:0:0:0:
13,197,29473,2,0,P|15:130|48:101,1,100.000000298023,2|2,0:0|0:0,0:0:0:0:
170,40,30073,5,8,0:0:0:0:
264,73,30373,1,4,0:0:0:0:
264,73,30523,1,8,0:0:0:0:
264,73,30673,1,2,0:0:0:0:
255,163,30973,1,4,0:0:0:0:
106,176,31273,6,2,P|145:230|174:242,1,100.000000298023,10|2,0:0|0:0,0:0:0:0:
174,242,31723,1,8,0:0:0:0:
174,242,31873,1,2,0:0:0:0:
271,255,32173,1,4,0:0:0:0:
417,221,32473,6,0,P|377:275|348:287,1,100.000000298023,2|0,0:0|0:0,0:0:0:0:
202,320,33073,2,0,P|226:277|270:254,1,100.000000298023,0|4,0:0|0:0,0:0:0:0:
359,249,33673,5,8,0:0:0:0:
444,275,33973,1,2,0:0:0:0:
379,337,34273,1,2,0:0:0:0:
292,312,34573,1,4,0:0:0:0:
243,235,34873,2,0,P|206:197|160:179,1,100.000000298023,8|4,0:0|0:0,0:0:0:0:
235,92,35473,2,2,P|272:131|323:145,1,100.000000298023,2|4,0:0|0:0,0:0:0:0:
450,211,36073,6,0,P|457:280|442:314,1,100.000000298023,8|2,0:0|0:0,0:0:0:0:
367,350,36673,1,2,2:0:0:0:
285,312,36973,1,4,2:0:0:0:
204,352,37273,2,0,B|175:294|132:280,1,100.000000298023,8|4,2:0|0:0,0:0:0:0:
57,241,37873,5,2,0:0:0:0:
60,330,38173,1,4,0:0:0:0:
136,281,38473,2,0,P|157:226|146:183,1,100.000000298023,8|2,0:0|0:0,0:0:0:0:
64,153,39073,2,0,P|43:108|51:59,1,100.000000298023,2|4,0:0|0:0,0:0:0:0:
192,7,39673,5,8,0:0:0:0:
288,29,39973,1,4,0:0:0:0:
288,29,40123,1,8,0:0:0:0:
288,29,40273,1,2,0:0:0:0:
311,116,40573,1,4,0:0:0:0:
237,246,40873,6,0,L|180:332,1,100.000000298023,8|2,0:0|0:0,0:0:0:0:
181,329,41323,1,0,0:0:0:0:
181,329,41473,1,2,0:0:0:0:
278,348,41773,1,4,0:0:0:0:
353,299,42073,1,8,0:0:0:0:
363,209,42373,1,4,0:0:0:0:
307,138,42673,2,0,P|259:119|211:113,1,100.000000298023,2|4,0:0|0:0,0:0:0:0:
135,154,43273,5,8,0:0:0:0:
135,154,43423,1,8,0:0:0:0:
135,154,43573,1,2,0:0:0:0:
128,244,43873,2,0,L|56:323,2,100.000000298023,2|4|8,0:0|0:0|0:2,0:0:0:0:
209,204,44773,1,4,0:0:0:0:
297,223,45073,2,0,B|358:227|408:208,1,100.000000298023,2|4,0:0|0:0,0:0:0:0:
510,114,45673,6,0,B|440:111|378:136|378:137,1,100.000000298023,8|2,0:0|0:0,0:0:0:0:
326,155,46273,1,2,0:0:0:0:
268,224,46573,1,4,0:0:0:0:
181,197,46873,2,0,L|82:225,1,100.000000298023,8|4,0:0|0:0,0:0:0:0:
0,250,47473,1,2,0:0:0:0:
24,336,47773,1,4,0:0:0:0:
114,307,48073,5,8,0:0:0:0:
114,307,48223,1,0,0:0:0:0:
114,307,48373,1,2,0:0:0:0:
202,323,48673,2,0,P|269:325|296:309,1,100.000000298023,2|4,0:0|0:0,0:0:0:0:
335,228,49273,2,0,L|358:109,1,100.000000298023,8|4,0:0|0:0,0:0:0:0:
355,131,49723,1,8,0:0:0:0:
355,131,49873,1,2,0:0:0:0:
283,95,50173,1,4,0:0:0:0:
153,169,50473,6,0,P|224:179|273:211,1,100.000000298023,8|2,0:0|0:0,0:0:0:0:
248,191,50923,1,8,0:0:0:0:
248,191,51073,1,2,0:0:0:0:
312,268,51373,1,4,0:0:0:0:
255,198,51673,1,8,0:0:0:0:
268,109,51973,1,4,0:0:0:0:
356,91,52273,2,0,B|425:80|477:97,1,100.000000298023,2|4,0:0|0:0,0:0:0:0:
507,188,52873,5,8,0:0:0:0:
507,188,53023,1,8,0:0:0:0:
507,188,53173,1,0,0:0:0:0:
507,188,53323,1,0,0:0:0:0:
507,188,53473,1,2,0:0:0:0:
507,277,53773,1,4,0:0:0:0:
437,334,54073,2,0,B|380:361|315:353,1,100.000000298023,8|4,0:0|0:0,0:0:0:0:
198,369,54673,5,2,0:0:0:0:
198,369,54823,1,8,0:0:0:0:
198,369,54973,1,4,0:0:0:0:
143,297,55273,2,0,P|95:237|30:214,2,100.000000298023,8|2|2,0:0|0:0|0:0,0:0:0:0:
223,256,56173,1,4,0:0:0:0:
306,291,56473,2,0,P|360:236|419:228,1,100.000000298023,8|4,0:0|0:0,0:0:0:0:
470,224,57073,2,0,L|482:112,1,100.000000298023,2|4,0:0|0:0,0:0:0:0:
367,43,57673,5,8,0:0:0:0:
367,43,57823,1,8,0:0:0:0:
367,43,57973,1,2,0:0:0:0:
291,91,58273,1,2,0:0:0:0:
353,156,58573,1,4,0:0:0:0:
205,182,58873,6,0,L|189:293,1,100.000000298023,8|4,0:0|0:0,0:0:0:0:
191,281,59323,1,8,0:0:0:0:
191,281,59473,1,2,0:0:0:0:
437,108,60073,6,0,L|373:202,1,100.000000298023,2|4,0:0|0:0,0:0:0:0:
330,28,60673,2,0,L|316:107,1,50.0000001490117,8|8,0:0|0:0,0:0:0:0:
255,24,60973,2,0,L|243:94,1,50.0000001490117,4|8,0:0|0:0,0:0:0:0:
161,73,61273,2,0,L|186:182,1,100.000000298023,2|4,0:0|0:0,0:0:0:0:
354,164,61873,2,0,L|347:270,1,100.000000298023,8|4,0:0|0:0,0:0:0:0:
214,370,62473,6,0,L|235:312,1,50.0000001490117,2|8,0:0|0:0,0:0:0:0:
155,284,62773,2,0,L|176:226,1,50.0000001490117,4|8,0:0|0:0,0:0:0:0:
254,212,63073,2,0,L|369:179,1,100.000000298023,8|4,0:0|0:0,0:0:0:0:
446,325,63673,6,0,L|476:285,1,50.0000001490117,2|8,0:0|0:0,0:0:0:0:
392,268,63973,2,0,L|432:218,1,50.0000001490117,4|8,0:0|0:0,0:0:0:0:
471,158,64273,2,0,L|472:109,2,50.0000001490117,8|8|4,0:0|0:0|0:0,0:0:0:0:
305,121,64873,6,0,L|190:95,1,100.000000298023,2|4,0:0|0:0,0:0:0:0:
77,209,65473,2,0,P|33:213|8:226,1,50.0000001490117,8|8,0:0|0:0,0:0:0:0:
54,134,65773,2,0,P|12:115|-21:117,1,50.0000001490117,4|8,0:0|0:0,0:0:0:0:
43,37,66073,2,0,P|93:51|150:43,1,100.000000298023,2|4,2:0|2:0,2:0:0:0:
283,138,66673,2,0,P|235:124|185:128,1,100.000000298023,8|4,2:0|2:0,2:0:0:0:
270,278,67273,6,0,P|236:249|209:241,1,50.0000001490117,2|8,0:0|0:0,0:0:0:0:
199,326,67573,2,0,P|155:330|130:343,1,50.0000001490117,4|8,0:0|0:0,0:0:0:0:
99,263,67873,2,0,P|49:267|1:253,1,100.000000298023,8|4,2:0|2:0,2:0:0:0:
153,175,68473,6,0,P|167:154|176:131,1,50.0000001490117,2|8,0:0|0:0,0:0:0:0:
254,165,68773,2,0,P|278:158|303:159,1,50.0000001490117,4|8,0:0|0:0,0:0:0:0:
386,176,69073,2,0,L|426:206,2,50.0000001490117,8|8|4,0:0|0:0|0:0,0:0:0:0:
328,336,69673,6,0,L|368:306,1,50.0000001490117,2|8,0:0|0:0,0:0:0:0:
292,266,69973,2,0,L|332:236,1,50.0000001490117,4|8,0:0|0:0,0:0:0:0:
256,196,70273,2,8,L|296:166,1,50.0000001490117,8|8,2:0|0:0,0:0:0:0:
220,126,70573,2,0,L|260:96,1,50.0000001490117,4|8,2:0|0:0,0:0:0:0:
183,57,70873,2,0,L|223:27,2,50.0000001490117,2|8|4,2:0|0:0|2:0,0:0:0:0:
346,7,71473,2,0,P|395:14|438:39,1,100.000000298023,8|4,2:0|2:0,2:0:0:0:
469,207,72073,5,2,0:0:0:0:
466,251,72223,1,8,0:0:0:0:
452,293,72373,1,4,0:0:0:0:
423,328,72523,1,8,0:0:0:0:
380,343,72673,2,0,P|330:347|282:333,1,100.000000298023,8|4,2:0|2:0,2:0:0:0:
121,279,73273,6,2,L|90:240,1,50.0000001490117,2|8,0:0|0:0,0:0:0:0:
21,289,73573,2,2,L|-5:229,1,50.0000001490117,4|8,0:0|0:0,0:0:0:0:
38,167,73873,2,0,L|-3:121,2,50.0000001490117,8|8|4,0:0|0:0|0:0,0:0:0:0:
150,39,74473,6,0,L|198:162,1,100.000000298023,2|4,2:0|2:0,2:0:0:0:
259,176,74923,1,8,0:0:0:0:
331,219,75073,2,0,L|379:342,1,100.000000298023,8|4,2:0|2:0,2:0:0:0:
304,370,75523,1,8,0:0:0:0:
219,358,75673,2,0,L|158:373,1,50.0000001490117,2|8,2:0|0:0,0:0:0:0:
171,284,75973,2,0,L|109:298,1,50.0000001490117,4|8,2:0|0:0,0:0:0:0:
127,209,76273,2,0,P|80:190|30:189,1,100.000000298023,8|4,2:0|2:0,2:0:0:0:
256,192,76873,12,8,78673,0:0:0:0:
256,192,78973,5,4,0:0:0:0:
256,192,79123,1,8,0:0:0:0:
256,192,79273,2,0,L|185:109,1,100.000000298023,8|2,0:0|0:0,0:0:0:0:
190,116,79723,1,8,0:0:0:0:
190,116,79873,1,2,0:0:0:0:
160,205,80173,5,4,0:0:0:0:
131,290,80473,1,8,0:0:0:0:
218,269,80773,1,4,0:0:0:0:
191,354,81073,1,2,0:0:0:0:
279,331,81373,1,4,0:0:0:0:
124,74,84073,6,0,L|213:139,1,100.000000298023,8|2,0:0|0:0,0:0:0:0:
286,95,84673,1,2,0:0:0:0:
365,136,84973,1,4,0:0:0:0:
444,94,85273,2,0,P|457:155|427:196,1,100.000000298023,8|4,0:0|0:0,0:0:0:0:
379,252,85873,5,2,0:0:0:0:
437,320,86173,1,4,0:0:0:0:
351,348,86473,2,0,L|237:333,1,100.000000298023,8|4,0:0|0:0,0:0:0:0:
287,252,87073,2,0,P|239:240|195:263,1,100.000000298023,2|4,0:0|0:0,0:0:0:0:
72,348,87673,5,8,0:0:0:0:
57,268,87973,1,4,0:0:0:0:
57,268,88123,1,8,0:0:0:0:
57,268,88273,1,2,0:0:0:0:
105,192,88573,1,4,0:0:0:0:
8,77,88873,6,0,P|3:137|30:180,1,100.000000298023,10|2,0:0|0:0,0:0:0:0:
20,170,89323,1,8,0:0:0:0:
20,170,89473,1,2,0:0:0:0:
91,115,89773,1,4,0:0:0:0:
198,10,90073,6,0,P|239:37|259:82,1,100.000000298023,2|0,0:0|0:0,0:0:0:0:
410,80,90673,2,0,P|368:107|348:152,1,100.000000298023,0|4,0:0|0:0,0:0:0:0:
339,241,91273,5,8,0:0:0:0:
304,324,91573,1,4,0:0:0:0:
215,340,91873,2,0,L|120:305,1,100.000000298023,2|4,0:0|0:0,0:0:0:0:
184,240,92473,2,0,L|122:136,1,100.000000298023,8|4,0:0|0:0,0:0:0:0:
220,134,93073,2,0,L|220:-3,1,100.000000298023,2|4,0:0|0:0,0:0:0:0:
352,106,93673,6,0,P|384:143|391:192,1,100.000000298023,8|2,0:0|0:0,0:0:0:0:
338,264,94273,1,2,0:0:0:0:
395,332,94573,1,4,0:0:0:0:
308,357,94873,2,0,P|266:328|243:284,1,100.000000298023,8|4,0:0|0:0,0:0:0:0:
226,196,95473,5,2,0:0:0:0:
166,128,95773,1,4,0:0:0:0:
76,128,96073,1,8,0:0:0:0:
17,196,96373,1,2,0:0:0:0:
76,263,96673,2,0,P|94:308|78:354,1,100.000000298023,2|4,0:0|0:0,0:0:0:0:
162,230,97273,5,8,0:0:0:0:
107,173,97573,1,4,0:0:0:0:
107,173,97723,1,8,0:0:0:0:
107,173,97873,1,2,0:0:0:0:
137,88,98173,1,4,0:0:0:0:
242,195,98473,6,0,P|290:193|326:159,1,100.000000298023,8|2,0:0|0:0,0:0:0:0:
326,159,98923,1,8,0:0:0:0:
326,159,99073,1,2,0:0:0:0:
335,77,99373,1,4,0:0:0:0:
273,10,99673,2,0,P|224:13|188:46,1,100.000000298023,8|4,0:0|0:0,0:0:0:0:
167,133,100273,1,2,0:0:0:0:
234,191,100573,1,4,0:0:0:0:
295,125,100873,5,8,0:0:0:0:
295,125,101023,1,8,0:0:0:0:
295,125,101173,1,4,0:0:0:0:
250,47,101473,2,0,L|140:48,2,100.000000298023,2|4|8,0:0|0:0|0:0,0:0:0:0:
341,48,102373,1,4,0:0:0:0:
411,104,102673,2,0,P|428:149|412:196,1,100.000000298023,2|4,0:0|0:0,0:0:0:0:
317,314,103273,6,0,L|324:196,1,100.000000298023,8|2,0:0|0:0,0:0:0:0:
411,196,103873,1,2,0:0:0:0:
499,177,104173,1,4,0:0:0:0:
438,110,104473,2,0,B|396:65|396:65|342:56,1,100.000000298023,8|4,0:0|0:0,0:0:0:0:
268,46,105073,1,2,0:0:0:0:
187,85,105373,1,4,0:0:0:0:
227,176,105673,5,8,0:0:0:0:
227,176,105823,1,0,0:0:0:0:
227,176,105973,1,2,0:0:0:0:
155,230,106273,2,0,L|190:326,1,100.000000298023,2|4,0:0|0:0,0:0:0:0:
265,275,106873,2,0,L|367:310,1,100.000000298023,8|4,0:0|0:0,0:0:0:0:
359,307,107323,1,8,0:0:0:0:
359,307,107473,1,2,0:0:0:0:
442,265,107773,1,4,0:0:0:0:
467,117,108073,6,0,P|474:69|448:26,1,100.000000298023,8|2,0:0|0:0,0:0:0:0:
448,26,108523,1,2,0:0:0:0:
448,26,108673,1,2,0:0:0:0:
364,32,108973,2,0,L|249:39,1,100.000000298023,4|8,0:0|0:0,0:0:0:0:
223,120,109573,1,4,0:0:0:0:
185,201,109873,2,0,P|135:192|88:205,1,100.000000298023,2|4,0:0|0:0,0:0:0:0:
57,297,110473,5,8,0:0:0:0:
57,297,110623,1,8,0:0:0:0:
57,297,110773,1,2,0:0:0:0:
57,297,110923,1,0,0:0:0:0:
57,297,111073,1,2,0:0:0:0:
137,341,111373,1,4,0:0:0:0:
226,325,111673,2,0,L|343:330,1,100.000000298023,8|4,0:0|0:0,0:0:0:0:
412,209,112273,5,2,0:0:0:0:
412,209,112423,1,8,0:0:0:0:
412,209,112573,1,4,0:0:0:0:
345,147,112873,2,0,L|345:41,2,100.000000298023,8|2|2,0:0|0:0|0:0,0:0:0:0:
259,174,113773,1,4,0:0:0:0:
171,196,114073,2,0,P|128:222|103:264,1,100.000000298023,8|4,0:0|0:0,0:0:0:0:
176,316,114673,2,0,P|229:281|243:247,1,100.000000298023,2|4,0:0|0:0,0:0:0:0:
202,114,115273,5,8,0:0:0:0:
202,114,115423,1,8,0:0:0:0:
202,114,115573,1,2,0:0:0:0:
139,50,115873,1,2,0:0:0:0:
75,114,116173,1,4,0:0:0:0:
143,173,116473,6,0,P|93:203|39:198,1,100.000000298023,8|4,0:0|0:0,0:0:0:0:
53,202,116923,1,8,0:0:0:0:
63,212,117073,2,0,L|44:253,6,25.0000000745059,2|0|0|0|0|0|0,0:0|0:0|0:0|0:0|0:0|0:0|0:0,0:0:0:0:
117,277,117673,6,0,L|181:371,1,100.000000298023,2|4,0:0|0:0,0:0:0:0:
331,297,118273,2,0,L|410:327,1,50.0000001490117,8|8,0:0|0:0,0:0:0:0:
414,237,118573,2,0,L|471:240,1,50.0000001490117,4|8,0:0|0:0,0:0:0:0:
450,155,118873,2,0,L|501:55,1,100.000000298023,2|4,0:0|0:0,0:0:0:0:
332,16,119473,2,0,L|362:133,1,100.000000298023,8|4,0:0|0:0,0:0:0:0:
307,276,120073,6,0,L|286:218,1,50.0000001490117,2|8,0:0|0:0,0:0:0:0:
220,179,120373,2,0,L|199:121,1,50.0000001490117,4|8,0:0|0:0,0:0:0:0:
136,185,120673,2,0,L|21:152,1,100.000000298023,8|4,0:0|0:0,0:0:0:0:
91,319,121273,6,0,L|121:359,1,50.0000001490117,2|8,0:0|0:0,0:0:0:0:
198,323,121573,2,0,L|192:372,1,50.0000001490117,4|8,0:0|0:0,0:0:0:0:
270,336,121873,2,0,L|308:305,2,50.0000001490117,8|8|4,0:0|0:0|0:0,0:0:0:0:
121,252,122473,6,0,L|183:152,1,100.000000298023,2|4,0:0|0:0,0:0:0:0:
344,153,123073,2,0,P|377:124|404:116,1,50.0000001490117,8|8,0:0|0:0,0:0:0:0:
307,83,123373,2,0,P|323:39|348:17,1,50.0000001490117,4|8,0:0|0:0,0:0:0:0:
246,9,123673,2,0,P|220:54|174:88,1,100.000000298023,2|4,2:0|2:0,2:0:0:0:
148,248,124273,2,0,P|172:204|210:171,1,100.000000298023,8|4,2:0|2:0,2:0:0:0:
256,338,124873,6,0,P|259:293|272:268,1,50.0000001490117,2|8,0:0|0:0,0:0:0:0:
340,322,125173,2,0,P|373:293|400:285,1,50.0000001490117,4|8,0:0|0:0,0:0:0:0:
367,206,125473,2,0,P|405:173|429:129,1,100.000000298023,8|4,2:0|2:0,2:0:0:0:
290,32,126073,6,0,P|265:38|241:40,1,50.0000001490117,2|8,0:0|0:0,0:0:0:0:
200,115,126373,2,0,P|175:110|150:115,1,50.0000001490117,4|8,0:0|0:0,3:0:0:0:
71,83,126673,2,0,L|31:113,2,50.0000001490117,8|8|4,0:0|0:0|0:0,0:0:0:0:
78,253,127273,6,0,L|70:203,1,50.0000001490117,2|8,0:0|0:0,0:0:0:0:
147,239,127573,2,0,L|139:189,1,50.0000001490117,4|8,0:0|0:0,0:0:0:0:
224,177,127873,2,8,L|231:127,1,50.0000001490117,8|8,2:0|0:0,0:0:0:0:
295,183,128173,2,0,L|302:133,1,50.0000001490117,4|8,2:0|0:0,0:0:0:0:
366,190,128473,2,0,L|373:140,2,50.0000001490117,2|8|4,2:0|0:0|2:0,0:0:0:0:
498,296,129073,2,0,P|449:303|406:328,1,100.000000298023,8|4,2:0|2:0,2:0:0:0:
235,323,129673,5,2,0:0:0:0:
196,300,129823,1,8,0:0:0:0:
157,323,129973,1,4,0:0:0:0:
117,300,130123,1,8,0:0:0:0:
78,323,130273,2,0,P|59:276|58:227,1,100.000000298023,8|4,2:0|2:0,2:0:0:0:
219,170,130873,6,2,L|250:131,1,50.0000001490117,2|8,0:0|0:0,0:0:0:0:
166,110,131173,2,2,L|192:50,1,50.0000001490117,4|8,0:0|0:0,0:0:0:0:
269,46,131473,2,0,L|331:41,2,50.0000001490117,8|8|4,0:0|0:0|0:0,0:0:0:0:
430,100,132073,6,0,L|369:201,1,100.000000298023,2|4,2:0|2:0,2:0:0:0:
306,231,132523,1,8,0:0:0:0:
221,239,132673,2,0,L|101:253,1,100.000000298023,8|4,2:0|2:0,2:0:0:0:
56,305,133123,1,8,0:0:0:0:
138,326,133273,2,0,L|199:341,1,50.0000001490117,2|8,2:0|0:0,0:0:0:0:
271,325,133573,2,0,L|333:339,1,50.0000001490117,4|8,2:0|0:0,0:0:0:0:
403,320,133873,2,0,P|432:278|444:229,1,100.000000298023,8|4,2:0|2:0,2:0:0:0:
256,192,134473,5,8,0:0:0:0:
256,192,134623,1,8,0:0:0:0:
256,192,134773,1,2,0:0:0:0:
132,312,135073,5,2,0:0:0:0:
312,136,135373,5,2,0:0:0:0:
376,312,135673,5,2,0:0:0:0:
376,312,135823,1,8,0:0:0:0:
376,312,135973,1,4,0:0:0:0:
200,136,136273,5,4,0:0:0:0:
200,136,136423,1,8,0:0:0:0:
200,136,136573,1,4,0:0:0:0:
256,288,136873,5,4,0:0:0:0:
