osu file format v14

[General]
AudioFilename: audio.mp3
AudioLeadIn: 0
PreviewTime: 68922
Countdown: 0
SampleSet: Normal
StackLeniency: 0.7
Mode: 0
LetterboxInBreaks: 0
WidescreenStoryboard: 0

[Editor]
DistanceSpacing: 2.3
BeatDivisor: 4
GridSize: 8
TimelineZoom: 2.5

[Metadata]
Title:Too Dumb to Die
TitleUnicode:Too Dumb to Die
Artist:Green Day
ArtistUnicode:Green Day
Creator:nasobol90
Version:Extreme
Source:
Tags:
BeatmapID:1481457
BeatmapSetID:699638

[Difficulty]
HPDrainRate:6
CircleSize:4.2
OverallDifficulty:8.7
ApproachRate:9.2
SliderMultiplier:1.6
SliderTickRate:1

[Events]
//Background and Video events
0,0,"654152957_1280x720.jpg",0,0
//Break Periods
2,150320,154759
//Storyboard Layer 0 (Background)
//Storyboard Layer 1 (Fail)
//Storyboard Layer 2 (Pass)
//Storyboard Layer 3 (Foreground)
//Storyboard Sound Samples

[TimingPoints]
35868.9092594926,359.280903214221,4,1,1,100,1,0
70359,-80,4,1,1,100,0,1
80240,-66.6666666666667,4,1,1,100,0,0
81856,-80,4,1,1,100,0,1
91737,-66.6666666666667,4,1,1,100,0,1
92635,-80,4,1,1,100,0,0
94431,-57.1428571428571,4,1,1,100,0,0
94790,-80,4,1,1,100,0,0
97305,-133.333333333333,4,1,1,100,0,0
97665,-80,4,1,1,100,0,0
100180,-57.1428571428571,4,1,1,100,0,0
100539,-80,4,1,1,100,0,0
103054,-133.333333333333,4,1,1,100,0,0
103413,-80,4,1,1,100,0,0
105030,-100,4,2,1,100,0,0
114910,-100,4,1,1,100,0,0
127844,-80,4,1,1,100,0,1
137725,-66.6666666666667,4,1,1,100,0,0
139341,-80,4,1,1,100,0,1
149222,-66.6666666666667,4,1,1,100,0,1
150120,-57.1428571428571,4,1,1,100,0,0
156228,-57.1428571428571,4,1,1,100,0,1
156587,-80,4,1,1,100,0,0
163413,-76.9230769230769,4,1,1,100,0,0
163772,-74.0740740740741,4,1,1,100,0,0
165210,-71.4285714285714,4,1,1,100,0,0
166826,-80,4,1,1,100,0,0
168084,-80,4,1,1,100,0,1
177964,-66.6666666666667,4,1,1,100,0,0
179581,-80,4,1,1,100,0,1
189461,-66.6666666666667,4,1,1,100,0,1
190359,-80,4,1,1,100,0,0
192156,-57.1428571428571,4,1,1,100,0,0
192515,-80,4,1,1,100,0,0
195030,-133.333333333333,4,1,1,100,0,0
195389,-80,4,1,1,100,0,0
197904,-57.1428571428571,4,1,1,100,0,0
198263,-80,4,1,1,100,0,0
200778,-133.333333333333,4,1,1,100,0,0

[HitObjects]
367,113,35868,6,0,L|335:212,1,80,4|0,0:0|0:0,0:0:0:0:
304,296,36228,1,8,0:0:0:0:
240,232,36407,1,0,0:0:0:0:
408,280,36587,2,0,P|306:321|282:366,2,160,0|8|2,0:0|0:0|0:0,0:0:0:0:
216,280,37485,1,2,0:0:0:0:
336,152,37665,5,8,0:0:0:0:
336,152,37844,1,0,0:0:0:0:
178,217,38024,1,0,0:0:0:0:
432,224,38204,5,12,0:0:0:0:
232,128,38383,1,12,0:0:0:0:
250,276,38563,1,0,0:0:0:0:
248,144,38743,6,0,B|254:100|254:100|284:37,1,80,4|0,0:0|0:0,0:0:0:0:
299,346,39102,2,0,B|256:358|256:358|186:356,1,80,8|0,0:0|0:0,0:0:0:0:
445,212,39461,2,0,P|481:265|480:360,2,160,0|8|2,0:0|0:0|0:0,0:0:0:0:
351,114,40359,1,2,0:0:0:0:
398,295,40539,5,8,0:0:0:0:
398,295,40719,1,0,0:0:0:0:
349,91,40898,1,0,0:0:0:0:
253,245,41078,5,12,0:0:0:0:
482,212,41258,1,12,0:0:0:0:
340,215,41437,1,0,0:0:0:0:
423,303,41617,6,0,P|472:315|531:296,1,80
380,224,41976,1,8,0:0:0:0:
380,224,42156,1,0,0:0:0:0:
291,343,42335,2,0,B|288:281|288:281|262:159,2,160,0|8|0,0:0|0:0|0:0,0:0:0:0:
374,83,43234,5,2,0:0:0:0:
279,191,43413,2,0,P|229:209|180:200,1,80,8|0,0:0|0:0,0:0:0:0:
63,173,43773,1,0,0:0:0:0:
109,351,43952,5,12,0:0:0:0:
227,124,44132,1,12,0:0:0:0:
224,300,44312,1,0,0:0:0:0:
82,268,44491,6,0,B|44:248|44:248|14:206,1,80,4|0,0:0|0:0,0:0:0:0:
298,270,44850,2,0,B|299:312|299:312|278:359,1,80,8|0,0:0|0:0,0:0:0:0:
176,159,45210,2,0,P|178:85|207:3,2,160,0|8|2,0:0|0:0|0:0,0:0:0:0:
241,264,46108,1,2,0:0:0:0:
342,77,46288,5,8,0:0:0:0:
342,77,46467,1,0,0:0:0:0:
378,212,46647,1,0,0:0:0:0:
364,0,46826,5,12,0:0:0:0:
191,201,47006,1,12,0:0:0:0:
447,248,47186,1,0,0:0:0:0:
297,145,47365,6,0,B|306:198|306:198|297:305,1,160,4|8,0:0|0:0,0:0:0:0:
168,343,47904,1,0,0:0:0:0:
59,243,48084,2,0,B|136:236|240:251,1,160,0|8,0:0|0:0,0:0:0:0:
396,277,48623,6,0,L|391:380,1,80
316,136,48982,2,0,L|321:36,1,80,0|8,0:0|0:0,0:0:0:0:
470,186,49341,1,0,0:0:0:0:
470,186,49521,2,0,P|430:209|389:216,1,80
205,227,49880,1,8,0:0:0:0:
305,297,50060,1,0,0:0:0:0:
132,144,50240,6,0,B|110:235|110:235|118:318,1,160,0|8,0:0|0:0,0:0:0:0:
223,331,50779,1,0,0:0:0:0:
219,222,50958,2,0,P|284:240|379:222,1,160,0|8,0:0|0:0,0:0:0:0:
205,299,51497,6,0,P|260:317|304:320,1,80
293,77,51856,2,0,P|285:129|291:169,1,80,0|8,0:0|0:0,0:0:0:0:
370,285,52216,1,0,0:0:0:0:
366,133,52395,1,0,0:0:0:0:
211,252,52575,5,12,0:0:0:0:
441,220,52755,1,12,0:0:0:0:
291,182,52934,1,0,0:0:0:0:
421,310,53114,6,0,B|431:229|431:229|412:137,1,160,4|8,0:0|0:0,0:0:0:0:
273,140,53653,1,0,0:0:0:0:
351,242,53832,2,0,P|282:222|198:253,1,160,0|8,0:0|0:0,0:0:0:0:
131,102,54371,6,0,B|240:121,1,80
77,217,54731,2,0,B|-25:191,1,80,0|8,0:0|0:0,0:0:0:0:
197,240,55090,1,0,0:0:0:0:
197,240,55270,2,0,B|191:295|171:343,1,80
355,357,55629,1,8,0:0:0:0:
319,211,55808,1,0,0:0:0:0:
160,343,55988,6,0,B|80:332|80:332|-1:341,1,160,0|8,0:0|0:0,0:0:0:0:
162,247,56527,1,0,0:0:0:0:
241,327,56707,6,0,P|317:340|401:324,1,160,0|8,0:0|0:0,0:0:0:0:
126,271,57246,6,0,P|121:223|129:188,1,80
252,25,57605,2,0,P|257:73|249:108,1,80,0|8,0:0|0:0,0:0:0:0:
212,235,57964,1,0,0:0:0:0:
351,187,58144,1,0,0:0:0:0:
169,66,58323,1,12,0:0:0:0:
336,97,58503,1,12,0:0:0:0:
131,164,58683,1,0,0:0:0:0:
350,234,58862,6,0,B|361:184|361:184|354:141|354:141|371:100|356:59,1,160,4|8,0:0|0:0,0:0:0:0:
268,193,59401,1,0,0:0:0:0:
276,95,59581,2,0,P|202:74|113:109,1,160,0|8,0:0|0:0,0:0:0:0:
316,205,60120,6,0,L|407:199,1,80
171,280,60479,2,0,L|83:260,1,80,0|8,0:0|0:0,0:0:0:0:
257,313,60838,1,0,0:0:0:0:
290,181,61018,2,0,B|295:132|295:132|288:87,1,80
70,119,61377,1,8,0:0:0:0:
210,128,61557,1,0,0:0:0:0:
59,276,61737,6,0,B|57:215|57:215|46:177|46:177|46:92,1,160,0|8,0:0|0:0,0:0:0:0:
137,236,62276,1,0,0:0:0:0:
134,135,62455,2,0,P|188:125|264:197,1,160,0|8,0:0|0:0,0:0:0:0:
70,217,62994,6,0,P|41:186|27:133,1,80
194,297,63353,2,0,P|160:322|105:330,1,80,0|8,0:0|0:0,0:0:0:0:
283,192,63713,5,0,0:0:0:0:
374,334,63892,1,0,0:0:0:0:
155,223,64072,5,14,0:0:0:0:
362,155,64252,1,12,0:0:0:0:
139,114,64431,1,0,0:0:0:0:
410,234,64611,6,0,P|443:190|417:90,1,160,4|8,0:0|0:0,0:0:0:0:
319,270,65150,1,0,0:0:0:0:
395,327,65329,2,8,P|454:299|515:222,1,160,0|8,0:0|0:0,0:0:0:0:
319,270,65868,6,0,B|311:314|311:314|311:369,1,80
375,144,66228,2,0,B|330:140|330:140|275:146,1,80,0|8,0:0|0:0,0:0:0:0:
424,236,66587,1,0,0:0:0:0:
447,82,66767,2,0,L|460:-5,1,80
424,236,67126,1,8,0:0:0:0:
352,128,67305,1,0,0:0:0:0:
470,315,67485,6,0,B|404:321|404:321|299:300,1,160,0|8,0:0|0:0,0:0:0:0:
103,255,68024,1,0,0:0:0:0:
178,327,68204,2,0,B|220:272|220:272|249:170,1,160,0|8,0:0|0:0,0:0:0:0:
332,265,68743,6,0,P|382:275|412:268,1,80
312,128,69102,1,0,0:0:0:0:
512,205,69282,1,8,0:0:0:0:
419,99,69461,1,0,0:0:0:0:
408,268,69641,1,0,0:0:0:0:
382,0,69820,5,14,0:0:0:0:
254,244,70000,1,12,0:0:0:0:
486,132,70180,1,8,0:0:0:0:
238,334,70359,6,0,P|177:293|167:219,1,150,4|0,0:0|0:0,0:0:0:0:
96,172,70719,2,0,P|82:233|85:291,1,100,8|0,0:0|0:0,0:0:0:0:
252,157,71078,1,2,0:0:0:0:
87,58,71258,1,2,0:0:0:0:
240,256,71437,1,8,0:0:0:0:
343,61,71617,1,2,0:0:0:0:
343,61,71976,5,0,0:0:0:0:
480,191,72156,2,0,P|447:236|353:240,1,150,8|0,0:0|0:0,0:0:0:0:
295,209,72515,1,2,0:0:0:0:
272,384,72695,1,2,0:0:0:0:
103,197,72874,1,8,0:0:0:0:
168,317,73054,1,0,0:0:0:0:
168,120,73234,6,0,B|120:104|120:104|32:112,1,100,4|0,0:0|0:0,0:0:0:0:
304,96,73593,2,0,B|344:56|344:56|368:0,1,100,8|0,0:0|0:0,0:0:0:0:
272,216,73952,2,2,B|298:265|298:265|345:305,1,100
412,198,74311,5,8,0:0:0:0:
178,137,74491,2,0,B|162:240|179:354,1,200,4|0,0:0|0:0,0:0:0:0:
289,134,75030,5,8,0:0:0:0:
289,134,75210,1,0,0:0:0:0:
278,359,75389,1,2,0:0:0:0:
125,199,75569,1,2,0:0:0:0:
403,263,75749,1,8,0:0:0:0:
39,212,75928,5,0,0:0:0:0:
46,159,76017,1,0,0:0:0:0:
61,108,76108,2,0,P|91:110|118:124,1,50,2|0,0:0|0:0,0:0:0:0:
115,316,76288,2,0,P|87:310|56:291,1,50,2|0,0:0|0:0,0:0:0:0:
217,32,76467,2,0,B|231:112|231:112|225:210,1,150,12|0,0:0|0:0,0:0:0:0:
284,235,76826,5,0,0:0:0:0:
153,158,77006,1,0,0:0:0:0:
167,358,77186,2,0,P|239:377|348:348,1,150,12|0,0:0|0:0,0:0:0:0:
381,383,77545,5,0,0:0:0:0:
262,289,77725,1,0,0:0:0:0:
512,289,77904,2,0,L|355:278,1,150,12|0,0:0|0:0,0:0:0:0:
310,226,78264,1,0,0:0:0:0:
444,358,78443,1,0,0:0:0:0:
469,133,78623,1,8,0:0:0:0:
201,248,78802,5,0,0:0:0:0:
201,248,78892,1,0,0:0:0:0:
201,248,78982,2,0,P|152:184|177:69,2,200,4|8|2,0:0|0:0|0:0,0:0:0:0:
403,270,79880,1,2,0:0:0:0:
246,150,80060,1,8,0:0:0:0:
497,105,80240,6,0,B|491:189|491:189|501:257|501:257|494:350,1,240.000009155274,4|2,0:0|0:0,0:0:0:0:
184,302,80779,1,8,0:0:0:0:
424,256,80958,1,2,0:0:0:0:
161,163,81138,1,2,0:0:0:0:
198,137,81227,1,2,0:0:0:0:
242,127,81317,1,2,0:0:0:0:
286,135,81407,1,2,0:0:0:0:
324,159,81497,1,10,0:0:0:0:
105,5,81677,1,2,0:0:0:0:
56,42,81766,1,2,0:0:0:0:
31,97,81856,6,0,B|97:137|97:137|170:150,1,150,4|0,0:0|0:0,0:0:0:0:
189,231,82216,2,0,L|85:211,1,100,8|0,0:0|0:0,0:0:0:0:
288,144,82575,1,2,0:0:0:0:
284,319,82755,1,2,0:0:0:0:
149,74,82934,1,8,0:0:0:0:
380,71,83114,1,2,0:0:0:0:
378,70,83473,5,0,0:0:0:0:
351,256,83653,2,0,B|430:250|430:250|497:207,1,150,8|0,0:0|0:0,0:0:0:0:
439,158,84012,1,2,0:0:0:0:
258,200,84192,1,2,0:0:0:0:
452,356,84371,1,8,0:0:0:0:
257,306,84551,1,0,0:0:0:0:
378,80,84731,6,0,B|415:112|415:112|439:158,1,100,4|0,0:0|0:0,0:0:0:0:
126,139,85090,2,0,B|135:90|135:90|163:46,1,100,8|0,0:0|0:0,0:0:0:0:
303,327,85449,2,2,B|256:343|256:343|204:340,1,100
434,203,85808,5,8,0:0:0:0:
227,250,85988,2,0,P|217:191|315:90,1,200,4|0,0:0|0:0,0:0:0:0:
464,152,86527,1,8,0:0:0:0:
464,152,86707,1,0,0:0:0:0:
160,112,86886,1,2,0:0:0:0:
370,270,87066,1,2,0:0:0:0:
276,5,87246,1,8,0:0:0:0:
266,316,87425,5,0,0:0:0:0:
315,328,87514,1,0,0:0:0:0:
367,320,87605,2,0,L|373:231,1,50,2|0,0:0|0:0,0:0:0:0:
300,121,87784,2,0,L|296:203,1,50,2|0,0:0|0:0,0:0:0:0:
451,380,87964,2,0,B|451:304|451:304|473:225,1,150,12|0,0:0|0:0,0:0:0:0:
503,157,88323,5,0,0:0:0:0:
365,247,88503,1,0,0:0:0:0:
412,61,88683,6,0,P|348:85|261:79,1,150,12|0,0:0|0:0,0:0:0:0:
201,127,89042,5,0,0:0:0:0:
298,1,89222,1,0,0:0:0:0:
28,29,89401,6,0,L|177:50,1,150,8|0,0:0|0:0,0:0:0:0:
245,84,89761,5,0,0:0:0:0:
81,135,89940,1,0,0:0:0:0:
327,207,90120,1,8,0:0:0:0:
342,28,90299,1,0,0:0:0:0:
236,281,90479,6,0,B|120:278|120:278|43:234,2,200,4|8|2,0:0|0:0|0:0,0:0:0:0:
512,267,91377,1,2,0:0:0:0:
403,56,91557,1,8,0:0:0:0:
323,363,91737,2,0,B|322:273|322:273|306:205|306:205|304:81,1,240.000009155274,4|0,0:0|0:0,0:0:0:0:
217,341,92276,5,2,0:0:0:0:
473,223,92455,1,2,0:0:0:0:
66,151,92635,1,8,0:0:0:0:
66,151,93353,6,0,P|91:209|137:235,1,100,4|0,0:0|0:0,0:0:0:0:
332,285,93713,2,0,B|330:343|330:343|312:401,1,100,8|0,0:0|0:0,0:0:0:0:
168,139,94072,2,0,P|241:117|344:162,1,150
353,198,94431,6,0,B|365:158|365:158|364:126|364:126|375:95|375:95|371:46,1,140.000001335144,8|0,0:0|0:0,0:0:0:0:
441,321,94790,6,0,P|356:335|301:327,1,100
97,332,95150,1,8,0:0:0:0:
220,217,95329,1,0,0:0:0:0:
205,384,95509,1,0,0:0:0:0:
288,136,95689,5,12,0:0:0:0:
24,176,95868,1,12,0:0:0:0:
208,280,96048,1,0,0:0:0:0:
132,135,96228,6,0,L|123:276,1,100
364,225,96587,2,0,P|308:169|264:160,1,100,8|0,0:0|0:0,0:0:0:0:
188,337,96946,2,0,B|237:363|237:363|348:365,1,150
348,291,97305,6,8,B|325:289|325:289|306:293|306:293|285:292,1,60.0000022888184,8|0,0:0|0:0,0:0:0:0:
496,362,97665,6,0,L|494:249,1,100
493,69,98024,1,8,0:0:0:0:
337,148,98204,1,0,0:0:0:0:
510,173,98383,1,0,0:0:0:0:
211,304,98563,5,12,0:0:0:0:
304,47,98743,1,12,0:0:0:0:
442,218,98922,1,0,0:0:0:0:
179,180,99102,6,0,P|131:132|113:87,1,100,4|0,0:0|0:0,0:0:0:0:
382,233,99461,2,0,L|494:230,1,100,8|0,0:0|0:0,0:0:0:0:
245,332,99820,2,0,L|91:331,1,150
23,328,100180,6,0,B|31:292|31:292|47:263|47:263|51:229|51:229|71:190,1,140.000001335144,8|0,0:0|0:0,0:0:0:0:
288,235,100539,6,0,B|250:255|250:255|173:256,1,100
128,48,100898,1,8,0:0:0:0:
256,136,101078,1,0,0:0:0:0:
55,170,101258,1,0,0:0:0:0:
350,32,101437,5,12,0:0:0:0:
347,298,101617,1,12,0:0:0:0:
167,126,101796,1,0,0:0:0:0:
286,361,101976,6,0,B|334:373|334:373|409:365,1,100
129,237,102335,2,0,L|121:353,1,100,8|0,0:0|0:0,0:0:0:0:
326,242,102695,2,0,B|327:132|327:132|307:63,1,150
254,173,103054,6,0,B|254:143|254:143|246:114,1,60.0000022888184,8|0,0:0|0:0,0:0:0:0:
0,244,103413,6,0,P|53:266|114:266,1,100
104,30,103772,1,8,0:0:0:0:
248,106,103952,1,0,0:0:0:0:
55,147,104132,1,2,0:0:0:0:
456,43,104311,5,14,0:0:0:0:
321,327,104491,1,12,0:0:0:0:
247,103,104671,1,0,0:0:0:0:
364,192,104850,5,0,0:0:0:0:
364,192,105030,1,0,0:0:0:0:
229,256,105210,2,0,P|187:274|147:279,1,80,2|2,0:0|0:0,0:0:0:0:
359,299,105569,1,0,0:0:0:0:
359,299,105749,1,0,0:0:0:0:
281,169,105928,2,0,P|266:119|267:82,1,80,8|0,0:0|0:0,0:0:0:0:
446,268,106287,6,0,B|446:317|446:317|426:372,1,80
366,125,106647,2,0,B|410:109|410:109|474:102,1,80,2|2,0:0|0:0,0:0:0:0:
304,304,107006,2,0,B|260:320|260:320|196:327,1,80
0,335,107365,1,8,0:0:0:0:
141,384,107545,1,0,0:0:0:0:
167,223,107725,5,0,0:0:0:0:
167,223,107904,1,0,0:0:0:0:
50,130,108084,2,0,L|46:213,1,80,2|2,0:0|0:0,0:0:0:0:
175,98,108443,5,0,0:0:0:0:
175,98,108623,1,0,0:0:0:0:
284,11,108802,2,0,L|301:127,1,80,8|0,0:0|0:0,0:0:0:0:
312,224,109162,1,0,0:0:0:0:
389,161,109341,1,0,0:0:0:0:
191,261,109521,1,2,0:0:0:0:
334,328,109701,1,2,0:0:0:0:
131,201,109880,2,0,P|109:275|148:339,1,120
45,317,110240,2,0,P|36:271|38:230,1,80,8|0,0:0|0:0,0:0:0:0:
56,84,110599,5,0,0:0:0:0:
56,84,110778,1,0,0:0:0:0:
228,113,110958,2,2,P|207:74|163:38,1,80
147,207,111317,5,0,0:0:0:0:
147,207,111497,1,0,0:0:0:0:
332,150,111677,2,0,P|325:96|312:61,1,80,8|0,0:0|0:0,0:0:0:0:
249,222,112036,1,0,0:0:0:0:
183,121,112216,1,0,0:0:0:0:
352,223,112395,1,2,0:0:0:0:
250,299,112575,1,2,0:0:0:0:
426,148,112755,6,0,B|441:203|441:203|423:323,1,160,0|8,0:0|0:0,0:0:0:0:
318,363,113293,1,0,0:0:0:0:
301,196,113473,5,0,0:0:0:0:
301,196,113653,1,0,0:0:0:0:
389,368,113832,2,2,L|473:386,1,80
477,201,114192,5,0,0:0:0:0:
477,201,114371,1,0,0:0:0:0:
317,198,114551,1,8,0:0:0:0:
470,305,114731,1,0,0:0:0:0:
393,68,114910,1,2,0:0:0:0:
273,334,115090,1,2,0:0:0:0:
116,98,115269,1,10,0:0:0:0:
413,230,115449,1,0,0:0:0:0:
89,317,115629,5,0,0:0:0:0:
89,316,115988,1,0,0:0:0:0:
173,180,116347,6,0,P|175:126|124:26,1,160,0|8,0:0|0:0,0:0:0:0:
98,178,116886,1,0,0:0:0:0:
252,177,117066,2,0,B|312:176|312:176|421:148,1,160,0|8,0:0|0:0,0:0:0:0:
188,238,117605,2,0,P|188:282|191:325,1,80
297,96,117964,2,0,P|297:52|294:9,1,80,0|8,0:0|0:0,0:0:0:0:
72,120,118323,1,0,0:0:0:0:
224,119,118503,1,0,0:0:0:0:
78,7,118683,1,0,0:0:0:0:
115,257,118862,5,8,0:0:0:0:
141,106,119042,1,0,0:0:0:0:
256,307,119222,2,0,B|201:327|201:327|91:332,1,160,0|8,0:0|0:0,0:0:0:0:
201,237,119761,1,0,0:0:0:0:
31,382,119940,2,0,P|17:327|75:243,1,160,0|8,0:0|0:0,0:0:0:0:
318,228,120479,6,0,B|335:276|335:276|336:326,1,80
128,182,120838,2,0,B|110:134|110:134|110:84,1,80,0|8,0:0|0:0,0:0:0:0:
298,154,121198,1,0,0:0:0:0:
188,250,121377,1,0,0:0:0:0:
366,50,121557,1,12,0:0:0:0:
364,289,121737,2,0,P|326:315|255:320,1,80,12|0,0:0|0:0,0:0:0:0:
31,222,122096,6,0,B|106:294|106:294|181:324,1,160,0|8,0:0|0:0,0:0:0:0:
145,211,122635,1,0,0:0:0:0:
206,387,122814,2,0,P|244:321|198:235,1,160,0|8,0:0|0:0,0:0:0:0:
33,306,123353,6,0,B|26:354|26:354|37:406,1,80
189,166,123713,2,0,B|195:117|195:117|184:65,1,80,0|8,0:0|0:0,0:0:0:0:
0,196,124072,1,0,0:0:0:0:
156,242,124252,1,0,0:0:0:0:
68,107,124431,1,0,0:0:0:0:
275,232,124611,5,8,0:0:0:0:
126,299,124790,1,0,0:0:0:0:
305,153,124970,2,0,P|355:216|335:290,1,160,0|8,0:0|0:0,0:0:0:0:
193,275,125509,1,0,0:0:0:0:
268,366,125689,2,0,B|334:373|334:373|383:362|383:362|450:372,1,160,0|8,0:0|0:0,0:0:0:0:
193,275,126228,6,0,L|280:286,1,80
389,215,126587,1,0,0:0:0:0:
126,225,126766,1,8,0:0:0:0:
293,149,126946,1,0,0:0:0:0:
195,351,127126,1,0,0:0:0:0:
96,28,127305,5,14,0:0:0:0:
351,239,127485,1,12,0:0:0:0:
36,265,127665,1,8,0:0:0:0:
280,120,127844,6,0,B|290:208|249:188|271:287,1,150,4|0,0:0|0:0,0:0:0:0:
187,285,128204,2,0,P|184:214|192:178,1,100,8|0,0:0|0:0,0:0:0:0:
388,293,128563,1,2,0:0:0:0:
217,372,128743,1,2,0:0:0:0:
433,159,128922,1,8,0:0:0:0:
437,377,129102,1,2,0:0:0:0:
437,377,129461,5,0,0:0:0:0:
505,205,129641,2,0,B|471:224|471:224|360:222,1,150,8|0,0:0|0:0,0:0:0:0:
291,218,130000,1,2,0:0:0:0:
440,333,130180,1,2,0:0:0:0:
414,103,130359,1,8,0:0:0:0:
291,218,130539,1,0,0:0:0:0:
496,124,130719,6,0,B|488:69|488:69|459:24,1,100,4|0,0:0|0:0,0:0:0:0:
206,134,131078,2,0,B|254:147|254:147|304:137,1,100,8|0,0:0|0:0,0:0:0:0:
79,32,131437,2,2,B|54:69|54:69|46:124,1,100
259,48,131796,5,8,0:0:0:0:
27,247,131976,2,0,P|121:224|222:243,1,200,4|0,0:0|0:0,0:0:0:0:
407,337,132515,5,8,0:0:0:0:
407,337,132695,1,0,0:0:0:0:
412,95,132874,1,2,0:0:0:0:
300,384,133054,1,2,0:0:0:0:
242,47,133234,1,8,0:0:0:0:
493,300,133413,5,0,0:0:0:0:
446,320,133502,1,0,0:0:0:0:
396,329,133593,2,0,L|399:260,1,50,2|0,0:0|0:0,0:0:0:0:
507,129,133772,2,2,L|505:212,1,50
316,375,133952,2,0,B|318:297|318:297|290:202,1,150,12|0,0:0|0:0,0:0:0:0:
267,164,134311,5,0,0:0:0:0:
394,68,134491,1,0,0:0:0:0:
215,302,134671,2,0,P|118:302|56:280,1,150,12|0,0:0|0:0,0:0:0:0:
4,248,135030,5,0,0:0:0:0:
103,384,135210,1,0,0:0:0:0:
137,84,135389,2,0,B|155:245,1,150,8|0,0:0|0:0,0:0:0:0:
163,304,135749,1,0,0:0:0:0:
20,252,135928,1,0,0:0:0:0:
279,219,136108,1,8,0:0:0:0:
163,304,136287,1,0,0:0:0:0:
361,96,136467,6,0,P|389:219|361:315,2,200,4|8|2,0:0|0:0|0:0,0:0:0:0:
246,301,137365,1,2,0:0:0:0:
351,97,137545,1,8,0:0:0:0:
424,365,137725,6,0,B|330:360|330:360|251:378|251:378|132:372,1,240.000009155274,4|0,0:0|0:0,0:0:0:0:
222,63,138263,1,8,0:0:0:0:
49,257,138443,1,2,0:0:0:0:
386,182,138623,5,2,0:0:0:0:
391,136,138712,1,2,0:0:0:0:
387,90,138802,1,2,0:0:0:0:
371,47,138892,1,2,0:0:0:0:
344,13,138982,1,10,0:0:0:0:
334,332,139162,1,2,0:0:0:0:
395,341,139251,1,2,0:0:0:0:
455,333,139341,6,0,P|471:256|466:168,1,150,4|0,0:0|0:0,0:0:0:0:
393,170,139701,2,0,P|399:239|389:293,1,100,8|0,0:0|0:0,0:0:0:0:
213,222,140060,1,2,0:0:0:0:
345,93,140240,1,2,0:0:0:0:
229,348,140419,1,8,0:0:0:0:
66,200,140599,1,2,0:0:0:0:
66,200,140958,5,0,0:0:0:0:
247,62,141138,2,0,B|250:140|250:140|236:216,1,150,8|0,0:0|0:0,0:0:0:0:
166,176,141497,1,2,0:0:0:0:
379,155,141677,1,2,0:0:0:0:
146,285,141856,1,8,0:0:0:0:
177,75,142036,1,0,0:0:0:0:
178,366,142216,6,0,B|219:332|219:332|239:280,1,100,4|0,0:0|0:0,0:0:0:0:
89,61,142575,2,0,B|97:113|97:113|131:157,1,100,8|0,0:0|0:0,0:0:0:0:
415,107,142934,2,2,B|366:87|366:87|310:95,1,100
420,252,143293,5,8,0:0:0:0:
225,39,143473,2,0,B|224:116|224:116|233:177|233:177|230:263,1,200,4|0,0:0|0:0,0:0:0:0:
379,151,144012,5,8,0:0:0:0:
379,151,144192,1,0,0:0:0:0:
119,180,144371,1,2,0:0:0:0:
386,33,144551,1,2,0:0:0:0:
371,342,144731,1,8,0:0:0:0:
170,68,144910,5,0,0:0:0:0:
224,73,144999,1,0,0:0:0:0:
266,106,145090,2,0,B|238:130|238:130|207:150,1,50,2|0,0:0|0:0,0:0:0:0:
45,182,145269,2,0,B|69:162|69:162|103:137,1,50,2|0,0:0|0:0,0:0:0:0:
278,275,145449,6,0,B|205:291|205:291|96:288,1,150,12|0,0:0|0:0,0:0:0:0:
55,281,145808,5,0,0:0:0:0:
189,378,145988,1,0,0:0:0:0:
19,181,146168,6,0,P|100:197|179:185,1,150,12|0,0:0|0:0,0:0:0:0:
221,235,146527,5,0,0:0:0:0:
57,289,146707,1,0,0:0:0:0:
327,152,146886,2,0,L|307:311,1,150,12|0,0:0|0:0,0:0:0:0:
296,374,147245,1,0,0:0:0:0:
191,259,147425,1,0,0:0:0:0:
479,229,147605,1,8,0:0:0:0:
406,358,147784,1,0,0:0:0:0:
320,142,147964,6,0,P|426:108|526:137,2,200,4|8|2,0:0|0:0|0:0,0:0:0:0:
23,276,148862,1,2,0:0:0:0:
77,25,149042,1,8,0:0:0:0:
134,370,149222,2,0,B|128:292|128:292|143:211|143:211|137:109,1,240.000009155274,4|0,0:0|0:0,0:0:0:0:
210,341,149760,5,2,0:0:0:0:
280,39,149940,1,2,0:0:0:0:
409,384,150120,1,8,0:0:0:0:
190,348,155329,5,2,0:0:0:0:
345,119,155509,1,8,0:0:0:0:
314,301,155689,5,2,0:0:0:0:
230,31,155868,1,8,0:0:0:0:
261,362,156048,5,2,0:0:0:0:
338,79,156228,2,0,P|366:13|364:98,1,210.000002002716,12|0,0:0|0:0,0:0:0:0:
324,146,156587,6,2,P|378:151|433:167,1,100
205,364,156946,1,8,0:0:0:0:
236,141,157126,1,0,0:0:0:0:
376,345,157305,6,2,L|365:245,1,100
336,9,157665,1,8,0:0:0:0:
481,118,157844,1,0,0:0:0:0:
255,159,158024,6,2,B|207:131|207:131|173:80,1,100
481,118,158383,1,8,0:0:0:0:
331,299,158563,1,0,0:0:0:0:
101,221,158742,5,2,0:0:0:0:
389,105,158922,1,10,0:0:0:0:
45,75,159102,1,8,0:0:0:0:
243,173,159281,1,0,0:0:0:0:
27,284,159461,6,2,P|104:298|163:302,1,100
342,91,159820,1,8,0:0:0:0:
256,294,160000,1,0,0:0:0:0:
138,103,160180,6,2,P|130:161|142:218,1,100
359,338,160539,1,8,0:0:0:0:
105,331,160719,1,0,0:0:0:0:
314,150,160898,5,2,0:0:0:0:
224,384,161078,1,2,0:0:0:0:
143,97,161257,1,8,0:0:0:0:
339,338,161437,5,0,0:0:0:0:
402,103,161617,1,2,0:0:0:0:
148,311,161796,5,12,0:0:0:0:
500,322,161976,1,12,0:0:0:0:
270,175,162156,1,0,0:0:0:0:
512,200,162335,6,2,P|453:223|402:224,1,100
107,140,162695,1,8,0:0:0:0:
414,128,162874,1,0,0:0:0:0:
228,238,163054,6,2,P|215:298|227:348,1,100
443,39,163413,2,0,L|316:47,1,103.999995239258,8|0,0:0|0:0,0:0:0:0:
22,133,163772,6,2,L|166:146,1,108.000000411987
456,169,164132,1,8,0:0:0:0:
217,59,164311,1,0,0:0:0:0:
213,294,164491,5,2,0:0:0:0:
374,44,164671,1,10,0:0:0:0:
70,151,164850,1,8,0:0:0:0:
351,258,165030,1,0,0:0:0:0:
111,337,165210,6,2,L|-26:336,1,111.999996582031
336,256,165569,2,0,P|353:344|343:403,1,111.999996582031,8|0,0:0|0:0,0:0:0:0:
69,163,165928,2,2,P|52:75|62:16,1,111.999996582031
324,40,166287,1,8,0:0:0:0:
190,342,166467,1,0,0:0:0:0:
144,0,166647,5,2,0:0:0:0:
143,56,166736,1,2,0:0:0:0:
160,105,166826,2,0,L|203:150,1,50,2|0,0:0|0:0,0:0:0:0:
408,334,167006,1,0,0:0:0:0:
351,365,167095,1,0,0:0:0:0:
287,352,167185,1,0,0:0:0:0:
247,301,167275,1,0,0:0:0:0:
250,235,167365,1,0,0:0:0:0:
296,188,167455,1,0,0:0:0:0:
361,182,167545,6,0,L|414:237,1,50,2|0,0:0|0:0,0:0:0:0:
195,364,167725,2,0,L|134:302,1,50,2|0,0:0|0:0,0:0:0:0:
468,26,167904,1,2,0:0:0:0:
483,93,167993,1,2,0:0:0:0:
467,161,168084,6,0,B|422:129|422:129|391:88|391:88|325:39,1,150,4|0,0:0|0:0,0:0:0:0:
389,197,168443,2,0,L|473:263,1,100,8|0,0:0|0:0,0:0:0:0:
415,0,168802,1,2,0:0:0:0:
274,131,168982,1,2,0:0:0:0:
512,77,169162,1,8,0:0:0:0:
235,29,169341,1,2,0:0:0:0:
235,29,169701,5,0,0:0:0:0:
170,243,169880,2,0,B|219:273|219:273|327:276,1,150,8|0,0:0|0:0,0:0:0:0:
390,278,170239,1,2,0:0:0:0:
263,124,170419,1,2,0:0:0:0:
229,384,170599,1,8,0:0:0:0:
390,278,170778,1,0,0:0:0:0:
38,195,170958,6,0,B|71:237|71:237|129:259,1,100,4|0,0:0|0:0,0:0:0:0:
294,46,171317,2,0,B|241:52|241:52|193:91,1,100,8|0,0:0|0:0,0:0:0:0:
295,333,171677,2,2,B|315:285|315:285|305:223,1,100
193,384,172036,5,8,0:0:0:0:
452,127,172216,2,0,P|358:162|249:139,1,200,4|0,0:0|0:0,0:0:0:0:
54,55,172754,1,8,0:0:0:0:
54,55,172934,1,0,0:0:0:0:
284,277,173114,1,2,0:0:0:0:
231,0,173293,1,2,0:0:0:0:
52,293,173473,1,8,0:0:0:0:
396,162,173653,5,0,0:0:0:0:
399,212,173742,1,0,0:0:0:0:
398,259,173832,2,0,P|373:286|326:307,1,50,2|0,0:0|0:0,0:0:0:0:
169,225,174012,2,0,P|194:198|241:177,1,50,2|0,0:0|0:0,0:0:0:0:
445,355,174192,6,0,B|369:377|369:377|261:368,1,150,12|0,0:0|0:0,0:0:0:0:
228,359,174551,5,0,0:0:0:0:
329,226,174730,1,0,0:0:0:0:
28,277,174910,6,0,P|107:264|196:289,1,150,12|0,0:0|0:0,0:0:0:0:
247,297,175269,1,0,0:0:0:0:
212,87,175449,1,0,0:0:0:0:
429,223,175629,2,0,B|251:231,1,150,8|0,0:0|0:0,0:0:0:0:
206,231,175988,5,0,0:0:0:0:
266,373,176168,1,0,0:0:0:0:
357,134,176347,1,8,0:0:0:0:
418,317,176527,1,0,0:0:0:0:
156,331,176707,6,0,P|102:275|124:148,2,200,4|8|2,0:0|0:0|0:0,0:0:0:0:
269,194,177605,1,2,0:0:0:0:
22,149,177784,1,8,0:0:0:0:
306,42,177964,6,0,B|172:73|196:24|52:53,1,240.000009155274,4|0,0:0|0:0,0:0:0:0:
403,108,178503,1,8,0:0:0:0:
301,353,178683,1,0,0:0:0:0:
104,147,178862,5,2,0:0:0:0:
97,195,178951,1,2,0:0:0:0:
100,244,179041,1,2,0:0:0:0:
116,293,179131,1,2,0:0:0:0:
142,337,179221,1,10,0:0:0:0:
412,59,179401,1,2,0:0:0:0:
362,90,179490,1,2,0:0:0:0:
308,114,179581,6,0,B|202:106|202:106|163:75,1,150,4|0,0:0|0:0,0:0:0:0:
240,35,179940,2,0,L|346:43,1,100,8|0,0:0|0:0,0:0:0:0:
488,97,180299,1,2,0:0:0:0:
423,261,180479,1,2,0:0:0:0:
143,159,180659,1,8,0:0:0:0:
228,348,180838,1,0,0:0:0:0:
228,348,181198,5,0,0:0:0:0:
266,122,181377,2,0,P|261:184|317:292,1,150,8|0,0:0|0:0,0:0:0:0:
334,323,181736,1,2,0:0:0:0:
389,156,181916,1,2,0:0:0:0:
108,175,182096,1,8,0:0:0:0:
233,343,182275,1,0,0:0:0:0:
20,245,182455,6,0,B|69:271|69:271|136:272,1,100,4|0,0:0|0:0,0:0:0:0:
437,230,182814,2,0,B|397:251|397:251|342:251,1,100,8|0,0:0|0:0,0:0:0:0:
86,101,183174,2,2,B|135:127|135:127|202:128,1,100
445,119,183533,5,8,0:0:0:0:
277,384,183713,2,0,P|236:307|232:187,1,200,4|0,0:0|0:0,0:0:0:0:
269,6,184251,5,8,0:0:0:0:
269,6,184431,1,0,0:0:0:0:
398,238,184611,1,2,0:0:0:0:
79,66,184790,1,2,0:0:0:0:
493,38,184970,1,8,0:0:0:0:
221,192,185150,5,0,0:0:0:0:
228,139,185239,1,0,0:0:0:0:
257,100,185329,2,0,L|277:162,1,50,2|0,0:0|0:0,0:0:0:0:
147,268,185509,2,0,L|127:204,1,50,2|0,0:0|0:0,0:0:0:0:
414,339,185689,2,0,B|337:351|337:351|265:346,1,150,12|0,0:0|0:0,0:0:0:0:
192,337,186048,5,0,0:0:0:0:
276,186,186227,1,0,0:0:0:0:
100,368,186407,6,0,P|93:306|115:199,1,150,12|0,0:0|0:0,0:0:0:0:
144,151,186766,5,0,0:0:0:0:
0,242,186946,1,0,0:0:0:0:
250,249,187126,2,0,B|411:254,1,150,8|0,0:0|0:0,0:0:0:0:
472,255,187485,5,0,0:0:0:0:
393,57,187665,1,0,0:0:0:0:
177,245,187844,1,8,0:0:0:0:
282,58,188024,1,0,0:0:0:0:
322,335,188204,6,0,B|467:327|467:327|515:280,2,200,4|8|2,0:0|0:0|0:0,0:0:0:0:
42,347,189102,1,2,0:0:0:0:
368,258,189281,1,8,0:0:0:0:
0,184,189461,6,0,B|88:187|88:187|152:206|152:206|283:205,1,240.000009155274,4|0,0:0|0:0,0:0:0:0:
466,55,190000,1,2,0:0:0:0:
99,56,190180,1,2,0:0:0:0:
414,356,190359,1,8,0:0:0:0:
227,299,191078,6,0,B|167:303|167:303|105:292,1,100,4|0,0:0|0:0,0:0:0:0:
350,198,191437,1,8,0:0:0:0:
347,359,191617,1,0,0:0:0:0:
181,215,191796,2,0,P|188:131|218:67,1,150
239,0,192156,6,0,B|188:4|188:4|140:23|140:23|92:29,1,140.000001335144,8|0,0:0|0:0,0:0:0:0:
345,96,192515,6,0,B|365:45|365:45|364:-6,1,100
208,245,192874,1,8,0:0:0:0:
219,80,193054,1,0,0:0:0:0:
347,242,193233,1,0,0:0:0:0:
69,180,193413,5,8,0:0:0:0:
344,157,193593,1,8,0:0:0:0:
145,308,193772,1,0,0:0:0:0:
149,41,193952,6,0,B|137:99|137:99|150:150,1,100,4|0,0:0|0:0,0:0:0:0:
269,372,194311,1,8,0:0:0:0:
192,208,194491,1,0,0:0:0:0:
36,347,194671,2,0,B|79:356|79:356|192:340,1,150
178,272,195030,6,0,B|157:275|157:275|130:276|130:276|92:290,1,60.0000022888184,8|0,0:0|0:0,0:0:0:0:
325,373,195389,2,0,L|320:283,1,90.0000034332277
307,35,195748,1,8,0:0:0:0:
390,193,195928,1,0,0:0:0:0:
230,112,196108,1,0,0:0:0:0:
385,323,196287,5,8,0:0:0:0:
143,215,196467,1,8,0:0:0:0:
372,92,196647,1,0,0:0:0:0:
278,272,196826,6,0,B|244:318|244:318|205:341,1,100,4|0,0:0|0:0,0:0:0:0:
29,228,197186,1,8,0:0:0:0:
104,383,197365,1,0,0:0:0:0:
183,145,197545,2,0,P|110:168|51:130,1,150
121,87,197904,6,0,B|168:59|168:59|216:53|216:53|276:23,1,140.000001335144,8|0,0:0|0:0,0:0:0:0:
435,29,198263,6,0,B|402:93|412:152|404:168,1,100
392,357,198623,1,8,0:0:0:0:
271,197,198802,1,0,0:0:0:0:
466,235,198982,1,0,0:0:0:0:
168,329,199162,5,8,0:0:0:0:
247,82,199341,1,8,0:0:0:0:
365,302,199521,1,0,0:0:0:0:
117,201,199701,6,0,B|84:160|84:160|64:77,1,100,4|0,0:0|0:0,0:0:0:0:
328,153,200060,1,8,0:0:0:0:
173,129,200239,1,0,0:0:0:0:
430,120,200419,2,0,B|413:183|413:183|413:278,1,150
482,275,200778,6,0,B|487:255|487:255|483:224|483:224|488:197,1,60.0000022888184,8|0,0:0|0:0,0:0:0:0:
94,332,201138,5,8,0:0:0:0:
363,372,201317,1,2,0:0:0:0:
204,102,201497,5,8,0:0:0:0:
163,372,201677,1,2,0:0:0:0:
390,170,201856,5,8,0:0:0:0:
83,180,202036,1,2,0:0:0:0:
461,384,202215,5,8,0:0:0:0:
462,0,202395,1,10,0:0:0:0:
