osu file format v14

[General]
AudioFilename: audio.mp3
AudioLeadIn: 0
PreviewTime: 65397
Countdown: 0
SampleSet: Soft
StackLeniency: 0.5
Mode: 0
LetterboxInBreaks: 0
WidescreenStoryboard: 1

[Editor]
Bookmarks: 59,3548,17507,38270,45180,52115,65936,72865,86718,100517,117822,124772,152421,164913,169608,169823,170053,170273,170385
DistanceSpacing: 0.8
BeatDivisor: 4
GridSize: 8
TimelineZoom: 1.7

[Metadata]
Title:St. Jimmy
TitleUnicode:St. Jimmy
Artist:Green Day
ArtistUnicode:Green Day
Creator:hehe
Version:Normal
Source:
Tags:hectic h4d0uk3n1 handsome american idiot billie joe armstrong mike dirnt tré tre cool pop punk rock coverups longshot the network foxboro hot tubs english bullet in a bible saint
BeatmapID:3568784
BeatmapSetID:1735953

[Difficulty]
HPDrainRate:3
CircleSize:3.2
OverallDifficulty:4.5
ApproachRate:5.5
SliderMultiplier:0.7
SliderTickRate:0.5

[Events]
//Background and Video events
0,0,"kael-ngu-homefront03.jpg",0,0
//Break Periods
2,114580,116697
//Storyboard Layer 0 (Background)
//Storyboard Layer 1 (Fail)
//Storyboard Layer 2 (Pass)
//Storyboard Layer 3 (Foreground)
//Storyboard Layer 4 (Overlay)
//Storyboard Sound Samples

[TimingPoints]
59,214.285714285714,4,2,1,50,1,0
273,217.391304347826,4,2,1,50,1,0
925,217.391304347826,4,2,1,50,1,0
3207,238.095238095238,4,2,1,50,1,0
3326,222.222222222222,4,2,1,50,1,0
3548,222.222222222222,4,2,1,50,1,0
3992,215.827338129496,4,2,1,50,1,0
4855,218.978102189781,4,2,1,50,1,0
5730,217.864923747277,4,2,1,50,1,0
6165,217.864923747277,4,2,1,50,1,0
7036,217.706821480406,4,2,1,50,1,0
7906,217.391304347826,4,2,1,50,1,0
8775,218.978102189781,4,2,1,50,1,0
10526,215.827338129496,4,2,1,50,1,0
11389,222.222222222222,4,2,1,50,1,0
12277,215.05376344086,4,2,1,50,1,0
13567,234.375,4,2,1,50,1,0
13801,217.391304347826,4,2,1,50,1,0
14018,217.391304347826,4,2,1,50,1,0
14670,229.007633587786,4,2,1,50,1,0
14899,218.978102189781,4,2,1,50,1,0
15774,214.285714285714,4,2,1,50,1,0
16202,225.563909774436,4,2,1,50,1,0
16653,205.479452054795,4,2,1,50,1,0
17063,222.222222222222,4,2,1,50,1,0
17507,217.076700434153,4,2,1,70,1,0
19243,216.138328530259,4,2,1,70,1,0
20972,215.362526920316,4,2,1,70,1,0
22694,216.606498194946,4,2,1,70,1,0
24426,216.998191681736,4,2,1,70,1,0
26161,216.138328530259,4,2,1,70,1,0
31348,215.827338129496,4,2,1,70,1,0
33074,216.450216450216,4,2,1,70,1,0
34805,216.606498194946,4,2,1,70,1,0
36537,215.827338129496,4,2,1,70,1,0
38155,230.769230769231,4,2,1,70,1,0
38270,217.983651226158,4,2,1,90,1,1
39141,215.827338129496,4,2,1,90,1,1
40004,209.79020979021,4,2,1,90,1,1
40633,223.880597014925,4,2,1,90,1,1
41080,216.606498194946,4,2,1,90,1,1
41296,200,4,2,1,90,1,1
41496,227.272727272727,4,2,1,90,1,1
41723,215.827338129496,4,2,1,90,1,1
43233,235.294117647059,4,2,1,90,1,1
43468,217.391304347826,4,2,1,90,1,1
44120,203.389830508475,4,2,1,90,1,1
44323,214.438884917798,4,2,1,90,1,1
45180,216.841344416335,4,2,1,70,1,0
46914,216.52832912306,4,2,1,70,1,0
48646,216.021602160216,4,2,1,70,1,0
52102,216.294160057678,4,2,1,70,1,0
55562,215.982721382289,4,2,1,70,1,0
59017,214.285714285714,4,2,1,70,1,0
59874,216.138328530259,4,2,1,70,1,0
60738,215.982721382289,4,2,1,70,1,0
62465,216.606498194946,4,2,1,70,1,0
64631,206.896551724138,4,2,1,70,1,0
64941,235.294117647059,4,2,1,70,1,0
65058,235.294117647059,4,2,1,70,1,0
65293,214.285714285714,4,2,1,70,1,0
65721,229.885057471264,4,2,1,70,1,0
65950,215.362526920316,4,2,1,90,1,1
67672,216.450216450216,4,2,1,90,1,1
68754,212.765957446809,4,2,1,90,1,1
69392,218.023255813954,4,2,1,90,1,1
70918,229.007633587786,4,2,1,90,1,1
71147,211.267605633803,4,2,1,90,1,1
71992,218.978102189781,4,2,1,90,1,1
72429,211.640211640212,4,2,1,90,1,1
72852,214.285714285714,4,2,1,70,1,0
73602,250,4,2,1,70,1,0
73727,217.312567910177,4,2,1,70,1,0
74596,215.362526920316,4,2,1,70,1,0
76318,202.702702702703,4,2,1,70,1,0
76520,218.181818181818,4,2,1,70,1,0
77174,218.978102189781,4,2,1,70,1,0
77830,225.563909774436,4,2,1,70,1,0
78055,216.450216450216,4,2,1,70,1,0
79786,200,4,2,1,70,1,0
79986,206.896551724138,4,2,1,70,1,0
80606,215.05376344086,4,2,1,70,1,0
80928,243.90243902439,4,2,1,70,1,0
81049,243.90243902439,4,2,1,70,1,0
81292,218.181818181818,4,2,1,70,1,0
81510,217.391304347826,4,2,1,70,1,0
83249,206.896551724138,4,2,1,70,1,0
83455,212.765957446809,4,2,1,70,1,0
84093,220.588235294118,4,2,1,70,1,0
84975,215.439856373429,4,2,1,70,1,0
86052,209.79020979021,4,2,1,70,1,0
86576,259.74025974026,4,2,1,70,1,0
86705,216.411181244364,4,2,1,80,1,0
88436,215.827338129496,4,2,1,70,1,0
89191,222.222222222222,4,2,1,70,1,0
89413,252.100840336134,4,2,1,80,1,0
89539,216.606498194946,4,2,1,70,1,0
89972,187.5,4,2,1,70,1,0
90159,213.143872113677,4,2,1,80,1,0
90905,235.294117647059,4,2,1,70,1,0
91022,235.294117647059,4,2,1,80,1,0
91257,213.523131672598,4,2,1,70,1,0
91684,204.081632653061,4,2,1,70,1,0
91888,212.014134275618,4,2,1,70,1,0
92630,220.588235294118,4,2,1,70,1,0
92740,220.588235294118,4,2,1,80,1,0
92960,213.523131672598,4,2,1,70,1,0
93600,216.763005780347,4,2,1,80,1,0
95334,216.216216216216,4,2,1,70,1,0
97063,215.285252960172,4,2,1,80,1,0
98569,225.563909774436,4,2,1,70,1,0
98794,215.439856373429,4,2,1,70,1,0
100517,218.181818181818,4,2,1,70,1,0
101171,256.410256410256,4,2,1,70,1,0
101427,181.818181818182,4,2,1,70,1,0
101608,205.479452054795,4,2,1,70,1,0
101813,217.391304347826,4,2,1,70,1,0
102247,219.78021978022,4,2,1,70,1,0
102906,235.294117647059,4,2,1,70,1,0
103141,193.548387096774,4,2,1,70,1,0
103334,210.34180543383,4,2,1,70,1,0
103965,218.181818181818,4,2,1,70,1,0
104619,248.96265560166,4,2,1,70,1,0
104867,201.342281879195,4,2,1,70,1,0
105068,209.79020979021,4,2,1,70,1,0
105697,216.606498194946,4,2,1,70,1,0
106346,239.043824701195,4,2,1,70,1,0
106585,198.019801980198,4,2,1,70,1,0
106783,208.333333333333,4,2,1,70,1,0
107408,210.526315789474,4,2,1,70,1,0
108039,245.901639344262,4,2,1,70,1,0
108284,216.216216216216,4,2,1,70,1,0
109148,215.05376344086,4,2,1,70,1,0
109793,258.620689655172,4,2,1,70,1,0
110051,200,4,2,1,70,1,0
110251,212.765957446809,4,2,1,70,1,0
110676,219.78021978022,4,2,1,70,1,0
110895,219.78021978022,4,2,1,70,1,0
111554,283.018867924528,4,2,1,70,1,0
111837,193.548387096774,4,2,1,70,1,0
112417,280.373831775701,4,2,1,70,1,0
112697,194.805194805195,4,2,1,70,1,0
113281,273.972602739726,4,2,1,70,1,0
113554,196.078431372549,4,2,1,70,1,0
114142,238.095238095238,4,2,1,70,1,0
114380,430.10752688172,4,2,1,70,1,0
115240,424.028268551237,4,2,1,70,1,0
116088,437.956204379562,4,2,1,70,1,0
116963,422.535211267606,4,2,1,70,1,0
117385,437.956204379562,4,2,1,70,1,0
117822,439.238653001464,4,2,1,70,1,0
117822,-50,4,2,1,70,0,0
118700,434.782608695652,4,2,1,70,1,0
119569,430.10752688172,4,2,1,70,1,0
119569,-50,4,2,1,70,0,0
120859,447.761194029851,4,2,1,70,1,0
121306,430.879712746858,4,2,1,70,1,0
121306,-50,4,2,1,70,0,0
122167,-50,4,2,1,70,0,0
123460,-50,4,2,1,70,0,0
123891,387.096774193548,4,2,1,70,1,0
124084,441.176470588235,4,2,1,70,1,0
124745,434.153400868307,4,2,1,70,1,0
124745,-50,4,2,1,70,0,0
126481,435.729847494553,4,2,1,80,1,0
126481,-50,4,2,1,80,0,0
127352,-50,4,2,1,70,0,0
128223,-50,4,2,1,80,0,0
129095,-50,4,2,1,80,0,0
129966,422.535211267606,4,2,1,80,1,0
130811,434.782608695652,4,2,1,80,1,0
131245,454.545454545455,4,2,1,80,1,0
131699,419.58041958042,4,2,1,80,1,0
131699,-50,4,2,1,80,0,0
132538,434.782608695652,4,2,1,80,1,0
133407,431.344356578001,4,2,1,80,1,0
133407,-50,4,2,1,80,0,0
135132,441.176470588235,4,2,1,80,1,0
135132,-50,4,2,1,80,0,0
136014,425.531914893617,4,2,1,80,1,0
136014,-50,4,2,1,80,0,0
136865,425.531914893617,4,2,1,80,1,0
138354,461.538461538462,4,2,1,80,1,0
138584,432.276657060519,4,2,1,80,1,0
138584,-50,4,2,1,80,0,0
140313,-50,4,2,1,80,0,0
141177,439.56043956044,4,2,1,80,1,0
142056,432.276657060519,4,2,1,80,1,0
142056,-50,4,2,1,80,0,0
142920,-50,4,2,1,80,0,0
143785,430.879712746858,4,2,1,80,1,0
145508,436.363636363636,4,2,1,80,1,0
145508,-50,4,2,1,80,0,0
147253,430.416068866571,4,2,1,80,1,0
147253,-50,4,2,1,80,0,0
148974,425.531914893617,4,2,1,80,1,0
148974,-50,4,2,1,80,0,0
149825,-50,4,2,1,80,0,0
150676,440.528634361234,4,2,1,80,1,0
151997,424.028268551237,4,2,1,80,1,0
152421,416.666666666667,4,2,1,80,1,0
152421,-50,4,2,1,80,0,0
153254,426.136363636364,4,2,1,80,1,0
153254,-50,4,2,1,80,0,0
154106,433.212996389892,4,2,1,80,1,0
154106,-50,4,2,1,80,0,0
155838,444.444444444444,4,2,1,80,1,0
155838,-50,4,2,1,80,0,0
156726,-50,4,2,1,80,0,0
157171,421.052631578947,4,2,1,80,1,0
157592,430.10752688172,4,2,1,80,1,0
157592,-50,4,2,1,80,0,0
159312,-50,4,2,1,80,0,0
160172,442.80442804428,4,2,1,80,1,0
160172,-50,4,2,1,80,0,0
161057,437.31778425656,4,2,1,80,1,0
161057,-50,4,2,1,80,0,0
161931,419.58041958042,4,2,1,80,1,0
162350,442.477876106195,4,2,1,80,1,0
162792,451.127819548872,4,2,1,80,1,0
162792,-50,4,2,1,80,0,0
163468,691.244239631336,4,2,1,80,1,0
163813,466.926070038911,4,2,1,80,1,0
163813,-50,4,2,1,80,0,0
164513,800,4,2,1,80,1,0
164913,434.467776973208,4,2,1,80,1,0
167954,441.176470588235,4,2,1,80,1,0
169608,431.654676258993,4,2,1,80,1,0
169823,526.315789473684,4,2,1,80,1,0
170086,598.802395209581,4,2,1,80,1,0
170385,542.986425339367,4,2,1,80,1,0
170927,396.039603960396,4,2,1,80,1,0
170927,-50,4,2,1,80,0,0

[Colours]
Combo1 : 18,124,255
Combo2 : 255,55,55

[HitObjects]
161,132,59,6,0,L|173:217,1,70,4|0,3:2|0:0,0:0:0:0:
361,244,3326,5,4,3:2:0:0:
361,244,3548,1,4,3:2:0:0:
294,49,6818,5,4,3:2:0:0:
294,49,7036,1,4,3:2:0:0:
67,271,10307,5,4,3:2:0:0:
67,271,10526,1,4,3:2:0:0:
292,356,12055,5,4,3:2:0:0:
292,356,12277,1,4,3:2:0:0:
412,85,13801,5,4,3:2:0:0:
412,85,14018,1,4,3:2:0:0:
194,155,14899,6,0,L|206:237,1,70,6|0,3:2|0:0,0:0:0:0:
386,329,15774,5,4,3:2:0:0:
432,196,16202,1,4,3:2:0:0:
432,196,17507,6,0,L|334:183,1,70,4|8,3:2|0:0,0:0:0:0:
329,142,17941,2,0,L|173:162,1,140,0|0,3:0|0:0,0:0:0:0:
134,167,18592,1,8,0:0:0:0:
134,167,18809,1,0,3:0:0:0:
96,272,19243,6,0,L|121:346,1,70,4|8,3:2|0:0,0:0:0:0:
168,364,19675,2,0,P|246:353|291:298,1,140,0|0,3:0|0:0,0:0:0:0:
283,254,20323,1,8,0:0:0:0:
283,254,20539,1,0,3:0:0:0:
386,296,20972,6,0,L|399:209,1,70,4|8,3:2|0:0,0:0:0:0:
447,204,21402,2,0,L|421:59,1,140,0|0,3:0|0:0,0:0:0:0:
407,12,22048,1,8,0:0:0:0:
407,12,22264,1,0,3:0:0:0:
334,97,22694,6,0,L|240:85,1,70,4|8,3:2|0:0,0:0:0:0:
227,46,23127,2,0,P|159:57|111:130,1,140,0|0,3:0|0:0,0:0:0:0:
91,160,23777,1,10,0:0:0:0:
101,215,23993,1,8,0:0:0:0:
111,269,24210,1,8,0:0:0:0:
122,323,24426,5,12,3:2:0:0:
232,343,24859,2,0,L|317:324,1,70,0|8,3:0|0:0,0:0:0:0:
324,277,25293,2,0,P|388:287|445:346,1,140,0|0,3:0|3:0,0:0:0:0:
479,378,25944,1,8,0:0:0:0:
479,378,26161,5,0,3:0:0:0:
511,270,26593,2,0,L|466:120,1,140,0|0,3:0|0:0,0:0:0:0:
451,83,27241,1,8,0:0:0:0:
451,83,27457,1,0,3:0:0:0:
353,27,27890,5,4,3:2:0:0:
267,99,28322,2,0,L|260:185,1,70,0|8,3:0|0:0,0:0:0:0:
301,207,28754,2,0,L|160:251,1,140,0|0,3:0|3:0,0:0:0:0:
114,267,29403,1,8,0:0:0:0:
114,267,29619,5,0,3:0:0:0:
25,198,30051,2,0,P|26:149|92:72,1,140,0|0,3:0|0:0,0:0:0:0:
133,66,30699,1,8,0:0:0:0:
133,66,30916,1,0,3:0:0:0:
215,142,31348,5,4,3:2:0:0:
286,55,31779,2,0,L|370:37,1,70,0|8,3:0|0:0,0:0:0:0:
399,7,32211,2,0,L|452:142,1,140,0|0,3:0|3:0,0:0:0:0:
471,189,32858,1,8,0:0:0:0:
471,189,33074,5,0,3:0:0:0:
389,266,33506,2,0,L|240:253,1,140,0|0,3:0|0:0,0:0:0:0:
194,241,34156,1,8,0:0:0:0:
194,241,34372,1,0,3:0:0:0:
116,322,34805,5,4,3:2:0:0:
35,243,35238,2,0,L|18:164,1,70,0|8,3:0|0:0,0:0:0:0:
51,127,35671,2,0,P|104:105|192:142,1,140,0|0,3:0|3:0,0:0:0:0:
204,179,36321,1,8,0:0:0:0:
204,179,36537,5,4,3:2:0:0:
282,259,36968,2,0,L|436:224,1,140,0|0,3:0|0:0,0:0:0:0:
472,213,37616,1,10,0:0:0:0:
497,163,37831,1,8,0:0:0:0:
492,107,38047,1,8,0:0:0:0:
452,67,38270,6,0,L|376:76,1,70,4|8,3:2|0:0,0:0:0:0:
364,128,38705,2,0,L|288:119,1,70,4|8,3:2|0:0,0:0:0:0:
267,69,39141,2,0,L|191:78,1,70,4|8,3:2|0:0,0:0:0:0:
143,90,39572,1,0,3:0:0:0:
86,89,39788,1,8,3:2:0:0:
52,41,40004,6,0,L|27:115,1,70,4|8,3:2|0:0,0:0:0:0:
14,161,40423,2,0,P|58:183|103:268,1,144.477666666666,2|0,3:2|0:0,0:0:0:0:
68,312,41080,1,10,0:0:0:0:
68,312,41296,1,0,3:0:0:0:
155,379,41723,6,0,L|234:364,1,70,4|8,3:2|0:0,0:0:0:0:
245,314,42154,2,0,L|323:324,1,70,4|8,3:2|0:0,0:0:0:0:
347,368,42586,2,0,L|426:353,1,70,4|8,3:2|0:0,3:0:0:0:
470,341,43017,1,0,3:0:0:0:
466,289,43233,1,8,3:2:0:0:
507,245,43468,5,8,3:2:0:0:
453,147,43902,1,8,3:2:0:0:
350,106,44323,1,8,3:2:0:0:
242,142,44751,1,8,0:0:0:0:
202,243,45180,6,0,L|215:327,1,70,4|8,3:2|0:0,0:0:0:0:
264,333,45613,2,0,P|337:311|364:241,1,140,0|0,3:0|0:0,0:0:0:0:
357,207,46264,1,8,0:0:0:0:
357,207,46481,1,0,3:0:0:0:
416,112,46914,6,0,L|391:38,1,70,4|8,3:2|0:0,0:0:0:0:
344,20,47347,2,0,P|266:31|221:86,1,140,0|0,3:0|0:0,0:0:0:0:
229,130,47996,1,8,0:0:0:0:
229,130,48213,1,0,3:0:0:0:
126,88,48646,6,0,L|113:175,1,70,4|8,3:2|0:0,0:0:0:0:
65,180,49078,2,0,L|91:325,1,140,0|0,3:0|0:0,0:0:0:0:
105,372,49726,1,8,0:0:0:0:
105,372,49942,1,0,3:0:0:0:
202,316,50374,6,0,L|296:328,1,70,4|8,3:2|0:0,0:0:0:0:
309,367,50806,2,0,P|377:356|425:283,1,140,0|0,3:0|0:0,0:0:0:0:
445,253,51454,1,10,0:0:0:0:
435,198,51670,1,8,0:0:0:0:
425,144,51886,1,8,0:0:0:0:
414,90,52102,6,0,L|340:104,1,70,4|8,3:2|0:0,0:0:0:0:
312,148,52534,2,0,L|232:138,1,70,0|8,3:0|0:0,0:0:0:0:
187,126,52967,2,0,P|123:116|66:57,1,140,0|0,3:0|3:0,0:0:0:0:
56,16,53616,1,8,0:0:0:0:
56,16,53832,5,0,3:0:0:0:
1,114,54264,2,0,L|46:264,1,140,0|0,3:0|0:0,0:0:0:0:
61,301,54913,1,8,0:0:0:0:
61,301,55130,1,0,3:0:0:0:
159,357,55562,5,4,3:2:0:0:
245,285,55993,2,0,L|252:199,1,70,0|8,3:0|0:0,0:0:0:0:
211,177,56425,2,0,L|352:133,1,140,0|0,3:0|3:0,0:0:0:0:
398,117,57073,1,8,0:0:0:0:
398,117,57289,5,0,3:0:0:0:
487,186,57721,2,0,P|486:235|420:312,1,140,0|0,3:0|0:0,0:0:0:0:
379,318,58369,1,8,0:0:0:0:
379,318,58585,1,0,3:0:0:0:
297,242,59017,5,4,3:2:0:0:
226,329,59445,2,0,L|142:347,1,70,0|8,3:0|0:0,0:0:0:0:
113,377,59874,2,0,L|60:242,1,140,0|0,3:0|3:0,0:0:0:0:
41,195,60522,1,8,0:0:0:0:
41,195,60738,5,0,3:0:0:0:
123,118,61169,2,0,L|272:131,1,140,0|0,3:0|0:0,0:0:0:0:
318,143,61817,1,8,0:0:0:0:
318,143,62033,1,0,3:0:0:0:
396,62,62465,5,4,3:2:0:0:
477,141,62898,2,0,L|494:220,1,70,0|8,3:0|0:0,0:0:0:0:
461,257,63331,2,0,P|408:279|320:242,1,140,0|0,3:0|3:0,0:0:0:0:
308,205,63981,1,8,0:0:0:0:
308,205,64197,5,0,3:0:0:0:
230,125,64631,2,0,L|76:160,1,144.736666666667,0|0,3:0|0:0,0:0:0:0:
40,171,65293,1,8,0:0:0:0:
15,221,65507,1,10,3:2:0:0:
20,277,65721,1,10,3:2:0:0:
60,317,65950,6,0,L|136:308,1,70,4|8,3:2|0:0,0:0:0:0:
148,256,66380,2,0,L|224:265,1,70,4|8,3:2|0:0,0:0:0:0:
245,315,66811,2,0,L|321:306,1,70,4|8,3:2|0:0,0:0:0:0:
369,294,67242,1,0,3:0:0:0:
426,295,67457,1,8,3:2:0:0:
460,343,67672,6,0,L|485:269,1,70,4|8,3:2|0:0,0:0:0:0:
498,223,68103,2,0,P|454:201|409:116,1,140,2|0,3:2|0:0,0:0:0:0:
444,72,68754,1,10,0:0:0:0:
444,72,68966,1,0,3:0:0:0:
357,5,69392,6,0,L|278:20,1,70,4|8,3:2|0:0,0:0:0:0:
267,70,69828,2,0,L|189:60,1,70,4|8,3:2|0:0,0:0:0:0:
165,16,70264,2,0,L|86:31,1,70,4|8,3:2|0:0,0:0:0:0:
42,43,70700,1,0,3:0:0:0:
46,95,70918,1,8,3:2:0:0:
5,139,71147,5,8,0:0:0:0:
59,237,71569,1,8,0:0:0:0:
162,278,71992,1,8,0:0:0:0:
270,242,72429,1,8,0:0:0:0:
303,136,72852,5,4,3:2:0:0:
303,136,73066,2,0,L|467:110,1,140,8|8,0:0|0:0,0:0:0:0:
499,101,73727,2,0,P|517:152|485:224,2,105,4|4|4,3:2|3:2|3:2,0:0:0:0:
505,44,74596,5,4,3:2:0:0:
396,15,75026,2,0,L|369:179,1,140,0|0,3:0|0:0,0:0:0:0:
368,212,75672,1,8,0:0:0:0:
368,212,75888,1,0,3:0:0:0:
418,325,76318,5,4,3:2:0:0:
418,325,76520,2,0,L|263:302,1,140,8|8,0:0|0:0,0:0:0:0:
243,347,77174,2,0,P|184:356|148:302,2,105,4|4|4,3:2|3:2|3:2,0:0:0:0:
279,304,78055,5,4,3:2:0:0:
237,200,78487,2,0,L|82:231,1,140,0|0,3:0|0:0,0:0:0:0:
48,244,79137,1,8,0:0:0:0:
48,244,79353,1,0,3:0:0:0:
0,140,79786,5,4,3:2:0:0:
0,140,79986,2,0,P|11:83|104:49,1,140,8|8,0:0|0:0,0:0:0:0:
122,14,80606,2,0,L|146:133,1,105,4|4,3:2|3:2,0:0:0:0:
233,137,81292,6,0,L|326:151,1,70,4|4,3:2|3:2,0:0:0:0:
377,64,81944,2,0,P|450:69|499:138,1,140,0|0,3:0|0:0,0:0:0:0:
477,172,82596,1,8,0:0:0:0:
477,172,82814,1,0,3:0:0:0:
508,290,83249,5,4,3:2:0:0:
508,290,83455,2,0,L|350:307,1,140,8|8,0:0|0:0,0:0:0:0:
324,274,84093,2,0,L|339:167,1,105,4|4,3:2|3:2,0:0:0:0:
409,125,84754,6,0,L|392:48,1,70,4|4,3:2|3:2,0:0:0:0:
293,7,85405,2,0,L|138:39,1,140,0|0,3:0|0:0,0:0:0:0:
101,55,86052,1,10,0:0:0:0:
88,109,86261,1,8,0:0:0:0:
110,160,86471,1,8,0:0:0:0:
161,182,86705,6,0,L|239:168,1,70,4|8,3:2|0:0,0:0:0:0:
265,126,87137,2,0,P|327:136|376:209,1,140,0|0,3:0|0:0,0:0:0:0:
356,247,87787,1,8,0:0:0:0:
271,319,88219,1,12,0:0:0:0:
271,319,88436,6,0,L|190:306,1,70,4|8,3:2|0:0,0:0:0:0:
165,350,88867,2,0,L|141:199,1,141.297333333333,0|0,3:0|0:0,0:0:0:0:
84,192,89539,2,0,L|91:114,1,70,12|0,0:0|3:0,0:0:0:0:
66,68,89972,1,12,0:0:0:0:
66,68,90159,6,0,L|148:47,1,70,4|8,3:2|0:0,0:0:0:0:
178,16,90585,2,0,P|213:49|315:70,1,143.612583333333,0|0,3:0|0:0,0:0:0:0:
345,38,91257,1,8,0:0:0:0:
455,20,91684,1,12,0:0:0:0:
455,20,91888,6,0,L|479:90,1,70,4|8,3:2|0:0,0:0:0:0:
443,130,92312,2,0,L|411:271,1,141.320666666667,0|0,3:0|0:0,0:0:0:0:
396,320,92960,2,0,L|318:346,1,70,12|0,0:0|3:0,0:0:0:0:
288,303,93387,1,12,0:0:0:0:
288,303,93600,6,0,L|206:288,1,70,4|8,3:2|0:0,0:0:0:0:
164,280,94033,2,0,P|192:206|196:138,1,140,0|0,3:0|0:0,0:0:0:0:
164,99,94683,1,8,0:0:0:0:
54,77,95117,1,12,0:0:0:0:
54,77,95334,6,0,L|41:154,1,70,4|8,3:2|0:0,0:0:0:0:
8,190,95766,2,0,L|55:328,1,140,0|0,3:0|0:0,0:0:0:0:
76,373,96415,2,0,L|150:380,1,70,12|0,0:0|3:0,0:0:0:0:
171,329,96847,1,12,0:0:0:0:
171,329,97063,6,0,L|244:288,1,70,4|8,3:2|0:0,0:0:0:0:
258,245,97493,2,0,P|320:246|377:312,1,140,0|0,3:0|0:0,0:0:0:0:
381,353,98139,1,8,0:0:0:0:
478,297,98569,1,12,0:0:0:0:
478,297,98794,6,0,L|485:214,1,70,4|8,3:2|0:0,0:0:0:0:
441,190,99224,2,0,P|426:127|357:73,1,140,0|0,3:0|0:0,0:0:0:0:
335,35,99871,2,0,L|246:44,1,70,12|0,0:0|3:0,0:0:0:0:
229,85,100302,1,12,0:0:0:0:
229,85,100517,6,4,L|116:65,2,105,4|4|4,3:2|3:2|3:2,3:2:0:0:
271,161,101427,1,4,3:2:0:0:
164,323,102247,6,4,L|56:345,2,105,4|4|4,3:2|3:2|3:2,3:2:0:0:
227,367,103141,1,4,3:2:0:0:
375,220,103965,6,4,P|410:272|420:327,2,105,4|4|4,3:2|3:2|3:2,3:2:0:0:
380,141,104867,1,4,3:2:0:0:
177,195,105697,6,4,P|142:247|128:302,2,105,4|4|4,3:2|3:2|3:2,3:2:0:0:
156,115,106585,1,4,3:2:0:0:
354,117,107408,6,4,L|372:3,2,105,4|4|4,3:2|3:2|3:2,3:2:0:0:
399,182,108284,1,4,3:2:0:0:
185,198,109148,6,4,L|166:93,2,105,4|4|4,3:2|3:2|3:2,3:2:0:0:
150,271,110051,1,4,3:2:0:0:
342,301,110895,6,0,P|399:309|431:348,2,105,4|4|4,3:2|3:2|3:2,0:0:0:0:
282,244,111837,2,4,L|176:260,2,105,4|4|4,3:2|3:2|3:2,3:2:0:0:
330,179,112697,2,4,L|447:194,2,105,4|4|4,3:2|3:2|3:2,3:2:0:0:
289,112,113554,2,0,P|277:50|283:1,2,105,4|4|4,3:2|3:2|3:2,0:0:0:0:
238,179,114380,1,4,3:2:0:0:
162,190,117822,6,0,P|149:84|121:34,2,140,0|0|0,1:0|1:0|1:0,0:0:0:0:
123,230,118917,1,0,3:0:0:0:
123,230,119134,1,0,1:0:0:0:
118,341,119569,6,0,P|46:334|9:264,2,140,0|0|0,1:0|1:0|1:0,0:0:0:0:
169,319,120644,1,0,3:0:0:0:
169,319,120859,1,0,1:0:0:0:
266,375,121306,6,0,P|278:300|317:223,1,140,4|0,1:2|1:0,0:0:0:0:
360,238,121952,1,0,3:0:0:0:
401,200,122167,2,0,P|386:126|321:53,1,140,4|0,1:2|1:0,0:0:0:0:
296,54,122814,1,0,3:0:0:0:
262,98,123029,5,4,1:2:0:0:
150,90,123460,2,0,L|110:21,2,70,4|0|4,1:2|3:0|1:2,0:0:0:0:
139,200,124304,1,8,0:0:0:0:
240,246,124745,6,0,P|356:217|402:215,1,140,0|0,1:0|1:0,0:0:0:0:
467,280,125613,1,0,1:0:0:0:
502,173,126047,1,0,1:0:0:0:
469,126,126264,1,0,3:0:0:0:
413,126,126481,6,0,P|340:117|301:32,1,140,6|2,1:2|1:2,0:0:0:0:
203,15,127352,1,0,1:0:0:0:
117,87,127788,1,0,1:0:0:0:
104,141,128006,1,0,3:0:0:0:
138,184,128223,6,0,P|213:158|299:158,1,140,4|0,1:2|1:0,0:0:0:0:
327,170,128877,1,0,3:0:0:0:
340,224,129095,2,0,P|284:281|265:368,1,140,4|0,1:2|1:0,0:0:0:0:
312,368,129748,1,0,3:0:0:0:
362,340,129966,5,4,1:2:0:0:
431,252,130388,1,2,1:2:0:0:
413,141,130811,1,2,1:2:0:0:
321,77,131245,1,0,1:0:0:0:
224,154,131699,6,0,L|81:136,1,140,4|0,1:2|1:0,0:0:0:0:
68,25,132538,1,0,1:0:0:0:
179,13,132972,1,0,1:0:0:0:
208,61,133190,1,0,3:0:0:0:
263,52,133407,6,0,P|340:68|362:141,1,140,6|2,1:2|1:2,0:0:0:0:
304,213,134269,1,0,1:0:0:0:
198,175,134701,1,0,1:0:0:0:
143,188,134916,1,0,3:0:0:0:
104,231,135132,6,0,P|61:168|61:75,1,140,4|0,1:2|1:0,0:0:0:0:
80,56,135793,1,0,3:0:0:0:
135,61,136014,2,0,P|208:97|291:92,1,140,4|0,1:2|1:0,0:0:0:0:
296,53,136652,1,0,3:0:0:0:
350,41,136865,5,4,1:2:0:0:
400,141,137290,1,2,1:2:0:0:
347,239,137716,1,2,1:2:0:0:
234,238,138141,1,0,1:0:0:0:
174,142,138584,6,0,P|113:97|32:97,1,140,4|0,1:2|1:0,0:0:0:0:
19,199,139448,1,0,1:0:0:0:
116,254,139880,1,0,1:0:0:0:
138,305,140096,1,0,3:0:0:0:
192,299,140313,6,0,P|273:253|327:263,1,140,6|0,1:2|1:0,0:0:0:0:
408,321,141177,1,0,1:0:0:0:
480,235,141616,1,0,1:0:0:0:
452,186,141836,1,0,3:0:0:0:
481,137,142056,6,0,P|456:27|375:12,1,140,4|0,1:2|1:0,0:0:0:0:
387,32,142704,1,0,3:0:0:0:
353,76,142920,2,0,P|354:145|266:207,1,140.161933333333,4|0,1:2|1:0,0:0:0:0:
253,196,143568,1,0,3:0:0:0:
230,144,143785,5,4,1:2:0:0:
197,36,144215,1,2,1:2:0:0:
85,31,144646,1,2,1:2:0:0:
43,135,145077,1,0,1:0:0:0:
127,208,145508,6,0,L|152:361,1,140,4|0,1:2|1:0,0:0:0:0:
256,380,146380,1,0,1:0:0:0:
350,319,146817,1,0,1:0:0:0:
386,276,147035,1,0,3:0:0:0:
364,224,147253,6,0,P|371:152|432:99,1,140,6|2,1:2|1:2,0:0:0:0:
475,200,148113,1,0,1:0:0:0:
432,303,148544,1,0,1:0:0:0:
384,332,148759,1,0,3:0:0:0:
334,302,148974,6,0,P|266:281|174:282,1,140,4|0,1:2|1:0,0:0:0:0:
157,239,149612,1,0,3:0:0:0:
162,183,149825,2,0,P|227:126|309:101,1,140,4|0,1:2|1:0,0:0:0:0:
323,76,150463,1,0,3:0:0:0:
304,24,150676,5,4,1:2:0:0:
198,61,151116,1,2,1:2:0:0:
187,172,151557,1,2,1:2:0:0:
268,248,151997,1,0,1:0:0:0:
367,192,152421,6,0,P|468:166|521:163,1,140,4|0,3:2|3:0,0:0:0:0:
474,52,153254,2,0,P|373:78|320:81,1,140,4|0,3:2|3:0,0:0:0:0:
243,25,154106,6,0,P|162:19|99:87,1,140,4|0,3:2|3:3,0:0:0:0:
57,146,154972,1,0,3:0:0:0:
136,224,155405,1,2,3:2:0:0:
65,307,155838,6,0,P|157:338|207:376,1,140,4|0,3:2|3:0,0:0:0:0:
236,259,156726,2,0,P|144:228|94:190,1,140,4|0,3:2|3:0,0:0:0:0:
150,97,157592,6,0,L|336:76,1,140,4|0,3:2|3:0,0:0:0:0:
377,12,158452,1,0,3:0:0:0:
458,88,158882,1,2,3:2:0:0:
404,186,159312,6,0,P|408:273|360:334,1,140,4|0,3:2|3:0,0:0:0:0:
271,295,160172,2,0,P|267:208|315:147,1,140,4|0,3:2|3:0,0:0:0:0:
355,73,161057,6,0,P|281:30|207:17,1,140.021816666667,4|0,3:2|3:0,0:0:0:0:
123,70,161931,1,0,3:0:0:0:
174,162,162350,1,2,3:2:0:0:
109,248,162792,6,0,P|47:276|12:331,2,105,4|4|4,3:2|3:2|3:2,0:0:0:0:
190,288,163813,2,0,P|205:356|246:403,2,105,4|4|4,3:2|3:2|3:2,0:0:0:0:
244,215,164913,1,4,3:2:0:0:
256,192,165130,12,0,169608,0:0:0:0:
242,131,170927,6,0,L|375:102,2,105,4|4|4,3:2|3:2|3:2,0:0:0:0:
213,219,171818,1,4,3:2:0:0:
