osu file format v14

[General]
AudioFilename: audio.mp3
AudioLeadIn: 0
PreviewTime: 65397
Countdown: 0
SampleSet: Soft
StackLeniency: 0.5
Mode: 0
LetterboxInBreaks: 0
WidescreenStoryboard: 1

[Editor]
Bookmarks: 59,3548,17510,38265,45181,52102,65950,72852,86705,100515,117822,124745,152422,164913,169608,169835,170059,170283,170395
DistanceSpacing: 0.8
BeatDivisor: 4
GridSize: 8
TimelineZoom: 1.7

[Metadata]
Title:St. Jimmy
TitleUnicode:St. Jimmy
Artist:Green Day
ArtistUnicode:Green Day
Creator:hehe
Version:Insane
Source:
Tags:hectic h4d0uk3n1 handsome american idiot billie joe armstrong mike dirnt tré tre cool pop punk rock coverups longshot the network foxboro hot tubs english bullet in a bible saint
BeatmapID:3568783
BeatmapSetID:1735953

[Difficulty]
HPDrainRate:4
CircleSize:4
OverallDifficulty:8
ApproachRate:9
SliderMultiplier:0.7
SliderTickRate:1

[Events]
//Background and Video events
0,0,"kael-ngu-homefront03.jpg",0,0
//Break Periods
//Storyboard Layer 0 (Background)
//Storyboard Layer 1 (Fail)
//Storyboard Layer 2 (Pass)
//Storyboard Layer 3 (Foreground)
//Storyboard Layer 4 (Overlay)
//Storyboard Sound Samples

[TimingPoints]
59,214.285714285714,4,2,1,50,1,0
59,-50,4,2,1,50,0,0
273,217.391304347826,4,2,1,50,1,0
925,217.391304347826,4,2,1,50,1,0
3207,238.095238095238,4,2,1,50,1,0
3326,222.222222222222,4,2,1,50,1,0
3326,-50,4,2,1,50,0,0
3548,222.222222222222,4,2,1,50,1,0
3548,-50,4,2,1,50,0,0
3549,-50,4,2,1,50,0,0
3992,215.827338129496,4,2,1,50,1,0
4855,218.978102189781,4,2,1,50,1,0
5730,217.864923747277,4,2,1,50,1,0
6165,217.864923747277,4,2,1,50,1,0
6818,-50,4,2,1,50,0,0
7036,217.706821480406,4,2,1,50,1,0
7036,-50,4,2,1,50,0,0
7906,217.391304347826,4,2,1,50,1,0
8775,218.978102189781,4,2,1,50,1,0
10307,-50,4,2,1,50,0,0
10526,215.827338129496,4,2,1,50,1,0
10526,-50,4,2,1,50,0,0
11389,222.222222222222,4,2,1,50,1,0
12055,-50,4,2,1,50,0,0
12277,215.05376344086,4,2,1,50,1,0
12277,-50,4,2,1,50,0,0
13567,234.375,4,2,1,50,1,0
13801,217.391304347826,4,2,1,50,1,0
13801,-50,4,2,1,50,0,0
14018,217.391304347826,4,2,1,50,1,0
14018,-50,4,2,1,50,0,0
14670,229.007633587786,4,2,1,50,1,0
14899,218.978102189781,4,2,1,50,1,0
14899,-50,4,2,1,50,0,0
15774,214.285714285714,4,2,1,50,1,0
15774,-50,4,2,1,50,0,0
16202,225.563909774436,4,2,1,50,1,0
16202,-50,4,2,1,50,0,0
16653,205.479452054795,4,2,1,50,1,0
17063,222.222222222222,4,2,1,50,1,0
17507,217.076700434153,4,2,1,70,1,0
17507,-50,4,2,1,70,0,0
19243,216.138328530259,4,2,1,70,1,0
19243,-50,4,2,1,70,0,0
20972,215.362526920316,4,2,1,70,1,0
20972,-50,4,2,1,70,0,0
22694,216.606498194946,4,2,1,70,1,0
22694,-50,4,2,1,70,0,0
24426,216.998191681736,4,2,1,70,1,0
24642,-55.5555555555556,4,2,1,70,0,0
26161,216.138328530259,4,2,1,70,1,0
26161,-55.5555555555556,4,2,1,70,0,0
31348,215.827338129496,4,2,1,70,1,0
31348,-55.5555555555556,4,2,1,70,0,0
33074,216.450216450216,4,2,1,70,1,0
33074,-55.5555555555556,4,2,1,70,0,0
34805,216.606498194946,4,2,1,70,1,0
34805,-55.5555555555556,4,2,1,70,0,0
36537,215.827338129496,4,2,1,70,1,0
36537,-55.5555555555556,4,2,1,70,0,0
38155,230.769230769231,4,2,1,70,1,0
38270,217.983651226158,4,2,1,90,1,1
38270,-41.6666666666667,4,2,1,90,0,1
39141,215.827338129496,4,2,1,90,1,1
39141,-41.6666666666667,4,2,1,90,0,1
40004,209.79020979021,4,2,1,90,1,1
40004,-41.6666666666667,4,2,1,90,0,1
40633,223.880597014925,4,2,1,90,1,1
40633,-41.6666666666667,4,2,1,90,0,1
41080,216.606498194946,4,2,1,90,1,1
41080,-41.6666666666667,4,2,1,90,0,1
41296,200,4,2,1,90,1,1
41496,227.272727272727,4,2,1,90,1,1
41723,215.827338129496,4,2,1,90,1,1
41723,-41.6666666666667,4,2,1,90,0,1
43233,235.294117647059,4,2,1,90,1,1
43468,217.391304347826,4,2,1,90,1,1
44120,203.389830508475,4,2,1,90,1,1
44323,214.438884917798,4,2,1,90,1,1
44323,-50,4,2,1,90,0,1
45180,216.841344416335,4,2,1,70,1,0
45180,-50,4,2,1,70,0,0
46914,216.52832912306,4,2,1,70,1,0
46914,-50,4,2,1,70,0,0
48646,216.021602160216,4,2,1,70,1,0
48646,-50,4,2,1,70,0,0
50374,-50,4,2,1,70,0,0
52102,216.294160057678,4,2,1,70,1,0
52112,-55.5555555555556,4,2,1,70,0,0
55562,215.982721382289,4,2,1,70,1,0
55562,-55.5555555555556,4,2,1,70,0,0
59017,214.285714285714,4,2,1,70,1,0
59017,-55.5555555555556,4,2,1,70,0,0
59874,216.138328530259,4,2,1,70,1,0
59874,-55.5555555555556,4,2,1,70,0,0
60738,215.982721382289,4,2,1,70,1,0
60738,-55.5555555555556,4,2,1,70,0,0
62465,216.606498194946,4,2,1,70,1,0
62681,-55.5555555555556,4,2,1,70,0,0
64631,206.896551724138,4,2,1,70,1,0
64941,235.294117647059,4,2,1,70,1,0
64941,-55.5555555555556,4,2,1,70,0,0
65058,235.294117647059,4,2,1,70,1,0
65293,214.285714285714,4,2,1,70,1,0
65293,-55.5555555555556,4,2,1,70,0,0
65721,229.885057471264,4,2,1,70,1,0
65721,-55.5555555555556,4,2,1,70,0,0
65950,215.362526920316,4,2,1,90,1,1
65950,-41.6666666666667,4,2,1,90,0,1
67672,216.450216450216,4,2,1,90,1,1
67672,-41.6666666666667,4,2,1,90,0,1
68754,212.765957446809,4,2,1,90,1,1
68754,-41.6666666666667,4,2,1,90,0,1
69392,218.023255813954,4,2,1,90,1,1
69392,-41.6666666666667,4,2,1,90,0,1
70918,229.007633587786,4,2,1,90,1,1
71147,211.267605633803,4,2,1,90,1,1
71992,218.978102189781,4,2,1,90,1,1
71992,-50,4,2,1,90,0,1
72429,211.640211640212,4,2,1,90,1,1
72852,214.285714285714,4,2,1,70,1,0
72852,-55.5555555555556,4,2,1,70,0,0
73602,250,4,2,1,70,1,0
73727,217.312567910177,4,2,1,70,1,0
73727,-55.5555555555556,4,2,1,70,0,0
74596,215.362526920316,4,2,1,70,1,0
74596,-55.5555555555556,4,2,1,70,0,0
76318,202.702702702703,4,2,1,70,1,0
76318,-55.5555555555556,4,2,1,70,0,0
76520,218.181818181818,4,2,1,70,1,0
77174,218.978102189781,4,2,1,70,1,0
77174,-55.5555555555556,4,2,1,70,0,0
77830,225.563909774436,4,2,1,70,1,0
78055,216.450216450216,4,2,1,70,1,0
78055,-55.5555555555556,4,2,1,70,0,0
79786,200,4,2,1,70,1,0
79786,-55.5555555555556,4,2,1,70,0,0
79986,206.896551724138,4,2,1,70,1,0
80606,215.05376344086,4,2,1,70,1,0
80606,-55.5555555555556,4,2,1,70,0,0
80928,243.90243902439,4,2,1,70,1,0
80928,-55.5555555555556,4,2,1,70,0,0
81049,243.90243902439,4,2,1,70,1,0
81292,218.181818181818,4,2,1,70,1,0
81292,-55.5555555555556,4,2,1,70,0,0
81510,217.391304347826,4,2,1,70,1,0
81510,-55.5555555555556,4,2,1,70,0,0
83249,206.896551724138,4,2,1,70,1,0
83249,-55.5555555555556,4,2,1,70,0,0
83455,212.765957446809,4,2,1,70,1,0
84093,220.588235294118,4,2,1,70,1,0
84093,-55.5555555555556,4,2,1,70,0,0
84975,215.439856373429,4,2,1,70,1,0
84975,-55.5555555555556,4,2,1,70,0,0
86052,209.79020979021,4,2,1,70,1,0
86576,259.74025974026,4,2,1,70,1,0
86705,216.411181244364,4,2,1,80,1,0
86705,-50,4,2,1,80,0,0
88436,215.827338129496,4,2,1,70,1,0
88436,-50,4,2,1,70,0,0
89191,222.222222222222,4,2,1,70,1,0
89191,-50,4,2,1,70,0,0
89413,252.100840336134,4,2,1,80,1,0
89539,216.606498194946,4,2,1,70,1,0
89539,-50,4,2,1,70,0,0
89972,187.5,4,2,1,70,1,0
89972,-50,4,2,1,70,0,0
90159,213.143872113677,4,2,1,80,1,0
90159,-50,4,2,1,80,0,0
90905,235.294117647059,4,2,1,70,1,0
90905,-50,4,2,1,70,0,0
91022,235.294117647059,4,2,1,80,1,0
91257,213.523131672598,4,2,1,70,1,0
91257,-50,4,2,1,70,0,0
91684,204.081632653061,4,2,1,70,1,0
91888,212.014134275618,4,2,1,70,1,0
91888,-50,4,2,1,70,0,0
92630,220.588235294118,4,2,1,70,1,0
92630,-50,4,2,1,70,0,0
92740,220.588235294118,4,2,1,80,1,0
92960,213.523131672598,4,2,1,70,1,0
92960,-50,4,2,1,70,0,0
93600,216.763005780347,4,2,1,80,1,0
93600,-50,4,2,1,80,0,0
95334,216.216216216216,4,2,1,70,1,0
95334,-50,4,2,1,70,0,0
97063,215.285252960172,4,2,1,80,1,0
97063,-50,4,2,1,80,0,0
98569,225.563909774436,4,2,1,70,1,0
98794,215.439856373429,4,2,1,70,1,0
98794,-50,4,2,1,70,0,0
100517,218.181818181818,4,2,1,70,1,0
100517,-62.5,4,2,1,70,0,0
101171,256.410256410256,4,2,1,70,1,0
101427,181.818181818182,4,2,1,70,1,0
101427,-62.5,4,2,1,70,0,0
101608,205.479452054795,4,2,1,70,1,0
101813,217.391304347826,4,2,1,70,1,0
102247,219.78021978022,4,2,1,70,1,0
102247,-62.5,4,2,1,70,0,0
102906,235.294117647059,4,2,1,70,1,0
103141,193.548387096774,4,2,1,70,1,0
103141,-62.5,4,2,1,70,0,0
103334,210.34180543383,4,2,1,70,1,0
103965,218.181818181818,4,2,1,70,1,0
103965,-62.5,4,2,1,70,0,0
104619,248.96265560166,4,2,1,70,1,0
104867,201.342281879195,4,2,1,70,1,0
104867,-62.5,4,2,1,70,0,0
105068,209.79020979021,4,2,1,70,1,0
105697,216.606498194946,4,2,1,70,1,0
105697,-62.5,4,2,1,70,0,0
106346,239.043824701195,4,2,1,70,1,0
106585,198.019801980198,4,2,1,70,1,0
106585,-62.5,4,2,1,70,0,0
106783,208.333333333333,4,2,1,70,1,0
107408,210.526315789474,4,2,1,70,1,0
107408,-62.5,4,2,1,70,0,0
108039,245.901639344262,4,2,1,70,1,0
108284,216.216216216216,4,2,1,70,1,0
108284,-62.5,4,2,1,70,0,0
109148,215.05376344086,4,2,1,70,1,0
109148,-62.5,4,2,1,70,0,0
109793,258.620689655172,4,2,1,70,1,0
110051,200,4,2,1,70,1,0
110051,-62.5,4,2,1,70,0,0
110251,212.765957446809,4,2,1,70,1,0
110676,219.78021978022,4,2,1,70,1,0
110895,219.78021978022,4,2,1,70,1,0
110895,-62.5,4,2,1,70,0,0
111554,283.018867924528,4,2,1,70,1,0
111837,193.548387096774,4,2,1,70,1,0
111837,-62.5,4,2,1,70,0,0
112417,280.373831775701,4,2,1,70,1,0
112697,194.805194805195,4,2,1,70,1,0
112697,-62.5,4,2,1,70,0,0
113281,273.972602739726,4,2,1,70,1,0
113554,196.078431372549,4,2,1,70,1,0
113554,-62.5,4,2,1,70,0,0
114142,238.095238095238,4,2,1,70,1,0
114380,430.10752688172,4,2,1,70,1,0
114380,-35.7142857142857,4,2,1,70,0,0
115240,424.028268551237,4,2,1,70,1,0
116088,437.956204379562,4,2,1,70,1,0
116963,422.535211267606,4,2,1,70,1,0
117385,437.956204379562,4,2,1,70,1,0
117822,439.238653001464,4,2,1,70,1,0
117822,-35.7142857142857,4,2,1,70,0,0
118700,434.782608695652,4,2,1,70,1,0
119569,430.10752688172,4,2,1,70,1,0
119569,-35.7142857142857,4,2,1,70,0,0
120859,447.761194029851,4,2,1,70,1,0
121306,430.879712746858,4,2,1,70,1,0
121306,-35.7142857142857,4,2,1,70,0,0
123891,387.096774193548,4,2,1,70,1,0
124084,441.176470588235,4,2,1,70,1,0
124084,-35.7142857142857,4,2,1,70,0,0
124745,434.153400868307,4,2,1,70,1,0
124745,-35.7142857142857,4,2,1,70,0,0
126481,435.729847494553,4,2,1,80,1,0
126481,-35.7142857142857,4,2,1,80,0,0
127352,-35.7142857142857,4,2,1,70,0,0
128223,-35.7142857142857,4,2,1,80,0,0
129966,422.535211267606,4,2,1,80,1,0
129966,-35.7142857142857,4,2,1,80,0,0
130811,434.782608695652,4,2,1,80,1,0
131245,454.545454545455,4,2,1,80,1,0
131699,419.58041958042,4,2,1,80,1,0
131699,-35.7142857142857,4,2,1,80,0,0
132538,434.782608695652,4,2,1,80,1,0
133407,431.344356578001,4,2,1,80,1,0
133407,-35.7142857142857,4,2,1,80,0,0
135132,441.176470588235,4,2,1,80,1,0
135132,-35.7142857142857,4,2,1,80,0,0
136014,425.531914893617,4,2,1,80,1,0
136014,-35.7142857142857,4,2,1,80,0,0
136865,425.531914893617,4,2,1,80,1,0
136865,-35.7142857142857,4,2,1,80,0,0
138354,461.538461538462,4,2,1,80,1,0
138584,432.276657060519,4,2,1,80,1,0
138584,-35.7142857142857,4,2,1,80,0,0
141177,439.56043956044,4,2,1,80,1,0
141177,-35.7142857142857,4,2,1,80,0,0
142056,432.276657060519,4,2,1,80,1,0
142056,-35.7142857142857,4,2,1,80,0,0
143785,430.879712746858,4,2,1,80,1,0
143785,-35.7142857142857,4,2,1,80,0,0
145508,436.363636363636,4,2,1,80,1,0
145508,-35.7142857142857,4,2,1,80,0,0
147253,430.416068866571,4,2,1,80,1,0
148113,-35.7142857142857,4,2,1,80,0,0
148974,425.531914893617,4,2,1,80,1,0
148974,-35.7142857142857,4,2,1,80,0,0
150676,440.528634361234,4,2,1,80,1,0
150676,-35.7142857142857,4,2,1,80,0,0
151997,424.028268551237,4,2,1,80,1,0
151997,-35.7142857142857,4,2,1,80,0,0
152421,416.666666666667,4,2,1,80,1,0
152421,-35.7142857142857,4,2,1,80,0,0
152422,-35.7142857142857,4,2,1,80,0,0
153254,426.136363636364,4,2,1,80,1,0
153254,-35.7142857142857,4,2,1,80,0,0
154106,433.212996389892,4,2,1,80,1,0
154106,-35.7142857142857,4,2,1,80,0,0
155838,444.444444444444,4,2,1,80,1,0
155838,-35.7142857142857,4,2,1,80,0,0
157171,421.052631578947,4,2,1,80,1,0
157592,430.10752688172,4,2,1,80,1,0
157592,-35.7142857142857,4,2,1,80,0,0
160172,442.80442804428,4,2,1,80,1,0
160172,-35.7142857142857,4,2,1,80,0,0
161057,437.31778425656,4,2,1,80,1,0
161057,-35.7142857142857,4,2,1,80,0,0
161931,419.58041958042,4,2,1,80,1,0
161931,-35.7142857142857,4,2,1,80,0,0
162350,442.477876106195,4,2,1,80,1,0
162792,451.127819548872,4,2,1,80,1,0
162792,-35.7142857142857,4,2,1,80,0,0
163468,691.244239631336,4,2,1,80,1,0
163813,466.926070038911,4,2,1,80,1,0
163813,-35.7142857142857,4,2,1,80,0,0
164513,800,4,2,1,80,1,0
164913,434.467776973208,4,2,1,80,1,0
167954,441.176470588235,4,2,1,80,1,0
169608,431.654676258993,4,2,1,80,1,0
169823,526.315789473684,4,2,1,80,1,0
170086,598.802395209581,4,2,1,80,1,0
170385,542.986425339367,4,2,1,80,1,0
170927,396.039603960396,4,2,1,80,1,0
170927,-50,4,2,1,80,0,0
171521,-33.3333333333333,4,2,1,80,0,0

[Colours]
Combo1 : 18,124,255
Combo2 : 255,55,55

[HitObjects]
93,163,59,6,0,L|249:131,1,140,4|0,3:2|0:0,0:0:0:0:
373,181,3326,6,0,L|360:272,1,70,4|0,3:2|0:0,0:0:0:0:
296,168,3548,2,0,L|283:259,1,70,4|0,3:2|0:0,0:0:0:0:
173,77,6818,6,0,L|261:55,1,70,4|0,3:2|0:0,0:0:0:0:
193,154,7036,2,0,L|281:132,1,70,4|0,3:2|0:0,0:0:0:0:
362,376,10307,6,0,L|377:286,1,70,4|0,3:2|0:0,0:0:0:0:
281,363,10526,2,0,L|296:273,1,70,4|0,3:2|0:0,0:0:0:0:
75,243,12055,6,0,L|161:216,1,70,4|0,3:2|0:0,0:0:0:0:
97,319,12277,2,0,L|183:292,1,70,4|0,3:2|0:0,0:0:0:0:
415,125,13801,6,0,L|396:22,1,70,4|0,3:2|0:0,0:0:0:0:
336,144,14018,2,0,L|317:41,1,70,4|0,3:2|0:0,0:0:0:0:
109,352,14899,6,0,L|133:184,1,140,6|0,3:2|0:0,0:0:0:0:
28,117,15774,6,0,B|108:129|108:129|145:119|145:119|235:135,1,210,4|0,3:2|0:0,0:0:0:0:
212,224,16202,2,0,B|292:212|292:212|329:222|329:222|419:206,1,210,4|0,3:2|0:0,0:0:0:0:
482,153,16653,5,2,0:0:0:0:
366,141,16858,1,2,0:0:0:0:
354,257,17063,1,2,0:0:0:0:
470,269,17285,1,2,0:0:0:0:
482,152,17507,6,0,P|447:157|414:173,1,70,4|0,3:2|0:0,0:0:0:0:
457,66,17724,2,0,P|425:80|390:84,1,70,8|0,0:0|0:0,0:0:0:0:
334,23,17941,5,0,3:0:0:0:
288,14,18049,1,0,3:0:0:0:
246,32,18158,1,8,3:2:0:0:
221,71,18266,2,0,L|250:221,1,140,0|0,3:0|3:0,0:0:0:0:
174,245,18592,6,0,L|164:336,1,70,8|0,0:0|0:0,0:0:0:0:
294,357,18809,1,0,3:0:0:0:
305,348,18917,1,0,3:0:0:0:
305,334,19026,1,8,0:0:0:0:
416,204,19243,6,0,P|383:215|358:240,1,70,4|0,3:2|0:0,0:0:0:0:
461,277,19459,2,0,P|436:301|403:313,1,70,8|0,0:0|0:0,0:0:0:0:
229,315,19675,5,0,3:0:0:0:
221,269,19783,1,0,3:0:0:0:
243,229,19891,1,8,3:2:0:0:
285,211,19999,2,0,P|240:137|140:144,1,140,0|0,3:0|3:0,0:0:0:0:
173,49,20323,6,0,P|140:61|119:88,1,70,8|0,0:0|0:0,0:0:0:0:
122,216,20539,1,0,3:0:0:0:
135,219,20647,1,0,3:0:0:0:
144,229,20755,1,8,0:0:0:0:
0,334,20972,6,0,L|15:251,1,70,4|0,3:2|0:0,0:0:0:0:
78,355,21187,2,0,L|93:272,1,70,8|0,0:0|0:0,0:0:0:0:
219,264,21402,5,0,3:0:0:0:
183,235,21510,1,0,3:0:0:0:
174,191,21618,1,8,3:2:0:0:
197,151,21725,2,0,L|361:168,1,140,0|0,3:0|3:0,0:0:0:0:
377,235,22048,6,0,L|468:220,1,70,8|0,0:0|0:0,0:0:0:0:
505,86,22264,1,0,3:0:0:0:
491,85,22371,1,0,3:0:0:0:
481,95,22479,1,8,0:0:0:0:
294,11,22694,6,0,P|297:46|307:80,1,70,4|0,3:2|0:0,0:0:0:0:
207,27,22910,2,0,P|217:60|220:95,1,70,8|0,0:0|0:0,0:0:0:0:
381,148,23127,5,0,3:0:0:0:
336,161,23235,1,0,3:0:0:0:
291,175,23343,1,8,3:2:0:0:
247,188,23452,2,0,L|238:277,1,70,0|0,3:0|0:0,0:0:0:0:
185,322,23668,5,10,0:0:0:0:
116,322,23777,1,10,0:0:0:0:
62,280,23885,1,10,0:0:0:0:
45,213,23993,1,8,0:0:0:0:
74,151,24101,1,8,0:0:0:0:
136,121,24210,1,8,0:0:0:0:
203,135,24318,1,8,0:0:0:0:
247,188,24426,5,12,3:2:0:0:
416,65,24642,2,0,B|408:148|392:109|383:209,2,125.999996154785,8|0|8,0:0|3:0|0:0,0:0:0:0:
226,12,25293,5,0,3:0:0:0:
226,12,25402,2,0,P|154:17|121:99,1,125.999996154785,0|0,3:0|3:0,0:0:0:0:
50,29,25727,2,0,P|44:68|56:103,1,62.9999980773926,0|0,3:0|0:0,0:0:0:0:
184,171,25944,2,0,P|190:132|178:97,1,62.9999980773926,8|0,0:0|0:0,0:0:0:0:
28,209,26161,5,0,3:0:0:0:
28,209,26269,1,0,3:0:0:0:
28,209,26377,1,8,0:0:0:0:
112,304,26593,1,0,3:0:0:0:
137,271,26701,1,0,3:0:0:0:
174,252,26809,1,8,3:2:0:0:
216,252,26917,2,0,P|265:317|331:311,1,125.999996154785,0|0,3:0|3:0,0:0:0:0:
366,367,27241,6,0,L|443:345,1,62.9999980773926,8|0,0:0|0:0,0:0:0:0:
488,188,27457,1,0,3:0:0:0:
497,179,27565,1,0,3:0:0:0:
496,166,27673,1,12,0:2:0:0:
271,176,27890,5,4,3:2:0:0:
422,147,28106,2,0,P|373:208|350:290,2,125.999996154785,8|0|8,0:0|3:0|0:0,0:0:0:0:
242,53,28754,5,0,3:0:0:0:
242,53,28862,2,0,P|314:53|340:139,1,125.999996154785,0|0,3:0|3:0,0:0:0:0:
295,157,29186,2,0,P|255:166|215:192,1,62.9999980773926,0|0,3:0|0:0,0:0:0:0:
348,223,29403,2,0,P|376:236|407:241,1,62.9999980773926,8|0,0:0|0:0,0:0:0:0:
458,184,29619,5,0,3:0:0:0:
325,360,29835,1,8,0:0:0:0:
129,310,30051,1,0,3:0:0:0:
100,280,30159,1,0,3:0:0:0:
91,239,30267,1,8,3:2:0:0:
107,201,30375,2,0,P|126:138|114:57,1,125.999996154785,0|0,3:0|3:0,0:0:0:0:
74,16,30699,6,0,P|51:37|42:67,1,62.9999980773926,8|0,0:0|0:0,0:0:0:0:
202,184,30916,1,0,3:0:0:0:
213,180,31024,1,0,3:0:0:0:
219,190,31132,1,12,0:2:0:0:
358,119,31348,5,4,3:2:0:0:
251,269,31563,2,0,B|262:210|262:210|272:197|272:197|289:116,2,125.999996154785,8|0|8,0:0|3:0|0:0,0:0:0:0:
52,362,32211,5,0,3:0:0:0:
52,362,32319,2,0,P|14:303|50:220,1,125.999996154785,0|0,3:0|3:0,0:0:0:0:
91,210,32642,2,0,P|102:234|97:285,1,62.9999980773926,0|0,3:0|0:0,0:0:0:0:
234,271,32858,2,0,P|212:248|183:236,1,62.9999980773926,8|0,0:0|0:0,0:0:0:0:
135,137,33074,5,0,3:0:0:0:
180,366,33290,1,8,0:0:0:0:
371,241,33506,1,0,3:0:0:0:
394,207,33615,1,0,3:0:0:0:
392,165,33723,1,8,3:2:0:0:
366,133,33831,2,0,L|225:162,1,125.999996154785,0|0,3:0|3:0,0:0:0:0:
201,89,34156,6,0,L|111:75,1,62.9999980773926,8|0,0:0|0:0,0:0:0:0:
64,99,34372,1,0,3:0:0:0:
57,88,34480,1,0,3:0:0:0:
61,76,34589,1,12,0:0:0:0:
231,248,34805,5,4,3:2:0:0:
29,296,35021,2,0,P|26:228|108:183,2,125.999996154785,8|0|8,0:0|3:0|0:0,0:0:0:0:
340,378,35671,5,0,3:0:0:0:
340,378,35779,2,0,P|319:281|294:209,1,125.999996154785,0|0,3:0|3:0,0:0:0:0:
231,248,36104,2,0,P|241:211|282:182,1,62.9999980773926,0|0,3:0|0:0,0:0:0:0:
465,305,36321,2,0,P|424:302|392:279,1,62.9999980773926,8|0,0:0|0:0,0:0:0:0:
401,139,36537,5,4,3:2:0:0:
250,329,36752,1,8,0:0:0:0:
121,124,36968,1,0,3:0:0:0:
161,113,37076,1,0,3:0:0:0:
202,103,37184,1,8,3:2:0:0:
243,93,37292,2,0,L|231:173,1,62.9999980773926,0|0,3:0|0:0,0:0:0:0:
272,265,37508,5,10,0:0:0:0:
340,278,37616,1,10,0:0:0:0:
404,248,37724,1,10,0:0:0:0:
437,186,37831,1,8,0:0:0:0:
426,115,37939,1,8,0:0:0:0:
375,67,38047,1,8,0:0:0:0:
305,58,38155,1,8,0:0:0:0:
243,93,38270,6,0,P|133:110|67:73,1,167.999994873047,4|8,3:2|0:0,0:0:0:0:
7,76,38596,1,0,3:0:0:0:
7,76,38705,2,0,P|76:162|77:238,1,167.999994873047,4|8,3:2|0:0,0:0:0:0:
110,288,39032,1,0,3:0:0:0:
110,288,39141,2,0,P|150:184|215:145,1,167.999994873047,4|8,3:2|0:0,0:0:0:0:
269,186,39464,1,0,3:0:0:0:
269,186,39572,1,0,3:0:0:0:
423,92,39788,1,8,3:2:0:0:
402,256,40004,6,0,P|389:205|404:156,1,83.9999974365235,4|0,3:2|0:0,0:0:0:0:
480,168,40213,2,0,P|493:219|478:268,1,83.9999974365235,8|0,0:0|3:0,0:0:0:0:
358,327,40423,5,2,3:2:0:0:
302,318,40528,1,0,0:0:0:0:
247,309,40633,1,8,0:0:0:0:
192,300,40744,2,0,P|97:322|44:380,1,167.999994873047,2|0,3:2|3:0,0:0:0:0:
18,280,41080,6,0,P|5:216|43:176,1,83.9999974365235,10|0,0:0|0:0,0:0:0:0:
85,165,41296,1,0,3:0:0:0:
96,181,41396,1,0,3:0:0:0:
92,199,41496,1,8,0:0:0:0:
237,40,41723,6,0,P|326:50|359:148,1,167.999994873047,4|8,3:2|0:0,0:0:0:0:
437,152,42046,1,0,3:0:0:0:
437,152,42154,2,0,P|383:224|282:203,1,167.999994873047,4|8,3:2|0:0,0:0:0:0:
240,269,42478,1,0,3:0:0:0:
240,269,42586,2,0,P|204:186|272:109,1,167.999994873047,4|8,3:2|0:0,3:0:0:0:
237,40,42910,1,0,3:0:0:0:
237,40,43017,1,0,3:0:0:0:
314,157,43233,5,8,3:2:0:0:
325,141,43350,1,0,3:0:0:0:
321,123,43468,1,8,3:2:0:0:
160,184,43685,5,0,3:0:0:0:
156,202,43794,1,0,3:0:0:0:
167,218,43902,1,8,3:2:0:0:
287,351,44120,6,0,L|280:294,1,35,0|0,3:0|3:0,0:0:0:0:
273,231,44323,5,8,3:2:0:0:
121,300,44537,1,8,3:2:0:0:
173,106,44751,1,8,0:0:0:0:
111,88,44859,1,8,0:0:0:0:
52,112,44966,1,8,0:0:0:0:
20,166,45073,1,8,0:0:0:0:
29,230,45180,6,0,P|71:223|112:204,1,70,4|0,3:2|0:0,0:0:0:0:
55,318,45396,2,0,P|87:304|122:300,1,70,8|0,0:0|0:0,0:0:0:0:
178,361,45613,5,0,3:0:0:0:
224,370,45722,1,0,3:0:0:0:
266,352,45830,1,8,3:2:0:0:
291,313,45938,2,0,L|262:163,1,140,0|0,3:0|3:0,0:0:0:0:
338,139,46264,6,0,L|348:48,1,70,8|0,0:0|0:0,0:0:0:0:
218,27,46481,1,0,3:0:0:0:
207,36,46589,1,0,3:0:0:0:
207,50,46697,1,8,0:0:0:0:
96,180,46914,6,0,P|129:169|154:144,1,70,4|0,3:2|0:0,0:0:0:0:
51,107,47130,2,0,P|76:83|109:71,1,70,8|0,0:0|0:0,0:0:0:0:
283,69,47347,5,0,3:0:0:0:
291,115,47455,1,0,3:0:0:0:
269,155,47563,1,8,3:2:0:0:
227,173,47671,2,0,P|272:247|372:240,1,140,0|0,3:0|3:0,0:0:0:0:
339,335,47996,6,0,P|372:323|393:296,1,70,8|0,0:0|0:0,0:0:0:0:
390,168,48213,1,0,3:0:0:0:
377,165,48321,1,0,3:0:0:0:
368,155,48429,1,8,0:0:0:0:
512,50,48646,6,0,L|497:133,1,70,4|0,3:2|0:0,0:0:0:0:
434,29,48862,2,0,L|419:112,1,70,8|0,0:0|0:0,0:0:0:0:
293,120,49078,5,0,3:0:0:0:
329,149,49186,1,0,3:0:0:0:
338,193,49294,1,8,3:2:0:0:
315,233,49402,2,0,L|151:216,1,140,0|0,3:0|3:0,0:0:0:0:
135,149,49726,6,0,L|44:164,1,70,8|0,0:0|0:0,0:0:0:0:
7,298,49942,1,0,3:0:0:0:
21,299,50050,1,0,3:0:0:0:
31,289,50158,1,8,0:0:0:0:
218,373,50374,6,0,P|215:338|205:304,1,70,4|0,3:2|0:0,0:0:0:0:
305,357,50590,2,0,P|295:324|292:289,1,70,8|0,0:0|0:0,0:0:0:0:
131,236,50806,5,0,3:0:0:0:
176,223,50914,1,0,3:0:0:0:
221,209,51022,1,8,3:2:0:0:
265,196,51130,2,0,L|274:107,1,70,0|0,3:0|0:0,0:0:0:0:
327,62,51346,5,10,0:0:0:0:
396,62,51454,1,10,0:0:0:0:
450,104,51562,1,10,0:0:0:0:
467,171,51670,1,8,0:0:0:0:
438,233,51778,1,8,0:0:0:0:
376,263,51886,1,8,0:0:0:0:
309,249,51994,1,8,0:0:0:0:
265,196,52102,5,4,3:2:0:0:
107,238,52318,1,8,0:0:0:0:
107,238,52426,1,0,3:0:0:0:
107,238,52534,2,0,L|183:218,1,62.9999980773926,0|0,3:0|0:0,0:0:0:0:
228,274,52750,2,0,L|212:335,1,62.9999980773926,8|0,0:0|0:0,0:0:0:0:
286,372,52967,5,0,3:0:0:0:
286,372,53075,2,0,P|358:367|391:285,1,125.999996154785,0|0,3:0|3:0,0:0:0:0:
462,355,53399,2,0,P|468:316|456:281,1,62.9999980773926,0|0,3:0|0:0,0:0:0:0:
328,213,53616,2,0,P|322:252|334:287,1,62.9999980773926,8|0,0:0|0:0,0:0:0:0:
499,226,53832,5,0,3:0:0:0:
247,196,54048,1,8,0:0:0:0:
400,80,54264,1,0,3:0:0:0:
375,113,54373,1,0,3:0:0:0:
338,132,54481,1,8,3:2:0:0:
296,132,54589,2,0,P|247:67|181:73,1,125.999996154785,0|0,3:0|3:0,0:0:0:0:
146,17,54913,6,0,L|69:39,1,62.9999980773926,8|0,0:0|0:0,0:0:0:0:
24,196,55130,1,0,3:0:0:0:
15,205,55238,1,0,3:0:0:0:
16,218,55346,1,12,0:0:0:0:
241,208,55562,5,4,3:2:0:0:
77,275,55777,1,8,0:0:0:0:
312,250,55993,1,0,3:0:0:0:
195,74,56209,1,8,0:0:0:0:
270,331,56425,5,0,3:0:0:0:
270,331,56533,2,0,P|198:331|172:245,1,125.999996154785,0|0,3:0|0:0,0:0:0:0:
217,227,56857,2,0,P|257:218|297:192,1,62.9999980773926,0|0,3:0|3:0,0:0:0:0:
164,161,57073,2,0,P|136:148|105:143,1,62.9999980773926,8|0,0:0|0:0,0:0:0:0:
54,200,57289,5,0,3:0:0:0:
187,24,57505,1,8,0:0:0:0:
383,74,57721,1,0,3:0:0:0:
412,104,57829,1,0,3:0:0:0:
421,145,57937,1,8,3:2:0:0:
405,183,58045,2,0,P|386:246|398:327,1,125.999996154785,0|0,3:0|3:0,0:0:0:0:
438,368,58369,6,0,P|461:347|470:317,1,62.9999980773926,8|0,0:0|0:0,0:0:0:0:
310,200,58585,1,0,3:0:0:0:
299,204,58693,1,0,3:0:0:0:
293,194,58801,1,12,0:0:0:0:
154,265,59018,5,4,3:2:0:0:
261,115,59231,2,0,B|250:174|250:174|240:187|240:187|223:268,2,125.999996154785,8|0|8,0:0|3:0|0:0,0:0:0:0:
460,22,59874,5,0,3:0:0:0:
460,22,59982,2,0,P|498:81|462:164,1,125.999996154785,0|0,3:0|3:0,0:0:0:0:
421,174,60306,2,0,P|410:150|415:99,1,62.9999980773926,0|0,3:0|0:0,0:0:0:0:
278,113,60522,2,8,P|300:136|329:148,1,62.9999980773926,8|0,0:0|0:0,0:0:0:0:
377,247,60738,5,0,3:0:0:0:
332,18,60953,1,8,0:0:0:0:
141,143,61169,1,0,3:0:0:0:
118,177,61277,1,0,3:0:0:0:
120,219,61385,1,8,3:2:0:0:
146,251,61493,2,0,L|287:222,1,125.999996154785,0|0,3:0|3:0,0:0:0:0:
311,295,61817,6,0,L|401:309,1,62.9999980773926,8|0,0:0|0:0,0:0:0:0:
448,285,62033,1,0,3:0:0:0:
455,296,62141,1,0,3:0:0:0:
451,308,62249,1,8,0:0:0:0:
281,136,62465,5,4,3:2:0:0:
483,88,62681,2,0,P|486:156|404:201,2,125.999996154785,8|0|8,0:0|3:0|0:0,0:0:0:0:
172,6,63331,5,0,3:0:0:0:
172,6,63439,2,0,P|193:103|218:175,1,125.999996154785,0|0,3:0|3:0,0:0:0:0:
281,136,63764,2,0,P|271:173|230:202,1,62.9999980773926,0|0,3:0|0:0,0:0:0:0:
47,79,63981,2,0,P|88:82|120:105,1,62.9999980773926,8|0,0:0|0:0,0:0:0:0:
111,245,64197,5,0,3:0:0:0:
262,54,64414,1,8,0:2:0:0:
391,260,64631,1,0,3:0:0:0:
351,271,64734,1,0,3:0:0:0:
310,281,64837,1,8,3:2:0:0:
269,291,64941,2,0,L|285:165,1,125.307,0|0,3:0|3:0,0:0:0:0:
358,129,65293,6,0,P|378:96|380:65,1,62.9999980773926,8|0,0:0|0:0,0:0:0:0:
230,109,65507,2,0,P|220:71|200:48,1,62.9999980773926,10|0,3:2|0:0,0:0:0:0:
125,185,65721,2,0,P|91:165|61:163,1,62.9999980773926,10|0,3:2|0:0,0:0:0:0:
269,291,65950,6,0,P|379:274|445:311,1,167.999994873047,4|8,3:2|0:0,0:0:0:0:
505,308,66273,1,0,3:0:0:0:
505,308,66380,2,0,P|436:222|435:146,1,167.999994873047,4|8,3:2|0:0,0:0:0:0:
402,96,66703,1,0,3:0:0:0:
402,96,66811,2,0,P|362:200|297:239,1,167.999994873047,4|8,3:2|0:0,0:0:0:0:
243,198,67134,1,0,3:0:0:0:
243,198,67242,1,0,3:0:0:0:
89,292,67457,1,8,3:2:0:0:
110,128,67672,6,0,P|123:179|108:228,1,83.9999974365235,4|0,3:2|0:0,0:0:0:0:
32,216,67888,2,0,P|19:165|34:116,1,83.9999974365235,8|0,0:0|3:0,0:0:0:0:
154,57,68104,5,2,3:2:0:0:
210,66,68213,1,0,0:0:0:0:
265,75,68321,1,8,0:0:0:0:
320,84,68429,2,0,P|415:62|468:4,1,167.999994873047,2|0,3:2|3:0,0:0:0:0:
494,104,68754,6,0,P|507:168|469:208,1,83.9999974365235,10|0,0:0|0:0,0:0:0:0:
427,219,68966,1,0,3:0:0:0:
416,203,69073,1,0,3:0:0:0:
420,185,69179,1,8,0:0:0:0:
275,344,69392,6,0,P|186:334|153:236,1,167.999994873047,4|8,3:2|0:0,0:0:0:0:
75,232,69719,1,0,3:0:0:0:
75,232,69828,2,0,P|129:160|230:181,1,167.999994873047,4|8,3:2|0:0,0:0:0:0:
272,115,70155,1,0,3:0:0:0:
272,115,70264,2,0,P|308:198|240:275,1,167.999994873047,4|8,3:2|0:0,0:0:0:0:
275,344,70591,1,0,3:0:0:0:
275,344,70700,1,0,3:0:0:0:
198,227,70918,5,8,3:2:0:0:
187,243,71032,1,0,3:0:0:0:
191,261,71147,1,8,0:0:0:0:
352,200,71358,5,0,3:0:0:0:
356,182,71463,1,0,3:0:0:0:
345,166,71569,1,8,0:0:0:0:
225,33,71780,6,0,L|232:90,1,35,0|0,3:0|3:0,0:0:0:0:
239,153,71992,5,8,0:0:0:0:
391,84,72210,1,8,0:0:0:0:
354,267,72429,1,8,0:0:0:0:
415,284,72534,1,8,0:0:0:0:
474,260,72640,1,8,0:0:0:0:
506,206,72746,1,8,0:0:0:0:
491,147,72852,6,0,P|401:116|361:124,1,125.999996154785,4|8,3:2|0:0,0:0:0:0:
275,79,73173,1,8,0:0:0:0:
244,118,73280,1,8,0:0:0:0:
198,137,73387,1,8,0:0:0:0:
149,131,73494,1,8,0:0:0:0:
108,102,73602,1,8,0:0:0:0:
86,57,73727,6,0,B|68:137|68:137|69:151|69:151|42:263,2,188.999994232178,4|4|4,3:2|3:2|3:2,0:0:0:0:
279,21,74596,6,0,L|299:106,1,62.9999980773926,4|0,3:2|0:0,0:0:0:0:
201,40,74811,2,0,L|221:125,1,62.9999980773926,8|0,0:0|0:0,0:0:0:0:
370,114,75026,5,0,3:0:0:0:
401,140,75134,1,0,3:0:0:0:
409,180,75242,1,8,3:2:0:0:
389,216,75349,2,0,P|318:238|293:306,1,125.999996154785,0|0,3:0|3:0,0:0:0:0:
316,355,75672,6,0,P|345:341|364:317,1,62.9999980773926,8|0,0:0|0:0,0:0:0:0:
252,183,75888,1,0,3:0:0:0:
239,182,75995,1,0,3:0:0:0:
234,193,76103,1,8,0:0:0:0:
183,340,76318,6,0,B|105:338|143:367|61:365,1,125.999996154785,4|8,3:2|0:0,0:0:0:0:
18,299,76629,1,8,0:0:0:0:
2,251,76738,1,8,0:0:0:0:
9,202,76847,1,8,0:0:0:0:
38,161,76956,1,8,0:0:0:0:
82,138,77065,1,8,0:0:0:0:
132,137,77174,6,0,P|247:164|351:151,2,188.999994232178,4|4|4,3:2|3:2|3:2,0:0:0:0:
387,199,78055,6,0,P|395:168|395:137,1,62.9999980773926,4|0,3:2|0:0,0:0:0:0:
474,212,78271,2,0,P|474:180|482:150,1,62.9999980773926,8|0,0:0|0:0,0:0:0:0:
500,39,78487,5,0,3:0:0:0:
467,13,78596,1,0,3:0:0:0:
425,9,78704,1,8,3:2:0:0:
388,28,78812,2,0,L|241:56,1,125.999996154785,0|0,3:0|3:0,0:0:0:0:
207,117,79137,6,0,L|135:104,1,62.9999980773926,8|0,0:0|0:0,0:0:0:0:
103,41,79353,1,0,3:0:0:0:
111,31,79461,1,0,3:0:0:0:
123,33,79570,1,8,0:0:0:0:
0,135,79786,6,0,P|69:149|122:227,1,125.999996154785,4|8,3:2|0:0,0:0:0:0:
80,272,80089,1,8,0:0:0:0:
110,232,80192,1,8,0:0:0:0:
150,201,80296,1,8,0:0:0:0:
197,183,80399,1,8,0:0:0:0:
247,178,80503,1,8,0:0:0:0:
296,186,80606,6,0,L|433:152,1,125.999996154785,4|0,3:2|0:0,0:0:0:0:
501,116,80928,2,0,P|455:61|386:72,1,125.999996154785,4|0,3:2|0:0,0:0:0:0:
316,110,81292,2,0,L|306:195,1,62.9999980773926,4|0,3:2|0:0,0:0:0:0:
477,319,81510,6,0,L|460:231,1,62.9999980773926,4|0,3:2|0:0,0:0:0:0:
396,334,81727,2,0,L|379:246,1,62.9999980773926,8|0,0:0|0:0,0:0:0:0:
312,222,81944,5,0,3:0:0:0:
278,245,82053,1,0,3:0:0:0:
236,246,82162,1,8,3:2:0:0:
202,222,82270,2,0,P|196:154|282:127,1,125.999996154785,0|0,3:0|3:0,0:0:0:0:
305,73,82596,6,0,L|377:89,1,62.9999980773926,8|0,0:0|0:0,0:0:0:0:
197,28,82814,1,0,3:0:0:0:
205,37,82923,1,0,3:0:0:0:
205,49,83031,1,8,0:0:0:0:
19,7,83249,6,0,P|50:42|139:64,1,125.999996154785,4|8,3:2|0:0,0:0:0:0:
205,49,83561,1,8,0:0:0:0:
247,75,83667,1,8,0:0:0:0:
269,119,83774,1,8,0:0:0:0:
264,169,83880,1,8,0:0:0:0:
235,209,83986,1,8,0:0:0:0:
189,228,84093,6,0,L|41:197,1,125.999996154785,4|0,3:2|0:0,0:0:0:0:
35,128,84423,2,0,P|-10:168|-2:242,1,125.999996154785,4|0,3:2|0:0,0:0:0:0:
200,315,84754,2,0,L|221:225,1,62.9999980773926,4|0,3:2|0:0,0:0:0:0:
122,308,84975,6,0,L|38:328,1,62.9999980773926,4|0,3:2|0:0,0:0:0:0:
271,201,85190,2,0,L|355:221,1,62.9999980773926,8|0,0:0|0:0,0:0:0:0:
157,11,85405,5,0,3:0:0:0:
168,66,85513,1,0,3:0:0:0:
179,122,85621,1,8,3:2:0:0:
190,178,85729,2,0,L|167:268,1,62.9999980773926,0|0,3:0|0:0,0:0:0:0:
82,237,85944,5,10,0:0:0:0:
66,170,86052,1,10,0:0:0:0:
81,103,86156,1,10,0:0:0:0:
124,49,86261,1,8,0:0:0:0:
186,19,86366,1,8,0:0:0:0:
255,20,86471,1,8,0:0:0:0:
317,50,86576,1,8,0:0:0:0:
359,104,86705,6,0,P|360:140|372:174,1,70,4|0,3:2|0:0,0:0:0:0:
259,117,86921,2,0,P|270:150|270:184,1,70,8|0,0:0|0:0,0:0:0:0:
449,187,87137,5,0,3:0:0:0:
477,255,87246,1,0,3:0:0:0:
437,317,87354,1,8,3:2:0:0:
363,318,87462,2,0,P|271:340|216:383,1,140,0|0,3:0|3:0,0:0:0:0:
153,384,87787,6,0,P|141:341|180:285,1,70,8|0,0:0|0:0,0:0:0:0:
266,170,88003,1,0,3:0:0:0:
277,178,88111,1,0,3:0:0:0:
275,191,88219,1,12,0:0:0:0:
76,274,88436,6,0,L|6:281,1,70,4|0,3:2|0:0,0:0:0:0:
201,213,88651,2,0,L|132:206,1,70,8|0,0:0|0:0,0:0:0:0:
0,142,88867,5,0,3:0:0:0:
11,68,88975,1,0,3:0:0:0:
73,26,89083,1,8,3:2:0:0:
145,45,89191,2,0,L|176:203,1,140,0|0,3:0|3:0,0:0:0:0:
242,130,89539,6,0,L|250:41,1,70,12|0,0:0|0:0,0:0:0:0:
348,31,89755,1,0,3:0:0:0:
338,20,89863,1,0,3:0:0:0:
325,25,89972,2,0,L|345:112,1,70,12|0,0:0|0:0,0:0:0:0:
388,232,90159,6,0,P|329:230|305:190,1,70,4|0,3:2|0:0,0:0:0:0:
338,101,90372,2,0,P|397:103|421:143,1,70,8|0,0:0|0:0,0:0:0:0:
292,299,90585,5,0,3:0:0:0:
216,286,90691,1,0,3:0:0:0:
140,273,90798,1,8,3:2:0:0:
64,261,90905,2,0,P|48:168|93:119,1,140,0|0,3:0|3:0,0:0:0:0:
124,78,91257,6,0,P|103:64|30:66,1,70,8|0,0:0|0:0,0:0:0:0:
197,210,91470,1,0,3:0:0:0:
204,198,91577,1,0,3:0:0:0:
218,198,91684,1,12,0:0:0:0:
328,118,91888,6,0,L|225:129,1,70,4|0,3:2|0:0,0:0:0:0:
164,288,92100,2,0,L|267:299,1,70,8|0,0:0|0:0,0:0:0:0:
446,383,92312,5,0,3:0:0:0:
497,328,92418,1,0,3:0:0:0:
497,253,92524,1,8,3:2:0:0:
445,198,92630,2,0,P|369:196|318:290,1,140,0|0,3:0|3:0,0:0:0:0:
354,371,92960,6,0,L|377:280,1,70,12|0,0:0|0:0,0:0:0:0:
241,238,93173,1,0,3:0:0:0:
236,251,93280,1,0,3:0:0:0:
247,259,93387,2,0,L|349:242,1,70,12|0,0:0|0:0,0:0:0:0:
335,41,93600,6,0,P|335:86|303:131,1,70,4|0,3:2|0:0,0:0:0:0:
106,177,93816,2,0,P|106:132|138:87,1,70,8|0,0:0|0:0,0:0:0:0:
189,8,94033,5,0,3:0:0:0:
207,82,94141,1,0,3:0:0:0:
226,157,94250,1,8,3:2:0:0:
245,231,94358,2,0,L|408:262,1,140,0|0,3:0|3:0,0:0:0:0:
447,308,94683,6,0,P|499:275|512:231,1,70,8|0,0:0|0:0,0:0:0:0:
368,86,94900,1,0,3:0:0:0:
377,96,95008,1,0,3:0:0:0:
374,109,95117,1,12,0:0:0:0:
160,207,95334,6,0,L|52:217,1,70,4|0,3:2|0:0,0:0:0:0:
293,52,95550,2,0,L|190:37,1,70,8|0,0:0|0:0,0:0:0:0:
16,29,95766,5,0,3:0:0:0:
0,99,95874,1,0,3:0:0:0:
55,147,95982,1,8,3:2:0:0:
123,120,96090,2,0,P|219:133|245:203,1,140,0|0,3:0|3:0,0:0:0:0:
319,172,96415,6,0,L|309:254,1,70,12|0,0:0|0:0,0:0:0:0:
169,361,96631,1,0,3:0:0:0:
155,363,96739,1,0,3:0:0:0:
146,351,96847,2,0,L|128:248,1,70,12|0,0:0|0:0,0:0:0:0:
356,307,97063,6,0,P|390:260|383:224,1,70,4|0,3:2|0:0,0:0:0:0:
239,163,97278,2,0,P|205:210|212:246,1,70,8|0,0:0|0:0,0:0:0:0:
505,117,97493,5,0,3:0:0:0:
429,104,97601,1,0,3:0:0:0:
353,91,97708,1,8,3:2:0:0:
277,78,97816,2,0,P|196:53|171:-6,1,140,0|0,3:0|3:0,0:0:0:0:
107,57,98139,6,0,P|54:70|49:130,1,70,8|0,0:0|0:0,0:0:0:0:
176,256,98354,1,0,3:0:0:0:
186,246,98462,1,0,3:0:0:0:
182,232,98569,1,12,0:0:0:0:
86,157,98794,6,0,L|112:259,1,70,4|0,3:2|0:0,0:0:0:0:
329,355,99009,2,0,L|346:287,1,70,8|0,0:0|0:0,0:0:0:0:
394,78,99224,5,0,3:0:0:0:
323,50,99332,1,0,3:0:0:0:
252,75,99440,1,8,3:2:0:0:
214,141,99548,2,0,P|250:231|260:305,1,140,0|0,3:0|3:0,0:0:0:0:
201,337,99871,6,0,P|178:308|187:249,1,70,12|0,0:0|0:0,0:0:0:0:
415,187,100086,1,0,3:0:0:0:
426,194,100194,1,0,3:0:0:0:
436,185,100302,2,0,P|459:214|450:273,1,70,12|0,0:0|0:0,0:0:0:0:
282,378,100517,6,4,P|304:263|354:185,2,168,4|4|4,3:2|3:2|3:2,3:2:0:0:
82,224,101427,2,0,L|97:152,1,56,4|0,3:2|0:0,0:0:0:0:
112,89,101608,1,8,0:0:0:0:
130,84,101710,1,8,0:0:0:0:
148,79,101813,1,0,3:0:0:0:
166,74,101921,1,0,3:0:0:0:
184,70,102030,1,0,3:0:0:0:
202,65,102139,1,0,3:0:0:0:
220,60,102247,6,4,B|282:69|282:69|301:87|301:87|383:97,2,168,4|4|4,3:2|3:2|3:2,3:2:0:0:
439,18,103141,2,0,L|454:81,1,56,4|0,3:2|0:0,0:0:0:0:
479,150,103334,1,8,0:0:0:0:
462,158,103439,1,8,0:0:0:0:
447,169,103544,1,0,3:0:0:0:
433,181,103649,1,0,3:0:0:0:
420,194,103754,1,0,3:0:0:0:
409,209,103859,1,0,3:0:0:0:
399,224,103965,6,4,B|307:227|354:177|241:187,2,168,4|4|4,3:2|3:2|3:2,3:2:0:0:
183,364,104867,2,0,L|198:285,1,56,4|0,3:2|0:0,0:0:0:0:
210,222,105068,1,8,0:0:0:0:
203,204,105172,1,8,0:0:0:0:
197,187,105277,1,0,3:0:0:0:
191,169,105382,1,0,3:0:0:0:
184,152,105487,1,0,3:0:0:0:
178,135,105592,1,0,3:0:0:0:
172,117,105697,6,4,P|87:121|57:197,2,168,4|4|4,3:2|3:2|3:2,3:2:0:0:
465,196,106585,2,0,L|477:128,1,56,4|0,3:2|0:0,0:0:0:0:
454,62,106783,1,8,0:0:0:0:
437,53,106887,1,8,0:0:0:0:
420,47,106991,1,0,3:0:0:0:
401,45,107095,1,0,3:0:0:0:
383,47,107199,1,8,3:2:0:0:
365,53,107303,1,8,3:2:0:0:
349,61,107408,6,4,L|375:242,2,168,4|4|4,3:2|3:2|3:2,3:2:0:0:
311,319,108284,2,0,L|230:297,1,56,4|0,3:2|0:0,0:0:0:0:
185,354,108500,1,8,0:0:0:0:
170,365,108608,1,8,0:0:0:0:
153,372,108715,1,0,3:0:0:0:
135,374,108824,1,0,3:0:0:0:
117,369,108932,1,0,3:0:0:0:
102,360,109040,1,0,3:0:0:0:
90,345,109148,6,4,B|69:216|69:216|30:195,2,168,4|4|4,3:2|3:2|3:2,3:2:0:0:
256,43,110051,2,0,L|244:106,1,56,4|0,3:2|0:0,0:0:0:0:
225,176,110251,1,8,0:0:0:0:
230,193,110357,1,8,0:0:0:0:
236,211,110463,1,0,3:0:0:0:
242,228,110570,1,0,3:0:0:0:
247,246,110676,1,0,3:0:0:0:
253,263,110785,1,0,3:0:0:0:
259,281,110895,6,0,P|327:288|366:381,2,168,4|4|4,3:2|3:2|3:2,0:0:0:0:
173,136,111837,2,4,P|105:143|69:229,2,168,4|4|4,3:2|3:2|3:2,3:2:0:0:
288,228,112697,6,4,P|304:147|359:68,2,168,4|4|4,3:2|3:2|3:2,3:2:0:0:
154,10,113554,2,0,P|187:60|213:166,2,168,4|4|4,3:2|3:2|3:2,0:0:0:0:
137,166,114380,6,0,P|149:212|189:230,1,48.9999985046387,4|0,3:2|0:0,0:0:0:0:
256,192,114595,12,8,117386,0:0:0:0:
311,89,117822,6,0,P|406:80|449:176,2,195.999994018555,0|0|0,1:0|1:0|1:0,0:0:0:0:
255,251,118917,1,0,3:0:0:0:
66,152,119134,1,0,1:0:0:0:
234,48,119352,1,0,3:0:0:0:
161,228,119569,6,0,P|151:153|140:113,1,97.9999970092774,0|0,1:0|0:0,0:0:0:0:
376,103,119999,2,0,P|386:178|397:218,1,97.9999970092774,0|0,1:0|0:0,0:0:0:0:
217,360,120429,5,0,1:0:0:0:
66,207,120644,1,0,3:0:0:0:
294,100,120859,1,0,1:0:0:0:
220,266,121082,1,0,3:0:0:0:
24,123,121306,6,0,P|42:64|156:63,1,146.999995513916,4|0,1:2|0:0,0:0:0:0:
194,6,121736,2,0,P|227:54|208:120,1,97.9999970092774,0|0,1:0|3:0,0:0:0:0:
507,191,122167,6,0,P|489:132|375:131,1,146.999995513916,4|0,1:2|0:0,0:0:0:0:
337,74,122598,2,0,P|304:122|323:188,1,97.9999970092774,0|0,1:0|3:0,0:0:0:0:
260,361,123029,6,0,P|250:265|219:148,2,195.999994018555,4|4|4,1:2|1:2|1:2,0:0:0:0:
97,223,124084,2,0,L|44:234,3,32.6666656697591,0|0|0|8,3:0|3:0|3:0|0:0,0:0:0:0:
329,288,124525,1,0,3:0:0:0:
268,23,124745,6,0,P|237:62|228:109,1,97.9999970092774,0|0,1:0|3:0,0:0:0:0:
464,227,125179,2,0,P|494:188|503:141,1,97.9999970092774,0|0,1:0|3:0,0:0:0:0:
357,28,125613,1,0,1:0:0:0:
386,224,125830,1,0,3:0:0:0:
157,179,126047,1,0,1:0:0:0:
299,99,126264,1,0,3:0:0:0:
227,329,126481,6,0,L|243:212,1,97.9999970092774,6|2,1:2|3:2,0:0:0:0:
30,205,126916,2,0,L|14:322,1,97.9999970092774,2|2,1:2|3:2,0:0:0:0:
315,188,127352,1,0,1:0:0:0:
315,188,127570,1,0,3:0:0:0:
113,61,127788,1,0,1:0:0:0:
113,61,128006,1,0,3:0:0:0:
340,17,128223,6,0,P|420:26|439:153,1,195.999994018555,4|0,1:2|1:0,0:0:0:0:
317,238,128877,1,0,3:0:0:0:
202,79,129095,6,0,P|122:88|103:215,1,195.999994018555,4|0,1:2|1:0,0:0:0:0:
241,288,129748,1,0,3:0:0:0:
285,166,129966,6,0,P|275:247|269:394,2,195.999994018555,4|2|2,1:2|1:2|1:2,0:0:0:0:
373,12,131028,1,2,3:2:0:0:
354,149,131245,1,0,1:0:0:0:
235,81,131472,1,0,3:0:0:0:
70,198,131699,6,0,P|118:193|159:167,1,97.9999970092774,4|0,1:2|0:0,0:0:0:0:
118,381,132118,2,0,P|159:355|207:350,1,97.9999970092774,0|0,1:0|3:0,0:0:0:0:
441,248,132538,1,0,1:0:0:0:
249,145,132755,1,0,3:0:0:0:
278,375,132972,1,0,1:0:0:0:
399,176,133190,1,0,3:0:0:0:
176,73,133407,6,0,L|164:187,1,97.9999970092774,6|2,1:2|3:2,0:0:0:0:
480,220,133838,2,0,L|492:106,1,97.9999970092774,2|2,1:2|3:2,0:0:0:0:
417,20,134269,1,0,1:0:0:0:
417,20,134485,1,0,3:0:0:0:
267,116,134701,1,0,1:0:0:0:
267,116,134916,1,0,3:0:0:0:
405,260,135132,6,0,P|321:280|260:386,1,195.999994018555,4|0,1:2|1:0,0:0:0:0:
154,295,135793,1,0,3:0:0:0:
268,156,136014,6,0,P|166:116|154:5,1,195.999994018555,4|0,1:2|1:0,0:0:0:0:
25,51,136652,1,0,3:0:0:0:
0,244,136865,6,0,P|81:198|196:170,2,195.999994018555,4|2|2,1:2|1:2|1:2,0:0:0:0:
243,99,137928,1,2,3:2:0:0:
266,266,138141,1,0,1:0:0:0:
363,127,138354,1,0,3:0:0:0:
450,352,138584,5,4,1:2:0:0:
450,352,138800,1,0,3:0:0:0:
204,196,139016,1,0,1:0:0:0:
204,196,139232,1,0,3:0:0:0:
462,75,139448,2,0,P|475:153|457:192,1,97.9999970092774,0|0,1:0|3:0,0:0:0:0:
204,196,139880,2,0,P|190:117|208:78,1,97.9999970092774,0|0,1:0|3:0,0:0:0:0:
385,10,140313,5,6,1:2:0:0:
385,10,140529,2,0,L|372:127,1,97.9999970092774,2|0,3:2|1:0,0:0:0:0:
406,246,140961,1,2,3:2:0:0:
149,316,141177,2,0,L|137:202,1,97.9999970092774,0|0,1:0|3:0,0:0:0:0:
298,58,141616,1,0,1:0:0:0:
236,237,141836,1,0,3:0:0:0:
57,182,142056,6,0,P|54:107|175:68,1,195.999994018555,4|0,1:2|1:0,0:0:0:0:
137,141,142704,1,0,3:0:0:0:
458,218,142920,6,0,P|461:143|340:104,1,195.999994018555,4|0,1:2|1:0,0:0:0:0:
378,177,143568,1,0,3:0:0:0:
246,11,143785,6,0,P|264:91|274:222,2,195.999994018555,4|2|2,1:2|1:2|1:2,0:0:0:0:
118,252,144862,1,2,3:2:0:0:
274,348,145077,1,0,1:0:0:0:
350,181,145293,1,0,3:0:0:0:
93,118,145508,5,4,1:2:0:0:
93,118,145726,1,0,3:0:0:0:
12,345,145944,1,0,1:0:0:0:
12,345,146162,1,0,3:0:0:0:
236,277,146380,2,0,P|231:229|219:181,1,97.9999970092774,0|0,1:0|3:0,0:0:0:0:
470,130,146817,2,0,P|475:178|487:226,1,97.9999970092774,0|0,1:0|3:0,0:0:0:0:
326,321,147253,5,6,1:2:0:0:
151,103,147468,1,2,3:2:0:0:
423,32,147683,1,2,1:2:0:0:
376,195,147898,1,2,3:2:0:0:
283,53,148113,2,0,L|177:29,1,97.9999970092774,0|0,1:0|3:0,0:0:0:0:
129,289,148544,2,0,L|235:313,1,97.9999970092774,0|0,1:0|3:0,0:0:0:0:
147,113,148974,6,0,P|78:146|10:49,1,195.999994018555,4|0,1:2|1:0,0:0:0:0:
171,28,149612,1,0,3:0:0:0:
266,279,149825,6,0,P|197:246|129:343,1,195.999994018555,4|0,1:2|1:0,0:0:0:0:
290,364,150463,1,0,3:0:0:0:
468,147,150676,6,0,P|411:170|254:176,2,195.999994018555,4|2|2,1:2|1:2|1:2,0:0:0:0:
256,86,151777,1,2,3:2:0:0:
202,276,151997,2,0,P|166:219|217:146,1,146.999995513916,0|0,1:0|0:0,0:0:0:0:
277,180,152421,6,0,L|389:195,1,97.9999970092774,4|0,3:2|0:0,0:0:0:0:
456,203,152733,1,0,3:0:0:0:
456,203,152837,2,0,P|477:150|461:99,1,97.9999970092774,0|0,3:0|0:0,0:0:0:0:
413,58,153150,1,0,3:0:0:0:
346,17,153254,2,0,P|333:69|361:117,1,97.9999970092774,4|0,3:2|0:0,0:0:0:0:
369,189,153573,1,0,3:0:0:0:
369,189,153680,1,0,3:0:0:0:
166,290,153893,5,0,0:0:0:0:
166,290,153999,1,0,3:0:0:0:
166,290,154106,2,0,L|179:180,1,97.9999970092774,4|0,3:2|0:0,0:0:0:0:
133,126,154430,1,0,3:0:0:0:
133,126,154539,2,0,P|157:65|218:60,1,97.9999970092774,0|0,3:3|0:3,0:3:0:0:
257,8,154864,1,0,3:0:0:0:
257,8,154972,2,0,L|268:135,1,97.9999970092774,0|0,3:0|0:0,0:0:0:0:
343,136,155297,1,0,3:0:0:0:
343,136,155405,1,2,3:2:0:0:
119,57,155622,5,0,0:0:0:0:
119,57,155730,1,0,3:0:0:0:
119,57,155838,2,0,L|104:172,1,97.9999970092774,4|0,3:2|0:0,0:0:0:0:
32,183,156171,1,0,3:0:0:0:
32,183,156282,2,0,L|61:286,1,97.9999970092774,0|0,3:0|0:0,0:0:0:0:
84,351,156615,1,0,3:0:0:0:
162,359,156726,2,0,P|187:289|164:245,1,97.9999970092774,4|0,3:2|0:0,0:0:0:0:
142,204,157060,1,0,3:0:0:0:
142,204,157171,1,0,3:0:0:0:
434,59,157381,5,0,0:0:0:0:
434,59,157486,1,0,3:0:0:0:
434,59,157592,2,0,L|324:31,1,97.9999970092774,4|0,3:2|0:0,0:0:0:0:
267,66,157914,1,0,3:0:0:0:
267,66,158022,2,0,P|307:131|364:141,1,97.9999970092774,0|0,3:0|0:0,0:0:0:0:
400,132,158344,1,0,3:0:0:0:
400,132,158452,2,0,P|431:192|412:236,1,97.9999970092774,0|0,3:0|0:0,0:0:0:0:
357,252,158774,1,0,3:0:0:0:
357,252,158882,1,2,3:2:0:0:
288,36,159097,5,0,0:0:0:0:
288,36,159204,1,0,3:0:0:0:
288,36,159312,2,0,L|166:60,1,97.9999970092774,4|0,3:2|0:0,0:0:0:0:
168,173,159635,1,0,3:0:0:0:
168,173,159742,2,0,P|124:120|138:62,1,97.9999970092774,0|0,3:0|3:0,0:0:0:0:
55,7,160065,1,0,3:0:0:0:
45,84,160172,2,0,L|32:194,1,97.9999970092774,4|0,3:2|0:0,0:0:0:0:
90,243,160504,1,0,3:0:0:0:
90,243,160614,1,0,3:0:0:0:
327,247,160836,5,0,0:0:0:0:
327,247,160946,1,0,3:0:0:0:
327,247,161057,2,0,P|332:316|304:346,1,97.9999970092774,4|0,3:2|0:0,0:0:0:0:
244,366,161384,1,0,3:0:0:0:
244,366,161494,2,0,L|236:264,1,97.9999970092774,0|0,3:0|0:0,0:0:0:0:
171,220,161822,1,0,3:0:0:0:
171,220,161931,2,0,L|187:95,1,97.9999970092774,0|0,3:0|0:0,0:0:0:0:
197,42,162245,1,0,3:0:0:0:
197,42,162350,1,2,3:2:0:0:
319,224,162571,5,0,0:0:0:0:
319,224,162681,1,0,3:0:0:0:
319,224,162792,2,0,P|387:194|381:110,2,146.999995513916,4|4|4,3:2|3:2|3:2,0:0:0:0:
168,126,163813,2,0,P|99:128|73:61,2,146.999995513916,4|4|4,3:2|3:2|3:2,0:0:0:0:
263,26,164913,5,4,3:2:0:0:
256,192,165021,12,0,169608,0:0:0:0:
205,65,170927,6,0,L|220:187,1,70,4|0,3:2|0:0,0:0:0:0:
283,56,171224,2,0,L|298:178,1,70,4|0,3:2|0:0,0:0:0:0:
369,241,171521,6,0,L|350:361,1,105.000004005432,4|0,3:2|0:0,0:0:0:0:
292,227,171818,2,0,L|273:347,1,105.000004005432,4|0,3:2|0:0,0:0:0:0:
