osu file format v14

[General]
AudioFilename: audio.mp3
AudioLeadIn: 0
PreviewTime: 65397
Countdown: 0
SampleSet: Soft
StackLeniency: 0.5
Mode: 0
LetterboxInBreaks: 0
WidescreenStoryboard: 1

[Editor]
Bookmarks: 59,3549,17507,38265,45181,52102,65950,72852,86705,100517,117822,124745,152421,164913,169612,169835,170059,170283,170395
DistanceSpacing: 1
BeatDivisor: 4
GridSize: 8
TimelineZoom: 3.599999

[Metadata]
Title:St. Jimmy
TitleUnicode:St. Jimmy
Artist:Green Day
ArtistUnicode:Green Day
Creator:hehe
Version:Hard
Source:
Tags:hectic h4d0uk3n1 handsome american idiot billie joe armstrong mike dirnt tré tre cool pop punk rock coverups longshot the network foxboro hot tubs english bullet in a bible saint
BeatmapID:3568782
BeatmapSetID:1735953

[Difficulty]
HPDrainRate:3
CircleSize:3.6
OverallDifficulty:6
ApproachRate:8
SliderMultiplier:0.7
SliderTickRate:0.5

[Events]
//Background and Video events
0,0,"kael-ngu-homefront03.jpg",0,0
//Break Periods
//Storyboard Layer 0 (Background)
//Storyboard Layer 1 (Fail)
//Storyboard Layer 2 (Pass)
//Storyboard Layer 3 (Foreground)
//Storyboard Layer 4 (Overlay)
//Storyboard Sound Samples

[TimingPoints]
59,214.285714285714,4,2,1,50,1,0
59,-66.6666666666667,4,2,1,50,0,0
273,217.391304347826,4,2,1,50,1,0
925,217.391304347826,4,2,1,50,1,0
3207,238.095238095238,4,2,1,50,1,0
3326,222.222222222222,4,2,1,50,1,0
3548,222.222222222222,4,2,1,50,1,0
3549,-66.6666666666667,4,2,1,50,0,0
3992,215.827338129496,4,2,1,50,1,0
4855,218.978102189781,4,2,1,50,1,0
5730,217.864923747277,4,2,1,50,1,0
6165,217.864923747277,4,2,1,50,1,0
7036,217.706821480406,4,2,1,50,1,0
7906,217.391304347826,4,2,1,50,1,0
8775,218.978102189781,4,2,1,50,1,0
10526,215.827338129496,4,2,1,50,1,0
11389,222.222222222222,4,2,1,50,1,0
12277,215.05376344086,4,2,1,50,1,0
13567,234.375,4,2,1,50,1,0
13801,217.391304347826,4,2,1,50,1,0
14018,217.391304347826,4,2,1,50,1,0
14670,229.007633587786,4,2,1,50,1,0
14899,218.978102189781,4,2,1,50,1,0
14899,-66.6666666666667,4,2,1,50,0,0
15774,214.285714285714,4,2,1,50,1,0
15774,-66.6666666666667,4,2,1,50,0,0
16202,225.563909774436,4,2,1,50,1,0
16202,-66.6666666666667,4,2,1,50,0,0
16653,205.479452054795,4,2,1,50,1,0
17063,222.222222222222,4,2,1,50,1,0
17507,217.076700434153,4,2,1,70,1,0
17507,-66.6666666666667,4,2,1,70,0,0
19243,216.138328530259,4,2,1,70,1,0
19243,-66.6666666666667,4,2,1,70,0,0
20972,215.362526920316,4,2,1,70,1,0
20972,-66.6666666666667,4,2,1,70,0,0
22694,216.606498194946,4,2,1,70,1,0
22694,-66.6666666666667,4,2,1,70,0,0
24426,216.998191681736,4,2,1,70,1,0
24426,-66.6666666666667,4,2,1,70,0,0
26161,216.138328530259,4,2,1,70,1,0
26161,-66.6666666666667,4,2,1,70,0,0
31348,215.827338129496,4,2,1,70,1,0
31348,-66.6666666666667,4,2,1,70,0,0
33074,216.450216450216,4,2,1,70,1,0
33074,-66.6666666666667,4,2,1,70,0,0
34805,216.606498194946,4,2,1,70,1,0
34805,-66.6666666666667,4,2,1,70,0,0
36537,215.827338129496,4,2,1,70,1,0
36537,-66.6666666666667,4,2,1,70,0,0
38155,230.769230769231,4,2,1,70,1,0
38270,217.983651226158,4,2,1,90,1,1
39141,215.827338129496,4,2,1,90,1,1
39141,-66.6666666666667,4,2,1,90,0,1
40004,209.79020979021,4,2,1,90,1,1
40004,-66.6666666666667,4,2,1,90,0,1
40633,223.880597014925,4,2,1,90,1,1
40633,-66.6666666666667,4,2,1,90,0,1
41080,216.606498194946,4,2,1,90,1,1
41296,200,4,2,1,90,1,1
41496,227.272727272727,4,2,1,90,1,1
41723,215.827338129496,4,2,1,90,1,1
41730,-66.6666666666667,4,2,1,90,0,1
43017,-66.6666666666667,4,2,1,90,0,1
43233,235.294117647059,4,2,1,90,1,1
43468,217.391304347826,4,2,1,90,1,1
43468,-66.6666666666667,4,2,1,90,0,1
44120,203.389830508475,4,2,1,90,1,1
44120,-66.6666666666667,4,2,1,90,0,1
44323,214.438884917798,4,2,1,90,1,1
44751,-66.6666666666667,4,2,1,90,0,1
45180,216.841344416335,4,2,1,70,1,0
45180,-66.6666666666667,4,2,1,70,0,0
45181,-66.6666666666667,4,2,1,70,0,0
46914,216.52832912306,4,2,1,70,1,0
46914,-66.6666666666667,4,2,1,70,0,0
48646,216.021602160216,4,2,1,70,1,0
48646,-66.6666666666667,4,2,1,70,0,0
52102,216.294160057678,4,2,1,70,1,0
52102,-66.6666666666667,4,2,1,70,0,0
55562,215.982721382289,4,2,1,70,1,0
55562,-66.6666666666667,4,2,1,70,0,0
59017,214.285714285714,4,2,1,70,1,0
59017,-66.6666666666667,4,2,1,70,0,0
59874,216.138328530259,4,2,1,70,1,0
59874,-66.6666666666667,4,2,1,70,0,0
60738,215.982721382289,4,2,1,70,1,0
60738,-66.6666666666667,4,2,1,70,0,0
62465,216.606498194946,4,2,1,70,1,0
62681,-66.6666666666667,4,2,1,70,0,0
64631,206.896551724138,4,2,1,70,1,0
64631,-66.6666666666667,4,2,1,70,0,0
64941,235.294117647059,4,2,1,70,1,0
64941,-66.6666666666667,4,2,1,70,0,0
65058,235.294117647059,4,2,1,70,1,0
65058,-66.6666666666667,4,2,1,70,0,0
65293,214.285714285714,4,2,1,70,1,0
65293,-66.6666666666667,4,2,1,70,0,0
65506,-66.6666666666667,4,2,1,70,0,0
65721,229.885057471264,4,2,1,70,1,0
65721,-66.6666666666667,4,2,1,70,0,0
65950,215.362526920316,4,2,1,90,1,1
65950,-66.6666666666667,4,2,1,90,0,1
67672,216.450216450216,4,2,1,90,1,1
67672,-66.6666666666667,4,2,1,90,0,1
68754,212.765957446809,4,2,1,90,1,1
68754,-66.6666666666667,4,2,1,90,0,1
69392,218.023255813954,4,2,1,90,1,1
70700,-66.6666666666667,4,2,1,90,0,1
70918,229.007633587786,4,2,1,90,1,1
71147,211.267605633803,4,2,1,90,1,1
71358,-66.6666666666667,4,2,1,90,0,1
71992,218.978102189781,4,2,1,90,1,1
72429,211.640211640212,4,2,1,90,1,1
72429,-66.6666666666667,4,2,1,90,0,1
72852,214.285714285714,4,2,1,70,1,0
72852,-66.6666666666667,4,2,1,70,0,0
73602,250,4,2,1,70,1,0
73727,217.312567910177,4,2,1,70,1,0
73727,-66.6666666666667,4,2,1,70,0,0
74596,215.362526920316,4,2,1,70,1,0
74596,-66.6666666666667,4,2,1,70,0,0
76318,202.702702702703,4,2,1,70,1,0
76520,218.181818181818,4,2,1,70,1,0
76520,-66.6666666666667,4,2,1,70,0,0
77174,218.978102189781,4,2,1,70,1,0
77174,-66.6666666666667,4,2,1,70,0,0
77830,225.563909774436,4,2,1,70,1,0
78055,216.450216450216,4,2,1,70,1,0
78055,-66.6666666666667,4,2,1,70,0,0
79786,200,4,2,1,70,1,0
79986,206.896551724138,4,2,1,70,1,0
79986,-66.6666666666667,4,2,1,70,0,0
80606,215.05376344086,4,2,1,70,1,0
80606,-66.6666666666667,4,2,1,70,0,0
80928,243.90243902439,4,2,1,70,1,0
80928,-66.6666666666667,4,2,1,70,0,0
81049,243.90243902439,4,2,1,70,1,0
81292,218.181818181818,4,2,1,70,1,0
81510,217.391304347826,4,2,1,70,1,0
81510,-66.6666666666667,4,2,1,70,0,0
83249,206.896551724138,4,2,1,70,1,0
83455,212.765957446809,4,2,1,70,1,0
83455,-66.6666666666667,4,2,1,70,0,0
84093,220.588235294118,4,2,1,70,1,0
84093,-66.6666666666667,4,2,1,70,0,0
84975,215.439856373429,4,2,1,70,1,0
84975,-66.6666666666667,4,2,1,70,0,0
86052,209.79020979021,4,2,1,70,1,0
86052,-66.6666666666667,4,2,1,70,0,0
86576,259.74025974026,4,2,1,70,1,0
86705,216.411181244364,4,2,1,80,1,0
86705,-55.5555555555556,4,2,1,80,0,0
88436,215.827338129496,4,2,1,70,1,0
88436,-55.5555555555556,4,2,1,70,0,0
89191,222.222222222222,4,2,1,70,1,0
89191,-55.5555555555556,4,2,1,70,0,0
89413,252.100840336134,4,2,1,80,1,0
89539,216.606498194946,4,2,1,70,1,0
89539,-55.5555555555556,4,2,1,70,0,0
89972,187.5,4,2,1,70,1,0
90159,213.143872113677,4,2,1,80,1,0
90159,-55.5555555555556,4,2,1,80,0,0
90905,235.294117647059,4,2,1,70,1,0
90905,-55.5555555555556,4,2,1,70,0,0
91022,235.294117647059,4,2,1,80,1,0
91257,213.523131672598,4,2,1,70,1,0
91470,-55.5555555555556,4,2,1,70,0,0
91684,204.081632653061,4,2,1,70,1,0
91888,212.014134275618,4,2,1,70,1,0
91888,-55.5555555555556,4,2,1,70,0,0
92630,220.588235294118,4,2,1,70,1,0
92630,-55.5555555555556,4,2,1,70,0,0
92740,220.588235294118,4,2,1,80,1,0
92960,213.523131672598,4,2,1,70,1,0
92960,-55.5555555555556,4,2,1,70,0,0
93600,216.763005780347,4,2,1,80,1,0
93600,-55.5555555555556,4,2,1,80,0,0
95334,216.216216216216,4,2,1,70,1,0
95334,-55.5555555555556,4,2,1,70,0,0
97063,215.285252960172,4,2,1,80,1,0
97063,-55.5555555555556,4,2,1,80,0,0
98569,225.563909774436,4,2,1,70,1,0
98794,215.439856373429,4,2,1,70,1,0
98794,-55.5555555555556,4,2,1,70,0,0
100517,218.181818181818,4,2,1,70,1,0
100517,-55.5555555555556,4,2,1,70,0,0
101171,256.410256410256,4,2,1,70,1,0
101427,181.818181818182,4,2,1,70,1,0
101427,-66.6666666666667,4,2,1,70,0,0
101608,205.479452054795,4,2,1,70,1,0
101813,217.391304347826,4,2,1,70,1,0
101813,-66.6666666666667,4,2,1,70,0,0
102247,219.78021978022,4,2,1,70,1,0
102247,-66.6666666666667,4,2,1,70,0,0
102906,235.294117647059,4,2,1,70,1,0
103141,193.548387096774,4,2,1,70,1,0
103334,210.34180543383,4,2,1,70,1,0
103334,-66.6666666666667,4,2,1,70,0,0
103965,218.181818181818,4,2,1,70,1,0
103965,-66.6666666666667,4,2,1,70,0,0
104619,248.96265560166,4,2,1,70,1,0
104867,201.342281879195,4,2,1,70,1,0
105068,209.79020979021,4,2,1,70,1,0
105277,-66.6666666666667,4,2,1,70,0,0
105697,216.606498194946,4,2,1,70,1,0
105697,-66.6666666666667,4,2,1,70,0,0
106346,239.043824701195,4,2,1,70,1,0
106585,198.019801980198,4,2,1,70,1,0
106783,208.333333333333,4,2,1,70,1,0
106991,-66.6666666666667,4,2,1,70,0,0
107408,210.526315789474,4,2,1,70,1,0
107408,-66.6666666666667,4,2,1,70,0,0
108039,245.901639344262,4,2,1,70,1,0
108284,216.216216216216,4,2,1,70,1,0
108716,-66.6666666666667,4,2,1,70,0,0
109148,215.05376344086,4,2,1,70,1,0
109148,-66.6666666666667,4,2,1,70,0,0
109793,258.620689655172,4,2,1,70,1,0
110051,200,4,2,1,70,1,0
110251,212.765957446809,4,2,1,70,1,0
110463,-66.6666666666667,4,2,1,70,0,0
110676,219.78021978022,4,2,1,70,1,0
110895,219.78021978022,4,2,1,70,1,0
110895,-66.6666666666667,4,2,1,70,0,0
111554,283.018867924528,4,2,1,70,1,0
111837,193.548387096774,4,2,1,70,1,0
111837,-66.6666666666667,4,2,1,70,0,0
112417,280.373831775701,4,2,1,70,1,0
112697,194.805194805195,4,2,1,70,1,0
112697,-66.6666666666667,4,2,1,70,0,0
113281,273.972602739726,4,2,1,70,1,0
113554,196.078431372549,4,2,1,70,1,0
113554,-66.6666666666667,4,2,1,70,0,0
114142,238.095238095238,4,2,1,70,1,0
114380,430.10752688172,4,2,1,70,1,0
115240,424.028268551237,4,2,1,70,1,0
116088,437.956204379562,4,2,1,70,1,0
116963,422.535211267606,4,2,1,70,1,0
117385,437.956204379562,4,2,1,70,1,0
117822,439.238653001464,4,2,1,70,1,0
117822,-41.6666666666667,4,2,1,70,0,0
118700,434.782608695652,4,2,1,70,1,0
119569,430.10752688172,4,2,1,70,1,0
119569,-41.6666666666667,4,2,1,70,0,0
120859,447.761194029851,4,2,1,70,1,0
121306,430.879712746858,4,2,1,70,1,0
121306,-41.6666666666667,4,2,1,70,0,0
123891,387.096774193548,4,2,1,70,1,0
123891,-41.6666666666667,4,2,1,70,0,0
124084,441.176470588235,4,2,1,70,1,0
124745,434.153400868307,4,2,1,70,1,0
124745,-41.6666666666667,4,2,1,70,0,0
126481,435.729847494553,4,2,1,80,1,0
126481,-41.6666666666667,4,2,1,80,0,0
127352,-41.6666666666667,4,2,1,70,0,0
128223,-41.6666666666667,4,2,1,80,0,0
129966,422.535211267606,4,2,1,80,1,0
129966,-41.6666666666667,4,2,1,80,0,0
130811,434.782608695652,4,2,1,80,1,0
131245,454.545454545455,4,2,1,80,1,0
131699,419.58041958042,4,2,1,80,1,0
131699,-41.6666666666667,4,2,1,80,0,0
132538,434.782608695652,4,2,1,80,1,0
133407,431.344356578001,4,2,1,80,1,0
133407,-41.6666666666667,4,2,1,80,0,0
135132,441.176470588235,4,2,1,80,1,0
135132,-41.6666666666667,4,2,1,80,0,0
136014,425.531914893617,4,2,1,80,1,0
136014,-41.6666666666667,4,2,1,80,0,0
136865,425.531914893617,4,2,1,80,1,0
136865,-41.6666666666667,4,2,1,80,0,0
138354,461.538461538462,4,2,1,80,1,0
138354,-41.6666666666667,4,2,1,80,0,0
138584,432.276657060519,4,2,1,80,1,0
138584,-41.6666666666667,4,2,1,80,0,0
141177,439.56043956044,4,2,1,80,1,0
141177,-41.6666666666667,4,2,1,80,0,0
142056,432.276657060519,4,2,1,80,1,0
142056,-41.6666666666667,4,2,1,80,0,0
143785,430.879712746858,4,2,1,80,1,0
143785,-41.6666666666667,4,2,1,80,0,0
145508,436.363636363636,4,2,1,80,1,0
145508,-41.6666666666667,4,2,1,80,0,0
147253,430.416068866571,4,2,1,80,1,0
147253,-41.6666666666667,4,2,1,80,0,0
148974,425.531914893617,4,2,1,80,1,0
148974,-41.6666666666667,4,2,1,80,0,0
150676,440.528634361234,4,2,1,80,1,0
150676,-41.6666666666667,4,2,1,80,0,0
151997,424.028268551237,4,2,1,80,1,0
151997,-41.6666666666667,4,2,1,80,0,0
152421,416.666666666667,4,2,1,80,1,0
152421,-41.6666666666667,4,2,1,80,0,0
153254,426.136363636364,4,2,1,80,1,0
153254,-41.6666666666667,4,2,1,80,0,0
154106,433.212996389892,4,2,1,80,1,0
154106,-41.6666666666667,4,2,1,80,0,0
155838,444.444444444444,4,2,1,80,1,0
155838,-41.6666666666667,4,2,1,80,0,0
157171,421.052631578947,4,2,1,80,1,0
157171,-41.6666666666667,4,2,1,80,0,0
157592,430.10752688172,4,2,1,80,1,0
157592,-41.6666666666667,4,2,1,80,0,0
160172,442.80442804428,4,2,1,80,1,0
160172,-41.6666666666667,4,2,1,80,0,0
161057,437.31778425656,4,2,1,80,1,0
161057,-41.6666666666667,4,2,1,80,0,0
161931,419.58041958042,4,2,1,80,1,0
161931,-41.6666666666667,4,2,1,80,0,0
162350,442.477876106195,4,2,1,80,1,0
162792,451.127819548872,4,2,1,80,1,0
162792,-41.6666666666667,4,2,1,80,0,0
163468,691.244239631336,4,2,1,80,1,0
163813,466.926070038911,4,2,1,80,1,0
163813,-41.6666666666667,4,2,1,80,0,0
164513,800,4,2,1,80,1,0
164913,434.467776973208,4,2,1,80,1,0
167954,441.176470588235,4,2,1,80,1,0
169608,431.654676258993,4,2,1,80,1,0
169612,-41.6666666666667,4,2,1,80,0,0
169823,526.315789473684,4,2,1,80,1,0
170086,598.802395209581,4,2,1,80,1,0
170385,542.986425339367,4,2,1,80,1,0
170927,396.039603960396,4,2,1,80,1,0
170927,-41.6666666666667,4,2,1,80,0,0

[Colours]
Combo1 : 18,124,255
Combo2 : 255,55,55

[HitObjects]
133,166,59,6,0,L|265:139,1,105.000004005432,4|0,3:2|0:0,0:0:0:0:
388,89,3326,5,4,3:2:0:0:
388,89,3548,1,4,3:2:0:0:
139,307,6818,5,4,3:2:0:0:
139,307,7036,1,4,3:2:0:0:
83,64,10307,5,4,3:2:0:0:
83,64,10526,1,4,3:2:0:0:
406,243,12055,5,4,3:2:0:0:
406,243,12277,1,4,3:2:0:0:
292,32,13801,5,4,3:2:0:0:
292,32,14018,1,4,3:2:0:0:
201,311,14899,6,0,L|220:188,1,105.000004005432,6|0,3:2|0:0,0:0:0:0:
267,14,15774,6,0,L|295:181,1,157.500006008148,4|0,3:2|0:0,0:0:0:0:
216,203,16202,2,0,L|188:370,1,157.500006008148,4|0,3:2|0:0,0:0:0:0:
432,265,17507,6,0,L|311:244,1,105.000004005432,4|8,3:2|0:0,0:0:0:0:
249,314,17941,1,0,3:0:0:0:
249,314,18049,2,0,L|178:328,1,52.5000020027161,0|8,3:0|3:2,0:0:0:0:
148,341,18266,2,0,L|170:207,1,105.000004005432,0|0,3:0|3:0,0:0:0:0:
181,187,18592,1,8,0:0:0:0:
123,99,18809,2,0,L|40:113,2,52.5000020027161,0|0|8,3:0|3:0|0:0,0:0:0:0:
197,24,19243,6,0,L|324:43,1,105.000004005432,4|8,3:2|0:0,0:0:0:0:
400,6,19675,1,0,3:0:0:0:
400,6,19783,2,0,L|411:68,1,52.5000020027161,0|8,3:0|3:2,0:0:0:0:
460,67,19999,2,0,L|442:182,1,105.000004005432,0|0,3:0|3:0,0:0:0:0:
433,222,20323,1,8,0:0:0:0:
328,206,20539,2,0,L|315:141,2,52.5000020027161,0|0|8,3:0|3:0|0:0,0:0:0:0:
295,305,20972,6,0,P|238:303|184:232,1,105.000004005432,4|8,3:2|0:0,0:0:0:0:
110,327,21402,1,0,3:0:0:0:
110,327,21510,2,0,L|23:315,1,52.5000020027161,0|8,3:0|3:2,0:0:0:0:
5,313,21725,2,0,L|34:190,1,105.000004005432,0|0,3:0|3:0,0:0:0:0:
44,160,22048,1,8,0:0:0:0:
134,106,22264,2,0,L|121:42,2,52.5000020027161,0|0|8,3:0|3:0|0:0,0:0:0:0:
195,191,22694,6,0,L|329:204,1,105.000004005432,4|8,3:2|0:0,0:0:0:0:
366,282,23127,1,0,3:0:0:0:
366,282,23235,2,0,L|376:349,2,52.5000020027161,0|8|0,3:0|3:2|3:0,0:0:0:0:
451,219,23668,5,10,0:0:0:0:
451,219,23777,1,10,0:0:0:0:
451,219,23885,1,10,0:0:0:0:
451,219,23993,2,0,L|465:146,1,52.5000020027161,8|8,0:0|0:0,0:0:0:0:
421,132,24210,2,0,L|411:77,1,52.5000020027161,8|8,0:0|0:0,0:0:0:0:
362,61,24426,1,12,3:2:0:0:
278,124,24642,6,0,L|263:2,2,105.000004005432,8|0|8,0:0|3:0|0:0,0:0:0:0:
208,202,25293,1,0,3:0:0:0:
208,202,25402,2,0,L|79:179,1,105.000004005432,0|0,3:0|3:0,0:0:0:0:
52,174,25727,1,0,3:0:0:0:
16,75,25944,1,8,0:0:0:0:
125,55,26161,5,0,3:0:0:0:
125,55,26269,1,0,3:0:0:0:
125,55,26377,1,8,0:0:0:0:
203,122,26593,2,0,P|251:90|268:37,1,105.000004005432,0|8,3:0|3:2,0:0:0:0:
309,16,26917,2,0,P|364:31|391:97,1,105.000004005432,0|0,3:0|3:0,0:0:0:0:
390,122,27241,1,8,0:0:0:0:
459,201,27457,2,0,L|517:185,2,52.5000020027161,0|0|12,3:0|3:0|0:2,0:0:0:0:
410,294,27890,5,4,3:2:0:0:
335,220,28106,2,0,P|282:232|245:294,2,105.000004005432,8|0|8,0:0|3:0|0:0,0:0:0:0:
430,171,28754,1,0,3:0:0:0:
430,171,28862,2,0,L|440:57,1,105.000004005432,0|0,3:0|3:0,0:0:0:0:
446,14,29186,1,0,3:0:0:0:
349,53,29403,1,8,0:0:0:0:
252,10,29619,6,0,P|181:26|150:70,1,105.000004005432,0|8,3:0|0:0,0:0:0:0:
56,59,30051,2,0,L|75:169,1,105.000004005432,0|8,3:0|3:2,0:0:0:0:
34,198,30375,2,0,L|19:320,1,105.000004005432,0|0,3:0|3:0,0:0:0:0:
60,338,30699,1,8,0:0:0:0:
144,275,30916,2,0,L|129:210,2,52.5000020027161,0|0|12,3:0|3:0|0:2,0:0:0:0:
234,328,31348,5,4,3:2:0:0:
245,224,31563,2,0,P|254:155|297:117,2,105.000004005432,8|0|8,0:0|3:0|0:0,0:0:0:0:
339,281,32211,1,0,3:0:0:0:
339,281,32319,2,0,L|447:259,1,105.000004005432,0|0,3:0|3:0,0:0:0:0:
493,249,32642,1,0,3:0:0:0:
512,358,32858,1,8,0:0:0:0:
409,379,33074,6,0,L|273:358,1,105.000004005432,0|8,3:0|0:0,0:0:0:0:
200,348,33506,2,0,P|178:292|204:222,1,105.000004005432,0|8,3:0|3:2,0:0:0:0:
173,197,33831,2,0,P|235:168|297:189,1,105.000004005432,0|0,3:0|3:0,0:0:0:0:
315,148,34156,1,8,0:0:0:0:
407,198,34372,2,0,L|425:257,2,52.5000020027161,0|0|12,3:0|3:0|0:0,0:0:0:0:
471,114,34805,5,4,3:2:0:0:
393,42,35021,2,0,P|442:7|506:14,2,105.000004005432,8|0|8,0:0|3:0|0:0,0:0:0:0:
314,111,35671,1,0,3:0:0:0:
314,111,35779,2,0,L|195:93,1,105.000004005432,0|0,3:0|3:0,0:0:0:0:
158,85,36104,1,0,3:0:0:0:
82,11,36321,1,8,0:0:0:0:
29,101,36537,6,0,L|46:209,1,105.000004005432,4|8,3:2|0:0,0:0:0:0:
149,220,36968,2,0,L|131:350,1,105.000004005432,0|8,3:0|3:2,0:0:0:0:
123,375,37292,1,0,3:0:0:0:
224,349,37508,5,10,0:0:0:0:
224,349,37616,1,10,0:0:0:0:
224,349,37724,1,10,0:0:0:0:
224,349,37831,2,0,L|296:337,1,52.5000020027161,8|8,0:0|0:0,0:0:0:0:
310,299,38047,2,0,L|371:316,1,52.5000020027161,8|8,0:0|0:0,0:0:0:0:
411,328,38270,5,4,3:2:0:0:
502,276,38487,1,8,0:0:0:0:
363,233,38705,5,4,3:2:0:0:
464,150,38923,1,8,0:0:0:0:
264,182,39141,5,4,3:2:0:0:
343,34,39356,1,8,0:0:0:0:
198,70,39572,6,0,P|122:80|76:133,1,105.000004005432,0|8,3:0|3:2,0:0:0:0:
11,151,40004,2,0,P|34:217|44:271,1,105.000004005432,4|8,3:2|0:0,0:0:0:0:
142,280,40423,1,2,3:2:0:0:
142,280,40528,2,0,L|202:257,1,52.5000020027161,0|8,0:0|0:0,0:0:0:0:
242,270,40744,2,0,L|261:157,1,105.000004005432,2|0,3:2|3:0,0:0:0:0:
272,115,41080,1,10,0:0:0:0:
216,25,41296,1,0,3:0:0:0:
216,25,41396,1,0,3:0:0:0:
216,25,41496,1,8,0:0:0:0:
136,93,41723,5,4,3:2:0:0:
34,116,41938,1,8,0:0:0:0:
185,173,42154,5,4,3:2:0:0:
51,253,42370,1,8,0:0:0:0:
251,244,42586,5,4,3:2:0:0:
96,367,42802,1,8,0:0:0:0:
231,351,43017,6,0,P|296:353|352:370,1,105.000004005432,0|8,3:0|3:2,0:0:0:0:
377,331,43350,1,0,3:0:0:0:
377,331,43468,1,8,3:2:0:0:
332,236,43685,2,0,L|271:250,2,52.5000020027161,0|0|8,3:0|3:0|3:2,0:0:0:0:
394,151,44120,2,0,L|454:163,2,52.5000020027161,0|0|8,3:0|3:0|3:2,0:0:0:0:
289,139,44537,5,8,3:2:0:0:
230,54,44751,2,0,P|150:27|94:98,1,157.500006008148,8|8,0:0|0:0,0:0:0:0:
80,119,45180,6,0,L|201:140,1,105.000004005432,4|8,3:2|0:0,0:0:0:0:
263,70,45613,1,0,3:0:0:0:
263,70,45722,2,0,L|334:56,1,52.5000020027161,0|8,3:0|3:2,0:0:0:0:
364,43,45938,2,0,L|342:177,1,105.000004005432,0|0,3:0|3:0,0:0:0:0:
331,197,46264,1,8,0:0:0:0:
389,285,46481,2,0,L|472:271,2,52.5000020027161,0|0|8,3:0|3:0|0:0,0:0:0:0:
315,360,46914,6,0,L|188:341,1,105.000004005432,4|8,3:2|0:0,0:0:0:0:
112,378,47347,1,0,3:0:0:0:
112,378,47455,2,0,L|101:316,1,52.5000020027161,0|8,3:0|3:2,0:0:0:0:
52,317,47671,2,0,L|70:202,1,105.000004005432,0|0,3:0|3:0,0:0:0:0:
79,162,47996,1,8,0:0:0:0:
184,178,48213,2,0,L|197:243,2,52.5000020027161,0|0|8,3:0|3:0|0:0,0:0:0:0:
217,79,48646,6,0,P|274:81|328:152,1,105.000004005432,4|8,3:2|0:0,0:0:0:0:
402,57,49078,1,0,3:0:0:0:
402,57,49186,2,0,L|489:69,1,52.5000020027161,0|8,3:0|3:2,0:0:0:0:
507,71,49402,2,0,L|478:194,1,105.000004005432,0|0,3:0|3:0,0:0:0:0:
468,224,49726,1,8,0:0:0:0:
378,278,49942,2,0,L|391:342,2,52.5000020027161,0|0|8,3:0|3:0|0:0,0:0:0:0:
317,193,50374,6,0,L|183:180,1,105.000004005432,4|8,3:2|0:0,0:0:0:0:
146,102,50806,1,0,3:0:0:0:
146,102,50914,2,0,L|136:35,2,52.5000020027161,0|8|0,3:0|3:2|3:0,0:0:0:0:
61,165,51346,5,10,0:0:0:0:
61,165,51454,1,10,0:0:0:0:
61,165,51562,1,10,0:0:0:0:
61,165,51670,2,0,L|47:238,1,52.5000020027161,8|8,0:0|0:0,0:0:0:0:
91,252,51886,2,0,L|101:307,1,52.5000020027161,8|8,0:0|0:0,0:0:0:0:
150,323,52102,1,4,3:2:0:0:
192,227,52318,6,0,L|174:160,2,52.5000020027161,8|0|0,0:0|3:0|3:0,0:0:0:0:
273,292,52750,1,8,0:0:0:0:
320,199,52967,1,0,3:0:0:0:
320,199,53075,2,0,L|449:222,1,105.000004005432,0|0,3:0|3:0,0:0:0:0:
476,227,53399,1,0,3:0:0:0:
493,330,53616,1,8,0:0:0:0:
390,347,53832,6,0,L|269:364,1,105.000004005432,0|8,3:0|0:0,0:0:0:0:
248,263,54264,2,0,P|200:295|183:348,1,105.000004005432,0|8,3:0|3:2,0:0:0:0:
137,364,54589,2,0,P|87:336|77:266,1,105.000004005432,0|0,3:0|3:0,0:0:0:0:
100,249,54913,1,8,0:0:0:0:
51,155,55130,2,0,L|-21:142,2,52.5000020027161,0|0|12,3:0|3:0|0:0,0:0:0:0:
120,76,55562,5,4,3:2:0:0:
177,164,55777,2,0,P|230:152|267:90,2,105.000004005432,8|0|8,0:0|3:0|0:0,0:0:0:0:
82,213,56425,1,0,3:0:0:0:
82,213,56533,2,0,L|72:327,1,105.000004005432,0|0,3:0|0:0,0:0:0:0:
66,370,56857,1,0,3:0:0:0:
163,331,57073,1,8,0:0:0:0:
260,374,57289,6,0,P|331:358|362:314,1,105.000004005432,0|8,3:0|0:0,0:0:0:0:
456,325,57721,2,0,L|437:215,1,105.000004005432,0|8,3:0|3:2,0:0:0:0:
478,186,58045,2,0,L|493:64,1,105.000004005432,0|0,3:0|3:0,0:0:0:0:
452,46,58369,1,8,0:0:0:0:
368,109,58585,2,0,L|383:174,2,52.5000020027161,0|0|12,3:0|3:0|0:0,0:0:0:0:
278,56,59017,5,4,3:2:0:0:
267,160,59231,2,0,P|258:229|215:267,2,105.000004005432,8|0|8,0:0|3:0|0:0,0:0:0:0:
173,103,59874,1,0,3:0:0:0:
173,103,59982,2,0,L|65:125,1,105.000004005432,0|0,3:0|3:0,0:0:0:0:
19,135,60306,1,0,3:0:0:0:
0,26,60522,1,8,0:0:0:0:
103,5,60738,6,0,L|239:26,1,105.000004005432,0|8,3:0|0:0,0:0:0:0:
312,36,61169,2,0,P|334:92|308:162,1,105.000004005432,0|8,3:0|3:2,0:0:0:0:
339,187,61493,2,0,P|277:216|215:195,1,105.000004005432,0|0,3:0|3:0,0:0:0:0:
197,236,61817,1,8,0:0:0:0:
105,186,62033,2,0,L|87:127,2,52.5000020027161,0|0|8,3:0|3:0|0:0,0:0:0:0:
41,270,62465,5,4,3:2:0:0:
119,342,62681,2,0,P|70:377|6:370,2,105.000004005432,8|0|8,0:0|3:0|0:0,0:0:0:0:
140,239,63331,1,0,3:0:0:0:
237,199,63548,1,8,0:0:0:0:
335,235,63764,1,0,3:0:0:0:
366,335,63981,1,8,0:0:0:0:
470,341,64197,6,0,L|453:233,1,105.000004005432,0|8,3:0|0:2,0:0:0:0:
379,154,64631,2,0,L|397:24,1,105.000004005432,0|8,3:0|3:2,0:0:0:0:
403,4,64941,1,0,3:0:0:0:
305,31,65175,5,0,3:0:0:0:
305,31,65293,2,0,L|236:18,1,52.5000020027161,8|0,0:0|0:0,0:0:0:0:
228,67,65507,2,0,L|159:80,1,52.5000020027161,10|0,3:2|0:0,0:0:0:0:
148,36,65721,2,0,L|79:23,1,52.5000020027161,10|0,3:2|0:0,0:0:0:0:
42,11,65950,5,4,3:2:0:0:
15,110,66165,1,8,0:0:0:0:
117,130,66380,5,4,3:2:0:0:
122,263,66596,1,8,0:0:0:0:
248,202,66811,5,4,3:2:0:0:
283,360,67026,1,8,0:0:0:0:
396,248,67241,6,0,P|472:258|518:311,1,105.000004005432,0|8,3:0|3:2,0:0:0:0:
505,169,67672,2,0,L|479:47,1,105.000004005432,4|8,3:2|0:0,0:0:0:0:
385,96,68104,1,2,3:2:0:0:
385,96,68213,2,0,L|325:119,1,52.5000020027161,0|8,0:0|0:0,0:0:0:0:
286,98,68429,2,0,L|267:211,1,105.000004005432,2|0,3:2|3:0,0:0:0:0:
258,254,68754,1,10,0:0:0:0:
296,359,68966,1,0,3:0:0:0:
296,359,69073,1,0,3:0:0:0:
296,359,69179,1,8,0:0:0:0:
376,291,69392,5,4,3:2:0:0:
478,268,69610,1,8,0:0:0:0:
327,211,69828,5,4,3:2:0:0:
461,131,70046,1,8,0:0:0:0:
261,140,70264,5,4,3:2:0:0:
416,17,70482,1,8,0:0:0:0:
281,33,70700,6,0,P|216:31|160:14,1,105.000004005432,0|8,3:0|3:2,0:0:0:0:
135,53,71032,1,0,3:0:0:0:
135,53,71147,1,8,0:0:0:0:
180,148,71358,2,0,L|241:134,2,52.5000020027161,0|0|8,3:0|3:0|0:0,0:0:0:0:
118,233,71780,2,0,L|58:221,2,52.5000020027161,0|0|8,3:0|3:0|0:0,0:0:0:0:
177,321,72210,5,8,0:0:0:0:
281,291,72429,2,0,B|301:227|301:227|320:208|320:208|344:126,1,157.500006008148,8|8,0:0|0:0,0:0:0:0:
358,97,72852,5,4,3:2:0:0:
259,62,73066,1,8,0:0:0:0:
259,62,73173,1,8,0:0:0:0:
259,62,73280,2,0,L|237:0,3,52.5000020027161,8|8|8|8,0:0|0:0|0:0|0:0,0:0:0:0:
224,102,73727,6,0,L|200:231,1,105.000004005432,4|0,3:2|0:0,0:0:0:0:
154,220,74052,2,0,L|175:337,1,105.000004005432,4|0,3:2|0:0,0:0:0:0:
184,374,74378,1,4,3:2:0:0:
289,366,74596,6,0,P|334:310|333:249,1,105.000004005432,4|8,3:2|0:0,0:0:0:0:
442,250,75026,1,0,3:0:0:0:
442,250,75134,2,0,L|428:187,1,52.5000020027161,0|8,3:0|3:2,0:0:0:0:
473,168,75349,2,0,L|493:45,1,105.000004005432,0|0,3:0|3:0,0:0:0:0:
499,12,75672,1,8,0:0:0:0:
405,60,75888,1,0,3:0:0:0:
379,63,75995,1,0,3:0:0:0:
353,67,76103,1,8,0:0:0:0:
270,3,76317,5,4,3:2:0:0:
225,97,76520,1,8,0:0:0:0:
225,97,76629,1,8,0:0:0:0:
225,97,76738,2,0,L|146:104,3,52.5000020027161,8|8|8|8,0:0|0:0|0:0|0:0,0:0:0:0:
276,122,77174,6,0,P|261:194|210:227,1,105.000004005432,4|0,3:2|0:0,0:0:0:0:
229,265,77502,2,0,P|154:278|107:251,1,105.000004005432,4|0,3:2|0:0,0:0:0:0:
83,294,77830,1,4,3:2:0:0:
30,203,78055,6,0,L|51:79,1,105.000004005432,4|8,3:2|0:0,0:0:0:0:
128,32,78487,1,0,3:0:0:0:
128,32,78596,2,0,L|154:96,1,52.5000020027161,0|8,3:0|3:2,0:0:0:0:
200,78,78812,2,0,P|193:143|149:183,1,105.000004005432,0|0,3:0|3:0,0:0:0:0:
119,192,79137,1,8,0:0:0:0:
98,295,79353,1,0,3:0:0:0:
74,306,79461,1,0,3:0:0:0:
50,317,79570,1,8,0:0:0:0:
181,345,79786,5,4,3:2:0:0:
269,289,79986,1,8,0:0:0:0:
269,289,80089,1,8,0:0:0:0:
269,289,80192,2,0,L|275:219,3,52.5000020027161,8|8|8|8,0:0|0:0|0:0|0:0,0:0:0:0:
230,203,80606,6,0,L|218:71,1,105.000004005432,4|0,3:2|0:0,0:0:0:0:
257,70,80928,2,0,L|372:105,1,105.000004005432,4|0,3:2|0:0,0:0:0:0:
365,152,81292,1,4,3:2:0:0:
475,138,81510,6,0,P|498:204|488:253,1,105.000004005432,4|8,3:2|0:0,0:0:0:0:
404,292,81944,1,0,3:0:0:0:
404,292,82053,2,0,L|330:311,1,52.5000020027161,0|8,3:0|3:2,0:0:0:0:
319,345,82270,2,0,L|197:321,1,105.000004005432,0|0,3:0|3:0,0:0:0:0:
165,310,82596,1,8,0:0:0:0:
60,308,82814,1,0,3:0:0:0:
44,328,82923,1,0,3:0:0:0:
28,349,83031,1,8,0:0:0:0:
47,216,83249,5,4,3:2:0:0:
137,163,83455,1,8,0:0:0:0:
137,163,83561,1,8,0:0:0:0:
137,163,83667,2,0,L|144:98,3,52.5000020027161,8|8|8|8,0:0|0:0|0:0|0:0,0:0:0:0:
115,65,84093,6,0,L|251:40,1,105.000004005432,4|0,3:2|0:0,0:0:0:0:
259,18,84423,2,0,P|310:45|333:106,1,105.000004005432,4|0,3:2|0:0,0:0:0:0:
323,135,84754,1,4,3:2:0:0:
215,131,84975,6,0,L|197:275,1,105.000004005432,4|8,3:2|0:0,0:0:0:0:
150,326,85405,1,0,3:0:0:0:
254,332,85621,2,0,P|340:332|374:256,1,157.500006008148,8|10,3:2|0:0,0:0:0:0:
364,236,86052,5,10,0:0:0:0:
364,236,86156,1,10,0:0:0:0:
364,236,86261,2,0,L|291:222,1,52.5000020027161,8|8,0:0|0:0,0:0:0:0:
291,177,86471,2,0,L|213:191,1,52.5000020027161,8|8,0:0|0:0,0:0:0:0:
188,204,86705,6,0,L|32:171,1,125.999996154785,4|8,3:2|0:0,0:0:0:0:
27,57,87137,1,0,3:0:0:0:
57,29,87246,1,0,3:0:0:0:
97,17,87354,1,8,3:2:0:0:
139,23,87462,2,0,P|193:62|262:56,1,125.999996154785,0|0,3:0|3:0,0:0:0:0:
281,20,87787,1,8,0:0:0:0:
358,83,88003,2,0,L|425:59,2,62.9999980773926,0|0|12,3:0|3:0|0:0,0:0:0:0:
303,168,88436,6,0,P|271:249|290:315,1,125.999996154785,4|8,3:2|0:0,0:0:0:0:
348,357,88867,1,0,3:0:0:0:
388,347,88975,1,0,3:0:0:0:
429,338,89083,1,8,3:2:0:0:
470,329,89191,2,0,L|491:193,1,125.999996154785,0|0,3:0|3:0,0:0:0:0:
502,156,89539,1,12,0:0:0:0:
413,107,89755,2,0,L|391:28,2,62.9999980773926,0|0|12,3:0|3:0|0:0,0:0:0:0:
353,190,90159,6,0,L|191:211,1,125.999996154785,4|8,3:2|0:0,0:0:0:0:
151,140,90585,1,0,3:0:0:0:
109,142,90691,1,0,3:0:0:0:
73,163,90798,1,8,3:2:0:0:
52,199,90905,2,0,L|80:337,1,125.999996154785,0|0,3:0|3:0,0:0:0:0:
60,370,91257,1,8,0:0:0:0:
160,380,91470,2,0,L|176:301,2,62.9999980773926,0|0|12,3:0|3:0|0:0,0:0:0:0:
249,254,91888,6,0,P|323:272|356:331,1,125.999996154785,4|8,3:2|0:0,0:0:0:0:
423,379,92312,1,0,3:0:0:0:
457,356,92418,1,0,3:0:0:0:
477,319,92524,1,8,3:2:0:0:
477,278,92630,2,0,L|440:138,1,125.999996154785,0|0,3:0|3:0,0:0:0:0:
424,110,92960,1,12,0:0:0:0:
326,135,93173,2,0,L|299:208,2,62.9999980773926,0|0|12,3:0|3:0|0:0,0:0:0:0:
294,41,93600,6,0,P|241:4|151:19,1,125.999996154785,4|8,3:2|0:0,0:0:0:0:
92,50,94033,1,0,3:0:0:0:
102,90,94141,1,0,3:0:0:0:
112,131,94250,1,8,3:2:0:0:
122,172,94358,2,0,L|281:200,1,125.999996154785,0|0,3:0|3:0,0:0:0:0:
294,207,94683,1,8,0:0:0:0:
374,146,94900,2,0,L|356:75,2,62.9999980773926,0|0|12,3:0|3:0|0:0,0:0:0:0:
460,198,95334,6,0,P|496:255|477:331,1,125.999996154785,4|8,3:2|0:0,0:0:0:0:
405,366,95766,1,0,3:0:0:0:
381,331,95874,1,0,3:0:0:0:
345,309,95982,1,8,3:2:0:0:
304,303,96090,2,0,L|144:320,1,125.999996154785,0|0,3:0|3:0,0:0:0:0:
128,323,96415,1,12,0:0:0:0:
67,242,96631,2,0,L|0:224,2,62.9999980773926,0|0|12,3:0|3:0|0:0,0:0:0:0:
155,191,97063,6,0,P|190:129|179:59,1,125.999996154785,4|8,3:2|0:0,0:0:0:0:
103,19,97493,1,0,3:0:0:0:
88,58,97601,1,0,3:0:0:0:
73,97,97708,1,8,3:2:0:0:
58,137,97816,2,0,L|92:301,1,125.999996154785,0|0,3:0|3:0,0:0:0:0:
96,309,98139,1,8,0:0:0:0:
195,322,98354,2,0,L|185:391,2,62.9999980773926,0|0|12,3:0|3:0|0:0,0:0:0:0:
246,235,98794,6,0,P|217:169|225:108,1,125.999996154785,4|8,3:2|0:0,0:0:0:0:
208,16,99224,1,0,3:0:0:0:
249,11,99332,1,0,3:0:0:0:
291,7,99440,1,8,3:2:0:0:
331,1,99548,2,0,L|368:128,1,125.999996154785,0|0,3:0|3:0,0:0:0:0:
388,166,99871,1,12,0:0:0:0:
320,240,100086,2,0,L|305:330,2,62.9999980773926,0|0|12,3:0|3:0|0:0,0:0:0:0:
236,175,100517,6,4,P|162:179|98:279,2,188.999994232178,4|4|4,3:2|3:2|3:2,3:2:0:0:
328,281,101427,1,4,3:2:0:0:
392,198,101608,1,8,0:0:0:0:
392,198,101710,1,8,0:0:0:0:
392,198,101813,2,0,L|464:181,3,52.5000020027161,0|0|0|0,3:0|3:0|3:0|3:0,0:0:0:0:
463,145,102247,6,4,P|461:71|367:13,2,157.500006008148,4|4|4,3:2|3:2|3:2,3:2:0:0:
340,88,103141,1,4,3:2:0:0:
261,157,103334,1,8,0:0:0:0:
261,157,103439,1,8,0:0:0:0:
261,157,103544,2,0,L|269:235,3,52.5000020027161,0|0|0|0,3:0|3:0|3:0|3:0,0:0:0:0:
237,248,103965,6,4,L|418:279,2,157.500006008148,4|4|4,3:2|3:2|3:2,3:2:0:0:
116,333,104867,1,4,3:2:0:0:
65,241,105068,1,8,0:0:0:0:
65,241,105172,1,8,0:0:0:0:
65,241,105277,2,0,L|2:257,3,52.5000020027161,0|0|0|0,3:0|3:0|3:0|3:0,0:0:0:0:
85,196,105697,6,4,P|58:113|-6:82,2,157.500006008148,4|4|4,3:2|3:2|3:2,3:2:0:0:
227,258,106585,1,4,3:2:0:0:
309,191,106783,1,8,0:0:0:0:
309,191,106887,1,8,0:0:0:0:
309,191,106991,2,0,L|374:196,3,52.5000020027161,0|0|8|8,3:0|3:0|3:2|3:2,0:0:0:0:
271,157,107408,6,4,L|251:-7,2,157.500006008148,4|4|4,3:2|3:2|3:2,3:2:0:0:
155,197,108284,1,4,3:2:0:0:
122,110,108500,1,8,0:0:0:0:
122,110,108608,1,8,0:0:0:0:
122,110,108716,2,0,L|135:25,3,52.5000020027161,0|0|0|0,3:0|3:0|3:0|3:0,0:0:0:0:
102,13,109148,6,4,P|26:31|-3:110,2,157.500006008148,4|4|4,3:2|3:2|3:2,3:2:0:0:
233,90,110051,1,4,3:2:0:0:
326,43,110251,1,8,0:0:0:0:
326,43,110357,1,8,0:0:0:0:
326,43,110463,2,0,L|390:32,3,53,0|0|0|0,3:0|3:0|3:0|3:0,0:0:0:0:
413,62,110895,6,0,L|390:230,2,157.500006008148,4|4|4,3:2|3:2|3:2,0:0:0:0:
142,108,111837,2,4,L|165:272,2,157.500006008148,4|4|4,3:2|3:2|3:2,3:2:0:0:
320,157,112697,6,4,P|405:169|438:232,2,157.500006008148,4|4|4,3:2|3:2|3:2,3:2:0:0:
202,246,113554,2,0,P|117:258|87:337,2,157.500006008148,4|4|4,3:2|3:2|3:2,0:0:0:0:
256,369,114380,1,4,3:2:0:0:
256,192,114487,12,8,117385,0:0:0:0:
228,93,117822,6,0,B|331:92|279:41|386:42,2,167.999994873047,0|0|0,1:0|1:0|1:0,0:0:0:0:
133,11,118917,1,0,3:0:0:0:
46,91,119135,1,0,1:0:0:0:
147,150,119352,1,0,3:0:0:0:
53,221,119569,6,0,P|74:294|171:294,2,167.999994873047,0|0|0,1:0|1:0|1:0,0:0:0:0:
149,153,120644,1,0,3:0:0:0:
226,241,120859,1,0,1:0:0:0:
290,142,121082,1,0,3:0:0:0:
391,203,121306,6,0,P|463:179|466:82,1,167.999994873047,4|0,1:2|1:0,0:0:0:0:
371,39,121952,1,0,3:0:0:0:
264,90,122167,6,0,P|277:163|292:276,1,167.999994873047,4|0,1:2|1:0,0:0:0:0:
233,359,122814,1,0,3:0:0:0:
127,306,123029,6,0,P|78:284|36:278,1,83.9999974365235,4|0,1:2|3:0,0:0:0:0:
91,168,123460,2,0,P|140:190|182:196,1,83.9999974365235,4|0,1:2|3:0,0:0:0:0:
229,93,123891,2,0,L|415:61,1,179.242,4|8,1:2|0:0,0:0:0:0:
497,122,124525,1,0,3:0:0:0:
427,216,124745,6,0,L|451:323,1,83.9999974365235,0|0,1:0|3:0,0:0:0:0:
330,321,125179,2,0,L|311:239,1,83.9999974365235,0|0,1:0|3:0,0:0:0:0:
350,127,125613,1,0,1:0:0:0:
268,42,125830,1,0,3:0:0:0:
157,80,126047,1,0,1:0:0:0:
155,197,126264,1,0,3:0:0:0:
41,227,126481,6,0,P|58:287|164:308,1,167.999994873047,6|2,1:2|1:2,0:0:0:0:
258,364,127134,1,2,3:2:0:0:
346,285,127352,2,0,P|326:236|323:183,1,83.9999974365235,0|0,1:0|3:0,0:0:0:0:
435,174,127788,2,0,P|455:223|458:276,1,83.9999974365235,0|0,1:0|3:0,0:0:0:0:
491,81,128223,6,0,P|432:55|301:54,1,167.999994873047,4|0,1:2|1:0,0:0:0:0:
220,2,128877,1,0,3:0:0:0:
137,85,129095,6,0,P|215:134|257:217,1,167.999994873047,4|0,1:2|1:0,0:0:0:0:
229,314,129748,1,0,3:0:0:0:
123,374,129966,6,0,P|35:350|29:257,2,167.999994873047,4|2|2,1:2|1:2|1:2,0:0:0:0:
165,264,131028,1,2,3:2:0:0:
267,321,131245,1,0,1:0:0:0:
294,206,131472,1,0,3:0:0:0:
394,278,131699,6,0,P|467:257|515:251,1,83.9999974365235,4|0,1:2|0:0,0:0:0:0:
444,142,132118,2,0,P|371:163|323:169,1,83.9999974365235,0|0,1:0|3:0,0:0:0:0:
293,69,132538,1,0,1:0:0:0:
177,48,132755,1,0,3:0:0:0:
110,144,132972,1,0,1:0:0:0:
176,241,133190,1,0,3:0:0:0:
101,331,133407,6,0,P|85:292|96:252,1,83.9999974365235,6|2,1:2|3:2,0:0:0:0:
259,240,133838,2,0,P|274:278|263:318,1,83.9999974365235,2|2,1:2|3:2,0:0:0:0:
367,375,134269,1,0,1:0:0:0:
465,310,134485,1,0,3:0:0:0:
463,192,134701,1,0,1:0:0:0:
361,132,134916,1,0,3:0:0:0:
267,202,135132,6,0,P|193:216|83:284,1,167.999994873047,4|0,1:2|1:0,0:0:0:0:
12,194,135793,1,0,3:0:0:0:
31,78,136014,6,0,P|115:88|203:143,1,167.999994873047,4|0,1:2|1:0,0:0:0:0:
285,63,136652,1,0,3:0:0:0:
372,141,136865,6,0,P|466:121|481:37,2,167.999994873047,4|2|2,1:2|1:2|1:2,0:0:0:0:
312,39,137928,1,2,3:2:0:0:
217,109,138141,1,0,1:0:0:0:
285,204,138354,1,0,3:0:0:0:
171,237,138584,6,0,P|146:302|120:323,1,83.9999974365235,4|0,1:2|3:0,0:0:0:0:
31,258,139016,2,0,P|56:193|82:172,1,83.9999974365235,0|0,1:0|3:0,0:0:0:0:
45,68,139448,1,0,1:0:0:0:
154,26,139664,1,0,3:0:0:0:
250,93,139880,1,0,1:0:0:0:
250,210,140096,1,0,3:0:0:0:
351,155,140313,5,6,1:2:0:0:
351,155,140529,2,0,L|376:254,1,83.9999974365235,2|0,3:2|1:0,0:0:0:0:
470,301,140961,2,0,L|482:203,1,83.9999974365235,2|0,3:2|1:0,0:0:0:0:
496,100,141396,1,0,3:0:0:0:
416,13,141616,1,0,1:0:0:0:
325,87,141836,1,0,3:0:0:0:
219,31,142056,6,0,P|198:113|146:202,1,167.999994873047,4|0,1:2|1:0,0:0:0:0:
166,302,142704,1,0,3:0:0:0:
272,353,142920,6,0,P|347:333|436:263,1,167.999994873047,4|0,1:2|1:0,0:0:0:0:
480,180,143568,1,0,3:0:0:0:
406,88,143785,6,0,P|335:117|332:215,2,167.999994873047,4|2|2,1:2|1:2|1:2,0:0:0:0:
499,159,144862,1,2,3:2:0:0:
407,233,145077,1,0,1:0:0:0:
500,304,145293,1,0,3:0:0:0:
384,320,145508,6,0,P|319:332|281:353,1,83.9999974365235,4|0,1:2|3:0,0:0:0:0:
269,181,145944,2,0,P|334:169|372:148,1,83.9999974365235,0|0,1:0|3:0,0:0:0:0:
351,43,146380,1,0,1:0:0:0:
454,98,146598,1,0,3:0:0:0:
452,215,146817,1,0,1:0:0:0:
347,269,147035,1,0,3:0:0:0:
253,197,147253,6,0,L|252:91,1,83.9999974365235,6|2,1:2|3:2,0:0:0:0:
134,114,147683,2,0,L|135:220,1,83.9999974365235,2|2,1:2|3:2,0:0:0:0:
35,262,148113,1,0,1:0:0:0:
115,347,148329,1,0,3:0:0:0:
232,343,148544,1,0,1:0:0:0:
289,240,148759,1,0,3:0:0:0:
202,155,148974,6,0,P|203:78|286:3,1,167.999994873047,4|0,1:2|1:0,0:0:0:0:
374,43,149612,1,0,3:0:0:0:
422,150,149825,6,0,P|345:188|301:276,1,167.999994873047,4|0,1:2|1:0,0:0:0:0:
258,364,150463,1,0,3:0:0:0:
171,288,150676,6,0,P|93:287|71:206,2,167.999994873047,4|2|2,1:2|1:2|1:2,0:0:0:0:
252,203,151777,1,2,3:2:0:0:
140,170,151997,2,0,L|122:62,1,83.9999974365235,0|0,1:0|0:0,0:0:0:0:
117,2,152421,6,0,L|248:27,1,125.999996154785,4|0,3:2|3:0,0:0:0:0:
250,66,152837,2,0,L|341:54,1,83.9999974365235,0|0,3:0|0:0,0:0:0:0:
406,17,153254,2,0,P|467:59|488:140,1,125.999996154785,4|0,3:2|3:0,0:0:0:0:
509,140,153680,2,0,P|462:177|453:223,1,83.9999974365235,0|0,3:0|0:0,0:0:0:0:
457,239,153999,1,0,3:0:0:0:
457,239,154106,5,4,3:2:0:0:
395,295,154322,2,0,L|388:351,2,41.9999987182618,0|0|0,0:0|3:0|3:3,0:0:0:0:
326,246,154755,2,0,L|319:190,2,41.9999987182618,0|0|0,0:3|3:0|3:0,0:0:0:0:
249,280,155189,2,0,L|242:336,2,41.9999987182618,0|0|2,0:0|3:0|3:2,0:0:0:0:
167,259,155622,1,0,0:0:0:0:
167,259,155730,1,0,3:0:0:0:
167,259,155838,6,0,L|183:129,1,125.999996154785,4|0,3:2|3:0,0:0:0:0:
216,109,156282,2,0,P|185:43|157:30,1,83.9999974365235,0|0,3:0|0:0,0:0:0:0:
102,2,156726,2,0,P|40:48|34:114,1,125.999996154785,4|0,3:2|3:0,0:0:0:0:
7,130,157171,2,0,L|34:231,1,83.9999974365235,0|0,3:0|0:0,0:0:0:0:
45,254,157486,1,0,3:0:0:0:
45,254,157592,5,4,3:2:0:0:
110,306,157807,2,0,L|118:356,2,41.9999987182618,0|0|0,0:0|3:0|3:0,0:0:0:0:
174,253,158237,2,0,L|179:205,2,41.9999987182618,0|0|0,0:0|3:0|3:0,0:0:0:0:
258,243,158667,2,0,L|323:264,2,41.9999987182618,0|0|2,0:0|3:0|3:2,0:0:0:0:
264,159,159097,1,0,0:0:0:0:
264,159,159204,1,0,3:0:0:0:
264,159,159312,6,0,P|277:98|349:71,1,125.999996154785,4|0,3:2|3:0,0:0:0:0:
365,47,159742,2,0,L|390:128,1,83.9999974365235,0|0,3:0|3:0,0:0:0:0:
464,159,160172,2,0,L|448:296,1,125.999996154785,4|0,3:2|3:0,0:0:0:0:
440,324,160614,2,0,P|380:353|335:336,1,83.9999974365235,0|0,3:0|0:0,0:0:0:0:
334,331,160946,1,0,3:0:0:0:
334,331,161057,5,4,3:2:0:0:
259,293,161275,2,0,L|212:301,2,41.9999987182618,0|0|0,0:0|3:0|3:0,0:0:0:0:
288,214,161712,2,0,L|335:222,2,41.9999987182618,0|0|0,0:0|3:0|3:0,0:0:0:0:
224,154,162140,2,0,L|177:162,2,41.9999987182618,0|0|2,0:0|3:0|3:2,0:0:0:0:
269,83,162571,1,0,0:0:0:0:
269,83,162681,1,0,3:0:0:0:
269,83,162792,6,0,P|329:57|416:59,2,125.999996154785,4|4|4,3:2|3:2|3:2,0:0:0:0:
191,149,163813,2,0,P|130:123|57:118,2,125.999996154785,4|4|4,3:2|3:2|3:2,0:0:0:0:
256,241,164913,1,4,3:2:0:0:
256,192,165021,12,0,169608,0:0:0:0:
264,63,170927,6,0,L|281:211,1,125.999996154785,4|4,3:2|3:2,0:0:0:0:
169,224,171521,2,0,L|151:369,1,125.999996154785,4|4,3:2|3:2,0:0:0:0:
