osu file format v14

[General]
AudioFilename: 02 - Jesus of Suburbia.mp3
AudioLeadIn: 1974
PreviewTime: -1
Countdown: 1
SampleSet: Normal
StackLeniency: 0.7
Mode: 0
LetterboxInBreaks: 0
WidescreenStoryboard: 0

[Editor]
DistanceSpacing: 1.5
BeatDivisor: 4
GridSize: 8
TimelineZoom: 1.3

[Metadata]
Title:Jesus of Suburbia
TitleUnicode:Jesus of Suburbia
Artist:Green Day
ArtistUnicode:Green Day
Creator:corninho
Version:Bible of None
Source:
Tags:american idiot punk rock alternative rock pop punk
BeatmapID:1608821
BeatmapSetID:765163

[Difficulty]
HPDrainRate:5
CircleSize:4.3
OverallDifficulty:9.3
ApproachRate:9.5
SliderMultiplier:1.8
SliderTickRate:1

[Events]
//Background and Video events
0,0,"the_jesus_of_suburbia_by_willehg24.jpg",0,0
//Break Periods
2,114328,116356
2,325754,335508
2,504072,524419
//Storyboard Layer 0 (Background)
//Storyboard Layer 1 (Fail)
//Storyboard Layer 2 (Pass)
//Storyboard Layer 3 (Foreground)
//Storyboard Sound Samples

[TimingPoints]
160.189189189189,419.58041958042,4,1,1,60,1,0
27013,-100,4,1,1,60,0,1
36244,-100,4,1,1,60,0,0
70649,-100,4,1,1,60,0,1
79880,-100,4,1,1,60,0,0
110950,397.350993377483,4,2,1,60,1,0
112383,-142.857142857143,4,2,1,40,0,0
123644,-142.857142857143,4,1,1,40,0,0
129803,-142.857142857143,4,2,1,40,0,0
136359,-142.857142857143,4,1,1,40,0,0
142717,-100,4,1,1,40,0,1
149095,-100,4,2,1,40,0,0
151955,-133.333333333333,4,2,1,40,0,0
155134,-100,4,1,1,40,0,1
155453,-100,4,1,1,40,0,1
161810,-100,4,2,1,40,0,0
164670,-133.333333333333,4,1,1,40,0,1
167771,-133.333333333333,4,1,1,40,0,0
167837,-133.333333333333,4,2,1,40,0,0
171148,-133.333333333333,4,1,1,40,0,0
171546,-133.333333333333,4,2,1,40,0,0
174505,-142.857142857143,4,1,1,40,0,0
180664,-142.857142857143,4,2,1,40,0,0
187220,-142.857142857143,4,1,1,40,0,0
193599,-100,4,1,1,40,0,1
199956,-100,4,2,1,40,0,0
202936,-133.333333333333,4,2,1,40,0,0
206094,-100,4,1,1,40,0,1
212671,-100,4,1,1,40,0,0
215735,-100,4,1,1,40,0,0
215850,375,4,1,1,40,1,0
221795,338.983050847458,3,1,1,60,1,0
221795,-133.333333333333,3,1,1,60,0,0
230947,-66.6666666666667,3,1,1,60,0,0
231964,-133.333333333333,3,1,1,60,0,0
232981,-66.6666666666667,3,1,1,60,0,0
233998,-133.333333333333,3,1,1,60,0,0
235015,-66.6666666666667,3,1,1,60,0,0
236032,-133.333333333333,3,1,1,60,0,0
239083,-66.6666666666667,3,1,1,60,0,0
240100,-133.333333333333,3,1,1,60,0,0
241117,-66.6666666666667,3,1,1,60,0,0
242133,-133.333333333333,3,1,1,60,0,0
243150,-66.6666666666667,3,1,1,60,0,0
244167,-133.333333333333,3,1,1,60,0,0
247218,-66.6666666666667,3,1,1,60,0,0
248235,-133.333333333333,3,1,1,60,0,0
249252,-66.6666666666667,3,1,1,60,0,0
250269,-133.333333333333,3,1,1,60,0,0
251286,-66.6666666666667,3,1,1,60,0,0
252303,-100,3,1,1,60,0,0
255354,-66.6666666666667,3,1,1,60,0,0
256371,-100,3,1,1,60,0,0
257388,-66.6666666666667,3,1,1,60,0,0
258405,-100,3,1,1,60,0,0
259422,-66.6666666666667,3,1,1,60,0,0
260439,-100,3,1,1,60,0,0
262472,-200,3,1,1,60,0,0
262811,-100,3,1,1,60,0,0
263173,338.983050847458,4,1,1,60,1,0
263175,-66.6666666666667,4,1,1,60,0,0
263511,-100,4,1,1,60,0,0
274020,339.55857385399,4,1,1,60,1,0
295728,338.983050847458,4,1,1,60,1,0
295728,-83.3333333333333,4,1,1,60,0,0
305897,-200,4,1,1,60,0,0
306236,-66.6666666666667,4,1,1,60,0,0
306575,-66.6666666666667,4,1,1,60,0,1
306914,-100,4,1,1,60,0,1
308609,-66.6666666666667,4,1,1,60,0,1
309626,-100,4,1,1,60,0,1
311321,-66.6666666666667,4,1,1,60,0,1
312338,-100,4,1,1,60,0,1
314033,-66.6666666666667,4,1,1,60,0,1
315050,-100,4,1,1,60,0,1
316744,-66.6666666666667,4,1,1,60,0,1
317422,-100,4,1,1,60,0,1
317761,-100,4,1,1,80,0,1
325554,338.983050847458,4,1,1,60,1,0
325671,-133.333333333333,4,2,1,60,0,0
336518,-166.666666666667,4,2,1,60,0,0
347248,-166.666666666667,4,1,1,60,0,0
347503,-166.666666666667,4,2,1,60,0,0
349960,-166.666666666667,4,1,1,60,0,0
350215,-166.666666666667,4,2,1,60,0,0
352672,-166.666666666667,4,1,1,60,0,0
352926,-166.666666666667,4,2,1,60,0,0
355384,-166.666666666667,4,1,1,60,0,0
355638,-166.666666666667,4,2,1,60,0,0
356740,-166.666666666667,4,1,1,60,0,0
356994,-166.666666666667,4,2,1,60,0,0
357757,-166.666666666667,4,2,1,60,0,1
358011,-166.666666666667,4,2,1,60,0,0
360808,-166.666666666667,4,1,1,60,0,0
361062,-166.666666666667,4,2,1,60,0,0
363520,-166.666666666667,4,1,1,60,0,0
363774,-166.666666666667,4,2,1,60,0,0
366231,-166.666666666667,4,1,1,60,0,0
366486,-166.666666666667,4,2,1,60,0,0
367587,-166.666666666667,4,1,1,60,0,0
367842,-166.666666666667,4,2,1,60,0,0
368943,-166.666666666667,4,1,1,60,0,0
369198,-166.666666666667,4,2,1,60,0,0
371655,-166.666666666667,4,1,1,60,0,0
371909,-166.666666666667,4,2,1,60,0,0
374367,-166.666666666667,4,1,1,60,0,0
374621,-166.666666666667,4,2,1,60,0,0
377079,-166.666666666667,4,1,1,60,0,0
377333,-166.666666666667,4,2,1,60,0,0
378435,-166.666666666667,4,1,1,60,0,0
378689,-166.666666666667,4,2,1,60,0,0
379791,-166.666666666667,4,1,1,60,0,0
380045,-166.666666666667,4,2,1,60,0,0
382503,-166.666666666667,4,1,1,60,0,0
382757,-166.666666666667,4,2,1,60,0,0
385215,-166.666666666667,4,1,1,60,0,0
385469,-166.666666666667,4,2,1,60,0,0
387926,-166.666666666667,4,1,1,60,0,0
388181,-166.666666666667,4,2,1,60,0,0
389282,-166.666666666667,4,1,1,60,0,0
389537,-166.666666666667,4,2,1,60,0,0
390642,307.692307692308,4,1,1,60,1,0
400334,-100,4,1,1,60,0,0
420180,-100,4,1,1,60,0,1
430026,-100,4,1,1,60,0,0
449718,-80,4,1,1,60,0,1
459488,-100,4,1,1,60,0,0
459565,-66.6666666666667,4,1,1,60,0,1
469411,-100,4,1,1,60,0,0
474026,-181.818181818181,4,1,1,60,0,0
493411,-100,4,1,1,60,0,0
503872,351.699882766706,4,2,1,40,1,0
527633,307.692307692308,4,1,1,60,1,1
542364,-50,4,1,1,60,0,0

[Colours]
Combo1 : 128,0,255
Combo2 : 0,202,0
Combo3 : 0,0,0
Combo4 : 255,0,6

[HitObjects]
96,136,160,6,0,P|120:192|224:256,1,180
315,162,789,2,0,B|337:224|337:224|322:268|322:268|360:348,1,180
432,328,1418,2,0,P|448:280|425:165,1,135
421,170,1838,5,2,0:0:0:0:
344,112,2048,1,0,0:0:0:0:
208,88,2258,1,2,0:0:0:0:
272,208,2467,1,0,0:0:0:0:
144,168,2677,1,2,0:0:0:0:
104,296,2887,1,0,0:0:0:0:
240,320,3097,1,2,0:0:0:0:
264,184,3516,6,0,P|272:120|184:24,1,180
152,104,4146,2,0,L|152:288,1,180
240,312,4775,2,2,L|304:232,1,90
376,288,5195,6,2,L|424:208,1,90
400,120,5614,1,0,0:0:0:0:
320,80,5824,1,0,0:0:0:0:
232,104,6034,1,0,0:0:0:0:
320,80,6244,5,8,0:0:0:0:
352,56,6349,1,8,0:0:0:0:
400,48,6453,1,8,0:0:0:0:
432,136,6663,1,0,0:0:0:0:
344,240,6873,6,0,P|288:208|256:208,1,90
216,336,7293,1,0,0:0:0:0:
160,216,7502,2,0,L|152:104,1,90
280,80,7922,1,0,0:0:0:0:
336,200,8132,1,0,0:0:0:0:
200,184,8342,1,0,0:0:0:0:
112,80,8551,6,0,P|64:104|40:144,1,90
104,256,8971,1,0,0:0:0:0:
232,208,9181,1,2,0:0:0:0:
320,112,9390,1,2,0:0:0:0:
232,208,9600,1,0,0:0:0:0:
144,104,9810,2,8,L|160:48,1,45
224,128,10020,2,8,L|240:80,1,45
312,32,10230,6,0,P|360:48|408:120,1,135
392,184,10649,2,0,L|344:272,1,90
200,272,11069,1,0,0:0:0:0:
88,128,11279,1,0,0:0:0:0:
264,112,11488,1,0,0:0:0:0:
200,272,11698,2,0,P|232:312|288:328,1,90
432,248,12118,5,0,0:0:0:0:
296,248,12328,1,0,0:0:0:0:
296,112,12537,1,0,0:0:0:0:
168,64,12747,1,8,0:0:0:0:
128,80,12852,1,8,0:0:0:0:
96,112,12957,1,8,0:0:0:0:
88,152,13062,1,8,0:0:0:0:
72,192,13167,6,8,L|32:216,1,45
120,240,13376,2,8,L|168:264,1,45
72,288,13586,2,0,P|51:308|144:368,1,180
288,280,14216,2,0,P|308:259|216:200,1,180
72,200,14845,2,0,P|56:152|80:104,1,90
156,98,15265,1,2,0:0:0:0:
248,168,15474,5,0,0:0:0:0:
328,56,15684,1,2,0:0:0:0:
380,180,15894,1,0,0:0:0:0:
408,296,16104,1,2,0:0:0:0:
280,344,16314,1,0,0:0:0:0:
208,232,16523,2,2,P|184:168|200:112,1,90
312,96,16943,6,0,P|344:136|304:288,1,180
208,312,17572,2,0,L|384:368,1,180
480,272,18202,2,0,L|480:176,1,90
352,128,18621,6,2,L|352:232,1,90
256,312,19041,1,0,0:0:0:0:
152,232,19251,1,2,0:0:0:0:
232,128,19460,1,0,0:0:0:0:
152,232,19670,1,8,0:0:0:0:
120,264,19775,1,8,0:0:0:0:
104,304,19880,1,8,0:0:0:0:
232,344,20090,1,0,0:0:0:0:
319,225,20300,6,0,P|335:161|335:121,1,90
256,88,20719,1,0,0:0:0:0:
367,73,20929,2,0,P|399:105|415:249,1,180
312,272,21558,1,0,0:0:0:0:
200,200,21768,1,0,0:0:0:0:
368,136,21978,5,0,0:0:0:0:
208,64,22188,1,2,0:0:0:0:
88,200,22397,1,2,0:0:0:0:
232,312,22607,2,0,P|264:272|224:144,1,180
56,152,23237,2,8,L|56:208,1,45
120,264,23446,2,8,L|120:200,1,45
168,144,23656,6,0,P|200:96|288:88,1,135
320,160,24076,2,0,L|320:288,1,90
208,328,24495,1,0,0:0:0:0:
208,192,24705,1,0,0:0:0:0:
320,250,24915,1,0,0:0:0:0:
320,88,25125,2,0,P|360:48|400:32,1,90
440,160,25544,2,0,L|440:256,1,90
312,296,25964,1,0,0:0:0:0:
240,184,26174,5,8,0:0:0:0:
256,144,26279,1,8,0:0:0:0:
288,112,26383,1,8,0:0:0:0:
328,104,26488,1,8,0:0:0:0:
376,112,26593,2,8,L|424:144,1,45
360,208,26803,2,8,L|312:232,1,45
400,280,27013,2,0,P|424:299|376:376,1,135
336,360,27432,6,0,P|310:327|239:317,1,90
229,309,27747,1,0,0:0:0:0:
204,319,27852,1,0,0:0:0:0:
118,216,28062,1,0,0:0:0:0:
168,88,28272,1,0,0:0:0:0:
196,286,28481,2,0,L|292:282,1,90
421,274,28901,1,0,0:0:0:0:
329,174,29111,2,0,L|265:94,1,90
184,184,29530,2,0,L|248:264,1,90
329,174,29950,6,0,L|329:222,1,45
416,288,30160,2,0,L|416:240,1,45
480,184,30369,2,0,B|480:128|480:128|474:108|416:64,1,135
352,128,30789,6,0,B|320:176|320:176|272:176|248:128,1,135
255,140,31209,1,0,0:0:0:0:
112,248,31418,1,0,0:0:0:0:
136,112,31628,1,0,0:0:0:0:
216,224,31838,2,0,P|248:256|248:320,1,90
120,312,32258,1,0,0:0:0:0:
104,176,32467,2,0,L|104:72,1,90
208,176,32887,2,0,L|208:272,1,90
344,280,33307,6,8,L|304:320,1,45
181,302,33516,2,8,L|221:246,1,45
216,208,33726,2,0,B|176:256|176:256|144:248|144:184,1,135
168,104,34146,6,0,L|256:40,1,90
320,216,34565,1,0,0:0:0:0:
168,312,34775,1,0,0:0:0:0:
200,136,34985,1,0,0:0:0:0:
288,296,35195,2,0,P|336:320|472:288,1,180
336,168,35824,1,2,0:0:0:0:
248,187,36034,1,0,0:0:0:0:
145,196,36244,5,2,0:0:0:0:
80,144,37083,6,0,B|72:192|72:192|88:208|128:200|184:168,1,135
208,112,37502,2,0,L|240:224,1,90
264,328,37922,1,0,0:0:0:0:
368,240,38132,1,0,0:0:0:0:
232,198,38342,1,2,0:0:0:0:
160,304,38551,6,0,P|112:328|40:232,1,180
160,200,39181,2,0,L|160:96,1,90
264,200,39600,2,0,L|264:296,1,90
384,224,40020,2,0,L|384:120,1,90
266,99,40439,2,2,B|211:119|211:119|139:69,1,135
120,168,40859,6,0,B|112:200|112:200|112:224|160:232,1,90
264,152,41279,2,8,L|264:200,1,45
320,272,41488,2,8,L|320:216,1,45
376,152,41698,2,8,L|376:208,1,45
392,288,41908,2,0,P|424:320|512:312,1,135
508,314,42328,1,0,0:0:0:0:
300,297,42537,2,0,P|252:325|209:331,1,90
317,151,42957,2,0,P|341:188|347:233,1,90
210,241,43272,1,8,0:0:0:0:
210,241,43376,2,8,P|211:196|226:154,1,90
72,72,43796,6,0,P|120:96|72:200,1,180
272,200,44425,2,0,P|316:130|255:74,1,180
432,128,45055,2,0,L|408:224,1,90
296,288,45474,1,2,0:0:0:0:
272,152,45684,1,0,0:0:0:0:
232,280,45894,1,2,0:0:0:0:
208,144,46104,1,0,0:0:0:0:
168,272,46314,1,2,0:0:0:0:
144,136,46523,1,0,0:0:0:0:
96,264,46733,2,2,P|112:320|144:344,1,90
264,296,47153,6,0,B|288:240|288:240|328:272|392:192,1,180
264,136,47782,2,0,B|240:192|240:192|200:160|141:233,1,180
64,120,48411,2,0,L|144:64,1,90
88,192,48831,2,2,L|32:272,1,90
152,336,49251,1,0,0:0:0:0:
320,272,49460,1,2,0:0:0:0:
192,232,49670,1,0,0:0:0:0:
320,272,49880,1,8,0:0:0:0:
360,296,49985,1,8,0:0:0:0:
408,304,50090,1,8,0:0:0:0:
480,136,50300,1,0,0:0:0:0:
304,160,50509,6,8,L|304:96,1,45
224,64,50719,2,8,L|224:120,1,45
160,176,50929,2,8,L|160:120,1,45
88,80,51139,2,0,P|80:184|120:256,1,180
296,232,51768,2,8,L|296:288,1,45
384,248,51978,2,8,L|384:192,1,45
376,112,52188,1,0,0:0:0:0:
200,136,52397,1,0,0:0:0:0:
232,312,52607,1,0,0:0:0:0:
408,264,52817,6,0,P|440:224|416:96,1,180
248,136,53446,2,8,L|248:192,1,45
192,256,53656,2,8,L|192:208,1,45
104,192,53866,2,0,B|96:136|96:112|96:112|128:80|160:104,1,135
216,152,54286,6,0,B|248:120|264:112|264:112|312:128|296:176,1,135
298,166,54705,1,0,0:0:0:0:
200,320,54915,1,0,0:0:0:0:
368,264,55125,1,0,0:0:0:0:
192,224,55335,2,0,P|160:176|152:120,1,90
328,128,55754,1,0,0:0:0:0:
256,296,55964,2,0,L|176:336,1,90
80,240,56383,2,8,L|48:200,1,45
136,200,56593,2,8,L|176:168,1,45
80,152,56803,2,8,L|48:112,1,45
144,120,57013,2,8,L|192:88,1,45
272,88,57223,6,0,P|304:128|256:232,1,180
72,224,57852,2,0,P|40:264|88:368,1,180
224,256,58481,2,0,L|224:352,1,90
312,328,58901,1,2,0:0:0:0:
347,245,59111,1,0,0:0:0:0:
322,158,59321,1,2,0:0:0:0:
238,125,59530,1,0,0:0:0:0:
212,211,59740,1,2,0:0:0:0:
143,152,59950,1,0,0:0:0:0:
175,67,60160,1,2,0:0:0:0:
272,96,60579,6,0,B|256:160|256:160|160:176|160:112,1,180
176,304,61209,2,0,B|192:368|192:368|288:384|288:320,1,180
432,224,61838,2,0,L|392:304,1,90
392,120,62258,2,2,L|448:40,1,90
267,82,62677,1,0,0:0:0:0:
227,257,62887,1,2,0:0:0:0:
96,128,63097,1,0,0:0:0:0:
96,128,63307,2,8,L|120:168,2,45
264,192,63726,1,0,0:0:0:0:
352,296,63936,6,8,L|392:256,1,45
296,256,64146,2,8,L|264:288,1,45
192,232,64355,2,8,L|224:192,1,45
128,176,64565,2,0,P|96:208|112:344,1,180
280,288,65195,6,8,L|280:224,1,45
368,256,65404,2,8,L|368:208,1,45
288,168,65614,2,0,P|264:120|208:120,1,90
184,192,65929,2,0,L|184:288,1,90
96,288,66244,2,0,P|72:240|112:112,1,180
280,128,66873,1,0,0:0:0:0:
400,256,67083,1,0,0:0:0:0:
224,304,67293,2,0,B|192:344|192:344|176:336|176:256,1,135
192,176,67712,6,0,B|240:184|272:216|272:216|280:272,1,135
278,259,68132,1,0,0:0:0:0:
448,200,68342,1,0,0:0:0:0:
288,120,68551,1,0,0:0:0:0:
128,208,68761,2,0,P|112:264|120:320,1,90
296,320,69181,1,0,0:0:0:0:
224,160,69390,2,0,L|232:56,1,90
344,208,69810,1,8,0:0:0:0:
312,240,69915,1,8,0:0:0:0:
272,256,70020,1,8,0:0:0:0:
224,248,70125,1,8,0:0:0:0:
184,232,70230,6,8,L|128:208,1,45
224,184,70439,2,8,L|248:136,1,45
152,152,70649,2,0,P|112:120|32:128,1,135
72,208,71069,6,0,P|64:264|88:320,1,90
256,296,71488,1,0,0:0:0:0:
184,128,71698,1,0,0:0:0:0:
352,200,71908,1,0,0:0:0:0:
176,232,72118,2,0,B|144:280|144:280|112:280|96:240,1,90
96,136,72537,1,0,0:0:0:0:
232,160,72747,2,0,P|264:112|328:88,1,90
336,144,73062,1,0,0:0:0:0:
336,144,73167,6,0,L|336:256,1,90
240,336,73586,1,2,0:0:0:0:
144,184,73796,1,2,0:0:0:0:
320,232,74006,2,0,B|344:272|384:280|384:280|408:264|400:216,1,135
352,160,74425,2,0,B|304:128|304:128|288:128|256:160,1,90
224,216,74740,1,8,0:0:0:0:
224,216,74845,6,8,L|176:120,1,90
200,320,75265,1,0,0:0:0:0:
104,272,75474,1,0,0:0:0:0:
104,272,75684,2,0,L|64:184,1,90
240,136,76104,1,0,0:0:0:0:
336,288,76314,1,0,0:0:0:0:
336,288,76418,1,0,0:0:0:0:
336,288,76523,2,0,P|288:312|240:312,1,90
176,152,76943,2,8,L|184:200,1,45
264,152,77153,2,8,L|248:96,1,45
168,80,77362,2,0,B|120:64|120:64|96:64|88:152,1,135
168,184,77782,6,0,P|216:144|264:144,1,90
352,288,78202,1,0,0:0:0:0:
440,128,78411,1,0,0:0:0:0:
272,184,78621,1,0,0:0:0:0:
120,88,78831,1,0,0:0:0:0:
189,254,79041,1,2,0:0:0:0:
36,158,79251,1,0,0:0:0:0:
215,152,79460,1,2,0:0:0:0:
62,247,79670,1,0,0:0:0:0:
153,92,79880,5,2,0:0:0:0:
352,104,80719,2,2,P|352:160|288:216,1,135
216,168,81139,6,0,L|256:80,1,90
432,72,81558,1,0,0:0:0:0:
416,248,81768,1,0,0:0:0:0:
432,72,81978,1,0,0:0:0:0:
416,248,82188,2,0,P|400:304|336:336,1,90
256,208,82607,1,0,0:0:0:0:
104,312,82817,2,0,L|88:216,1,90
184,64,83237,2,0,L|232:160,1,90
336,288,83656,2,0,L|288:200,1,90
352,40,84076,2,2,P|392:64|424:160,1,135
384,224,84495,6,2,P|352:176|320:144,1,90
160,216,84915,1,0,0:0:0:0:
32,88,85125,1,0,0:0:0:0:
104,256,85335,1,0,0:0:0:0:
256,344,85544,2,0,P|304:344|368:296,1,90
288,256,85859,1,0,0:0:0:0:
288,256,85964,2,0,L|264:144,1,90
96,128,86383,1,0,0:0:0:0:
96,128,86488,1,0,0:0:0:0:
96,128,86593,2,0,P|120:88|176:64,1,90
284,105,87013,2,8,L|292:169,1,45
189,242,87223,2,8,L|197:298,1,45
296,296,87432,6,0,P|360:320|480:272,1,180
296,296,88062,2,0,P|360:320|480:272,1,180
400,168,88691,2,0,P|360:216|320:232,1,90
216,168,89111,2,0,L|216:240,1,45
168,264,89321,5,8,0:0:0:0:
168,264,89390,1,8,0:0:0:0:
168,264,89460,1,8,0:0:0:0:
168,264,89530,1,8,0:0:0:0:
104,144,89740,5,8,0:0:0:0:
104,144,89810,1,8,0:0:0:0:
104,144,89880,1,8,0:0:0:0:
104,144,89950,1,8,0:0:0:0:
240,160,90160,5,8,0:0:0:0:
240,160,90230,1,8,0:0:0:0:
240,160,90300,1,8,0:0:0:0:
240,160,90369,1,8,0:0:0:0:
280,288,90579,1,0,0:0:0:0:
144,272,90789,6,0,P|96:208|96:88,1,180
144,272,91418,2,0,P|96:208|96:88,1,180
224,80,92048,2,0,P|192:128|192:176,1,90
296,240,92467,2,0,L|288:288,1,45
224,312,92677,5,8,0:0:0:0:
224,312,92747,1,8,0:0:0:0:
224,312,92817,1,8,0:0:0:0:
224,312,92887,1,8,0:0:0:0:
152,200,93097,1,0,0:0:0:0:
264,128,93307,5,8,0:0:0:0:
304,120,93376,1,8,0:0:0:0:
344,120,93446,1,8,0:0:0:0:
384,136,93516,1,8,0:0:0:0:
264,128,93726,5,8,0:0:0:0:
304,120,93795,1,8,0:0:0:0:
344,120,93865,1,8,0:0:0:0:
384,136,93935,1,8,0:0:0:0:
368,256,94146,6,0,P|344:304|304:328,1,90
216,176,94565,1,0,0:0:0:0:
216,176,94775,1,0,0:0:0:0:
88,304,94985,2,0,P|72:256|72:208,1,90
216,176,95404,1,0,0:0:0:0:
216,176,95614,1,0,0:0:0:0:
384,120,95824,2,0,P|432:160|448:184,1,90
216,176,96244,1,0,0:0:0:0:
216,176,96453,1,0,0:0:0:0:
128,336,96663,2,0,P|120:272|136:224,1,90
296,184,97083,2,0,P|304:140|298:95,1,90
152,200,97502,5,0,0:0:0:0:
312,280,97712,1,0,0:0:0:0:
184,328,97922,1,0,0:0:0:0:
256,216,98132,1,0,0:0:0:0:
168,248,98342,1,0,0:0:0:0:
248,288,98551,1,0,0:0:0:0:
232,248,98761,1,0,0:0:0:0:
200,280,98971,1,0,0:0:0:0:
200,272,99181,5,0,0:0:0:0:
200,264,99390,1,0,0:0:0:0:
200,280,99600,1,0,0:0:0:0:
200,280,99810,1,0,0:0:0:0:
72,152,100020,1,0,0:0:0:0:
240,216,100230,1,0,0:0:0:0:
104,328,100439,6,0,P|80:280|88:232,1,90
248,160,100859,2,2,B|280:120|280:120|288:112|328:144|288:256,1,180
248,160,101488,2,2,B|280:120|280:120|288:112|328:144|288:256,1,180
168,288,102118,2,2,P|176:224|192:192,1,90
272,304,102537,2,2,P|248:360|238:370,1,45
204,381,102747,1,0,0:0:0:0:
154,342,102852,1,8,0:0:0:0:
126,285,102957,1,8,0:0:0:0:
137,222,103062,1,8,0:0:0:0:
171,169,103167,1,8,0:0:0:0:
400,152,103376,5,8,0:0:0:0:
352,224,103481,1,8,0:0:0:0:
280,272,103586,1,8,0:0:0:0:
192,264,103691,1,8,0:0:0:0:
120,216,103796,1,8,0:0:0:0:
72,144,103901,1,8,0:0:0:0:
56,56,104006,1,8,0:0:0:0:
232,80,104216,6,2,P|240:128|200:256,1,180
232,80,104845,2,2,P|240:128|200:256,1,180
72,128,105474,2,2,P|104:80|144:56,1,90
120,240,105894,2,0,L|120:318,1,45
138,345,106104,1,0,0:0:0:0:
208,344,106209,5,8,0:0:0:0:
265,309,106314,1,8,0:0:0:0:
314,263,106418,1,8,0:0:0:0:
341,201,106523,1,8,0:0:0:0:
209,169,106733,2,8,L|184:154,5,30
234,120,107153,2,8,L|270:140,5,30
184,88,107572,6,0,P|128:80|48:232,1,225
128,208,108202,2,0,P|128:264|264:344,1,225
312,272,108831,2,0,P|336:184|368:144,1,135
424,216,109251,2,0,P|416:144|272:104,1,225
216,152,109880,2,0,P|176:184|208:336,1,225
288,304,110509,2,0,L|296:200,1,90
256,192,110929,12,0,114128,0:0:0:0:
160,104,116910,5,0,0:0:0:0:
232,168,117108,1,0,0:0:0:0:
328,152,117307,1,0,0:0:0:0:
408,208,117506,1,0,0:0:0:0:
368,296,117704,2,0,P|336:328|304:336,1,62.9999980773926
280,248,118102,2,0,P|296:216|280:136,1,94.499997116089
264,120,118499,1,0,0:0:0:0:
216,200,118698,1,0,0:0:0:0:
136,152,118897,2,0,P|88:120|88:112,1,62.9999980773926
272,96,119493,2,0,P|304:128|312:224,1,125.999996154785
248,272,120089,5,0,0:0:0:0:
160,248,120287,1,0,0:0:0:0:
168,152,120486,1,0,0:0:0:0:
264,160,120685,1,0,0:0:0:0:
264,256,120883,2,0,P|256:304|264:336,1,62.9999980773926
184,264,121281,2,0,L|192:192,2,62.9999980773926
144,352,121877,1,0,0:0:0:0:
88,272,122075,2,0,P|72:216|80:184,1,62.9999980773926
136,144,122473,2,0,P|152:176|152:208,1,62.9999980773926
160,296,122870,2,0,P|176:328|264:360,1,125.999996154785
376,216,123665,6,0,P|400:192|416:160,1,62.9999980773926
320,184,124062,2,0,P|344:160|360:128,1,62.9999980773926
263,146,124459,2,0,P|287:122|303:90,1,62.9999980773926
206,110,124857,2,0,P|230:86|246:54,1,62.9999980773926
150,77,125254,1,0,0:0:0:0:
85,164,125453,6,0,P|93:204|109:236,1,62.9999980773926
192,239,125850,2,0,P|176:199|160:175,1,62.9999980773926
120,104,126248,1,0,0:0:0:0:
56,168,126446,1,0,0:0:0:0:
72,264,126645,2,0,P|104:296|256:290,1,188.999994232178
333,249,127440,5,0,0:0:0:0:
347,143,127638,2,0,P|307:127|139:231,1,251.999992309571
207,306,128632,2,0,L|247:362,1,62.9999980773926
297,264,129029,2,0,L|265:200,1,62.9999980773926
198,122,129426,1,0,0:0:0:0:
256,64,129625,1,0,0:0:0:0:
352,72,129824,1,0,0:0:0:0:
364,114,129923,1,0,0:0:0:0:
376,160,130022,6,0,P|384:200|384:248,1,62.9999980773926
328,296,130420,2,0,P|320:256|312:216,1,62.9999980773926
288,144,130817,2,0,P|256:112|184:112,1,94.499997116089
160,112,131214,5,0,0:0:0:0:
160,208,131413,1,0,0:0:0:0:
128,296,131612,2,0,L|96:328,1,31.4999990386963
56,320,131810,2,0,P|40:288|51:245,1,62.9999980773926
80,200,132208,2,0,P|115:215|216:192,1,125.999996154785
272,136,132804,1,0,0:0:0:0:
368,144,133002,1,0,0:0:0:0:
328,232,133201,2,0,P|312:264|280:304,1,62.9999980773926
256,200,133599,2,0,L|280:120,1,62.9999980773926
192,96,133996,2,0,P|144:88|104:136,1,94.499997116089
80,152,134393,5,0,0:0:0:0:
144,224,134592,1,0,0:0:0:0:
224,168,134791,2,0,L|248:136,1,31.4999990386963
280,112,134989,2,0,P|328:104|392:136,1,94.499997116089
384,168,135387,2,0,L|368:304,1,125.999996154785
272,304,135983,2,0,P|232:280|240:304,1,94.499997116089
192,312,136380,6,0,P|152:288|144:264,1,62.9999980773926
72,224,136777,2,0,P|89:249|118:261,1,62.9999980773926
208,240,137175,2,0,P|168:216|160:192,1,62.9999980773926
80,152,137572,2,0,P|97:177|126:189,1,62.9999980773926
216,152,137969,1,0,0:0:0:0:
312,152,138168,6,0,P|344:160|376:216,1,94.499997116089
416,232,138565,2,0,P|434:197|416:112,1,125.999996154785
328,112,139161,1,0,0:0:0:0:
256,176,139360,2,0,P|288:208|240:328,1,188.999994232178
168,272,140155,1,0,0:0:0:0:
168,176,140353,2,0,P|200:136|288:112,1,125.999996154785
288,200,140949,1,0,0:0:0:0:
384,176,141148,2,0,L|384:88,1,62.9999980773926
456,176,141546,2,0,L|456:112,1,62.9999980773926
384,48,141943,2,0,P|352:40|312:32,1,62.9999980773926
256,104,142340,2,0,L|248:176,1,62.9999980773926
256,304,142738,5,8,0:0:0:0:
136,184,142936,1,8,0:0:0:0:
256,304,143135,1,8,0:0:0:0:
376,168,143334,1,8,0:0:0:0:
208,104,143532,2,0,P|160:88|80:248,1,270
344,184,144327,5,8,0:0:0:0:
192,288,144526,1,8,0:0:0:0:
344,187,144724,1,8,0:0:0:0:
168,232,144923,1,8,0:0:0:0:
320,128,145122,2,0,P|352:96|448:224,1,270
296,304,145916,5,8,0:0:0:0:
144,208,146115,1,8,0:0:0:0:
344,187,146314,1,8,0:0:0:0:
216,288,146512,1,8,0:0:0:0:
72,184,146711,2,0,P|56:128|216:112,1,270
336,224,147506,5,8,0:0:0:0:
160,208,147704,1,8,0:0:0:0:
360,184,147903,1,8,0:0:0:0:
184,168,148102,1,8,0:0:0:0:
344,136,148300,2,0,P|336:80|168:112,1,270
176,232,149095,6,0,P|176:288|184:320,1,90
320,296,149493,2,0,P|336:240|336:200,1,90
232,120,149890,2,0,P|184:112|104:176,1,135
108,191,150287,2,0,P|124:239|228:287,1,135
227,286,150685,6,0,P|251:238|275:214,1,45
288,156,150883,2,0,P|240:140|144:177,1,135
160,80,151281,2,0,P|216:64|304:88,1,135
352,144,151678,2,0,P|384:176|392:264,1,135
328,288,152075,6,0,P|301:226|136:184,1,236.250009012223
120,240,152870,2,0,L|120:304,1,33.7500012874604
168,328,153069,6,0,B|224:376|248:304|320:320|368:336,1,202.500007724762
432,224,153863,2,0,P|448:176|440:144,1,67.5000025749208
312,176,154261,2,0,P|280:216|272:240,1,67.5000025749208
344,112,154658,2,0,P|368:88|400:72,1,67.5000025749208
272,120,155055,2,0,P|224:136|216:152,1,67.5000025749208
344,280,155453,5,8,0:0:0:0:
136,200,155651,1,8,0:0:0:0:
320,64,155850,1,8,0:0:0:0:
264,280,156049,1,8,0:0:0:0:
136,96,156248,2,0,P|88:120|144:288,1,270
264,280,157042,5,8,0:0:0:0:
392,96,157241,1,8,0:0:0:0:
264,280,157440,1,8,0:0:0:0:
392,96,157638,1,8,0:0:0:0:
224,248,157837,2,0,P|168:256|200:104,1,270
392,80,158632,5,8,0:0:0:0:
400,304,158830,1,8,0:0:0:0:
176,312,159029,1,8,0:0:0:0:
176,88,159228,1,8,0:0:0:0:
392,80,159426,2,0,P|448:88|384:224,1,270
208,96,160221,5,8,0:0:0:0:
344,280,160420,1,8,0:0:0:0:
120,312,160618,1,8,0:0:0:0:
208,96,160817,1,8,0:0:0:0:
344,280,161016,2,0,P|400:296|384:152,1,270
224,288,161810,6,0,P|192:240|200:200,1,90
344,112,162208,2,0,P|344:168|328:200,1,90
184,96,162605,2,0,P|128:80|72:144,1,135
128,200,163002,2,0,P|112:248|128:336,1,135
216,320,163400,2,0,P|224:264|232:248,1,45
304,256,163599,2,0,P|296:208|232:128,1,135
160,168,163996,2,0,P|184:120|264:88,1,135
320,152,164393,2,0,P|352:192|344:272,1,135
280,296,164791,1,0,0:0:0:0:
168,216,164989,6,0,P|176:168|208:136,1,67.5000025749208
141,172,165387,2,0,P|161:137|194:110,1,67.5000025749208
312,217,165784,2,0,P|331:253|336:295,1,67.5000025749208
206,202,166181,2,0,P|214:169|232:140,1,67.5000025749208
400,176,166579,5,0,0:0:0:0:
424,272,166777,1,0,0:0:0:0:
336,320,166976,1,0,0:0:0:0:
230,294,167175,1,0,0:0:0:0:
168,224,167373,1,0,0:0:0:0:
168,120,167572,5,0,0:0:0:0:
288,56,167771,5,0,0:0:0:0:
384,192,167969,5,0,0:0:0:0:
184,240,168168,6,0,P|144:232|120:208,1,67.5000025749208
208,160,168565,2,0,P|248:176|280:208,1,67.5000025749208
328,272,168963,1,0,0:0:0:0:
404,206,169161,1,0,0:0:0:0:
403,104,169360,1,0,0:0:0:0:
304,120,169559,1,0,0:0:0:0:
240,200,169757,2,0,L|224:168,1,33.7500012874604
160,152,169956,2,0,P|166:172|208:232,1,67.5000025749208
240,336,170353,2,0,P|192:344|96:304,1,135.000005149842
112,184,170949,1,0,0:0:0:0:
224,104,171148,1,8,0:0:0:0:
224,104,171248,1,8,0:0:0:0:
224,104,171347,6,8,P|264:112|312:128,1,67.5000025749208
288,256,171744,2,0,L|256:328,1,67.5000025749208
392,272,172142,1,0,0:0:0:0:
320,160,172340,1,0,0:0:0:0:
456,176,172539,1,0,0:0:0:0:
288,256,172738,1,0,0:0:0:0:
240,120,172936,2,0,P|216:80|208:64,1,33.7500012874604
160,64,173135,2,0,P|136:96|120:144,1,67.5000025749208
224,216,173532,2,0,P|264:192|336:120,1,135.000005149842
456,184,174128,2,0,B|440:216|440:216|440:232|440:232|448:232|432:264|432:264|432:280|432:280|432:288|440:304,1,101.250003862381
400,336,174526,6,0,P|368:336|320:320,1,62.9999980773926
216,304,174923,2,0,P|246:311|277:311,1,62.9999980773926
392,264,175320,2,0,P|360:264|312:248,1,62.9999980773926
208,240,175718,2,0,P|238:247|269:247,1,62.9999980773926
392,264,176115,2,0,P|432:240|456:208,1,62.9999980773926
320,192,176512,1,0,0:0:0:0:
216,256,176711,2,0,P|188:241|165:220,1,62.9999980773926
184,96,177108,1,0,0:0:0:0:
312,88,177307,1,0,0:0:0:0:
280,208,177506,6,0,P|256:240|96:240,1,188.999994232178
152,136,178300,1,0,0:0:0:0:
216,248,178499,2,0,P|232:288|320:328,1,125.999996154785
384,232,179095,1,0,0:0:0:0:
296,144,179294,2,0,P|272:112|272:88,1,62.9999980773926
232,208,179691,2,0,P|235:238|256:261,1,62.9999980773926
368,320,180089,1,0,0:0:0:0:
464,264,180287,1,0,0:0:0:0:
480,176,180486,1,0,0:0:0:0:
464,264,180685,1,0,0:0:0:0:
432,272,180784,1,0,0:0:0:0:
400,264,180883,6,0,P|368:240|352:208,1,62.9999980773926
232,232,181281,2,0,P|264:208|280:176,1,62.9999980773926
400,152,181678,2,0,P|368:128|352:96,1,62.9999980773926
232,80,182075,1,0,0:0:0:0:
136,168,182274,1,0,0:0:0:0:
232,184,182473,1,0,0:0:0:0:
240,192,182671,1,0,0:0:0:0:
248,192,182870,1,0,0:0:0:0:
256,192,183069,2,0,P|320:160|296:64,1,157.499995193482
264,48,183665,1,0,0:0:0:0:
208,160,183863,1,0,0:0:0:0:
272,264,184062,6,0,P|304:288|344:296,1,62.9999980773926
208,336,184459,2,0,P|178:325|154:305,1,62.9999980773926
56,224,184857,2,0,P|64:256|120:320,1,94.499997116089
144,344,185254,1,0,0:0:0:0:
224,248,185453,1,0,0:0:0:0:
344,200,185651,1,0,0:0:0:0:
256,160,185850,1,0,0:0:0:0:
328,120,186049,1,0,0:0:0:0:
248,88,186248,2,0,P|224:56|128:48,1,125.999996154785
80,88,186844,6,0,B|64:120|64:120|64:136|64:136|72:136|56:168|56:168|56:184|56:184|56:192|64:200,1,94.499997116089
72,216,187241,2,0,P|104:240|144:248,1,62.9999980773926
136,328,187638,2,0,P|106:317|82:297,1,62.9999980773926
208,328,188036,2,0,P|240:320|272:304,1,62.9999980773926
256,184,188433,2,0,P|227:197|196:204,1,62.9999980773926
80,152,188830,2,0,P|96:120|144:80,1,94.499997116089
200,96,189228,1,0,0:0:0:0:
208,224,189426,2,0,P|208:272|264:320,1,125.999996154785
376,272,190022,1,0,0:0:0:0:
312,168,190221,1,8,0:0:0:0:
312,168,190320,1,8,0:0:0:0:
312,168,190420,6,8,P|304:128|288:96,1,62.9999980773926
208,200,190817,2,0,P|196:229|191:260,1,62.9999980773926
288,344,191214,2,0,P|304:312|312:280,1,62.9999980773926
384,184,191612,2,0,P|402:147|409:112,1,62.9999980773926
304,200,192009,2,0,P|272:176|256:152,1,62.9999980773926
136,160,192406,1,0,0:0:0:0:
168,280,192605,1,0,0:0:0:0:
288,320,192804,1,0,0:0:0:0:
408,288,193002,1,0,0:0:0:0:
424,128,193201,1,0,0:0:0:0:
256,48,193400,1,0,0:0:0:0:
176,208,193599,5,0,0:0:0:0:
352,208,193797,1,0,0:0:0:0:
184,264,193996,1,0,0:0:0:0:
368,264,194195,1,0,0:0:0:0:
200,320,194393,2,0,P|136:320|80:128,1,270
240,112,195188,5,0,0:0:0:0:
264,288,195387,1,0,0:0:0:0:
312,112,195585,1,0,0:0:0:0:
328,288,195784,1,0,0:0:0:0:
376,112,195983,2,0,P|392:64|464:176,1,270
408,304,196777,5,0,0:0:0:0:
272,192,196976,1,0,0:0:0:0:
368,344,197175,1,0,0:0:0:0:
232,224,197373,1,0,0:0:0:0:
96,344,197572,2,0,P|48:304|128:144,1,270
296,176,198367,5,0,0:0:0:0:
120,200,198565,1,0,0:0:0:0:
288,128,198764,1,0,0:0:0:0:
112,144,198963,1,0,0:0:0:0:
280,72,199161,2,0,P|336:56|392:216,1,270
256,328,199956,6,0,P|240:280|248:232,1,90
424,208,200353,2,0,P|439:166|435:121,1,90
256,104,200751,2,0,P|208:120|144:192,1,135
200,256,201148,2,0,L|328:312,1,135
400,264,201546,2,0,P|424:224|416:192,1,45
336,208,201744,2,0,L|248:96,1,135
176,152,202142,2,0,B|144:184|88:192|88:192|80:176|96:120,1,135
136,80,202539,2,0,P|184:56|272:48,1,135
296,104,202936,6,0,P|312:152|263:305,1,202.500007724762
144,256,203731,1,0,0:0:0:0:
240,160,203930,2,0,P|280:136|432:168,1,202.500007724762
376,288,204724,2,0,L|344:216,1,67.5000025749208
216,208,205122,2,0,L|248:288,1,67.5000025749208
128,352,205519,1,0,0:0:0:0:
80,224,205718,1,0,0:0:0:0:
160,112,205916,1,0,0:0:0:0:
336,160,206115,1,0,0:0:0:0:
208,288,206314,5,8,0:0:0:0:
80,160,206512,1,8,0:0:0:0:
240,240,206711,1,8,0:0:0:0:
112,112,206910,1,8,0:0:0:0:
272,192,207108,2,0,P|320:232|488:152,1,270
328,80,207903,5,8,0:0:0:0:
336,264,208102,1,8,0:0:0:0:
264,96,208300,1,8,0:0:0:0:
272,280,208499,1,8,0:0:0:0:
208,112,208698,2,0,P|152:88|88:256,1,270
240,280,209493,5,8,0:0:0:0:
392,184,209691,1,8,0:0:0:0:
384,368,209890,1,8,0:0:0:0:
304,208,210089,1,8,0:0:0:0:
160,312,210287,2,0,P|104:280|184:120,1,270
344,112,211082,5,8,0:0:0:0:
264,272,211281,1,8,0:0:0:0:
272,96,211479,1,8,0:0:0:0:
328,264,211678,1,8,0:0:0:0:
216,128,211877,2,0,P|184:96|56:216,1,270
176,336,212671,6,0,P|192:288|192:240,1,90
32,176,213069,2,0,P|34:131|49:88,1,90
232,80,213466,2,0,P|272:112|288:208,1,135
232,80,213863,2,0,P|272:112|288:208,1,135
232,80,214261,2,0,P|280:64|296:72,1,45
352,136,214459,2,0,P|384:192|368:288,1,135
288,264,214857,2,0,L|200:152,1,135
120,136,215254,2,0,P|96:176|80:240,1,90
224,336,215651,1,0,0:0:0:0:
360,200,215850,5,8,0:0:0:0:
216,96,216037,1,8,0:0:0:0:
216,96,216225,1,8,0:0:0:0:
168,272,216412,5,8,0:0:0:0:
304,152,216600,1,8,0:0:0:0:
304,152,216787,1,8,0:0:0:0:
96,240,216975,5,8,0:0:0:0:
192,40,217162,1,8,0:0:0:0:
192,40,217350,1,8,0:0:0:0:
272,248,217537,5,8,0:0:0:0:
104,96,217725,1,8,0:0:0:0:
104,96,217912,1,8,0:0:0:0:
176,312,218100,5,8,0:0:0:0:
304,128,218287,1,8,0:0:0:0:
88,56,218475,1,8,0:0:0:0:
408,312,218662,5,8,0:0:0:0:
232,168,218850,1,8,0:0:0:0:
80,336,219037,5,8,0:0:0:0:
80,336,219225,1,8,0:0:0:0:
296,272,219412,1,8,0:0:0:0:
408,80,219600,1,8,0:0:0:0:
408,80,219787,1,8,0:0:0:0:
200,160,219975,1,8,0:0:0:0:
392,272,220162,5,8,0:0:0:0:
392,272,220350,1,8,0:0:0:0:
168,272,220537,1,8,0:0:0:0:
168,48,220725,5,8,0:0:0:0:
336,280,220912,1,8,0:0:0:0:
336,56,221100,5,8,0:0:0:0:
80,304,221287,1,8,0:0:0:0:
400,144,221475,1,8,0:0:0:0:
56,248,221662,1,8,0:0:0:0:
392,280,221795,5,8,0:0:0:0:
264,320,221964,2,0,P|232:304|208:272,1,67.5000025749208
304,184,222303,1,0,0:0:0:0:
440,176,222472,2,0,P|470:161|492:136,1,67.5000025749208
360,112,222811,6,8,P|304:88|208:112,2,135.000005149842
320,240,223659,1,0,0:0:0:0:
184,224,223828,1,0,0:0:0:0:
120,344,223998,2,0,P|80:336|48:304,1,67.5000025749208
184,224,224337,1,0,0:0:0:0:
272,120,224506,2,0,P|312:96|352:80,1,67.5000025749208
328,224,224845,6,8,P|312:272|240:328,2,135.000005149842
304,88,225693,1,0,0:0:0:0:
200,168,225862,1,0,0:0:0:0:
304,248,226032,2,0,P|319:277|343:301,1,67.5000025749208
200,168,226371,1,0,0:0:0:0:
88,248,226540,2,0,P|56:296|32:312,1,67.5000025749208
80,168,226879,6,8,P|96:120|184:56,2,135.000005149842
176,264,227727,1,0,0:0:0:0:
246,149,227896,2,0,P|263:89|285:60,1,67.5000025749208
397,114,228235,1,0,0:0:0:0:
376,247,228405,2,0,P|341:261|303:257,1,67.5000025749208
194,327,228744,1,0,0:0:0:0:
72,256,228913,5,8,0:0:0:0:
64,208,229026,1,8,0:0:0:0:
64,160,229139,1,8,0:0:0:0:
88,120,229252,1,8,0:0:0:0:
128,96,229365,1,8,0:0:0:0:
176,104,229478,1,8,0:0:0:0:
216,152,229591,1,8,0:0:0:0:
272,184,229704,1,8,0:0:0:0:
328,144,229817,1,8,0:0:0:0:
376,96,229930,6,0,P|416:64|448:48,1,67.5000025749208
408,192,230269,1,0,0:0:0:0:
344,304,230439,1,0,0:0:0:0:
224,240,230608,2,0,P|200:208|192:160,1,67.5000025749208
399,86,230947,6,8,P|439:159|460:260,1,135.000005149842
192,181,231286,2,8,P|235:109|312:40,1,135.000005149842
385,329,231625,2,8,P|301:327|202:294,1,135.000005149842
144,200,231964,5,0,0:0:0:0:
280,192,232133,2,0,P|304:152|320:120,1,67.5000025749208
184,112,232472,1,0,0:0:0:0:
56,160,232642,2,0,P|40:200|40:248,1,67.5000025749208
152,304,232981,6,8,P|224:272|296:176,1,135.000005149842
279,90,233320,2,8,P|215:43|96:29,1,135.000005149842
61,101,233659,2,8,P|52:179|99:289,1,135.000005149842
320,176,233998,1,0,0:0:0:0:
232,256,234167,6,0,P|176:272|160:272,1,67.5000025749208
320,176,234506,1,0,0:0:0:0:
352,288,234676,2,0,P|384:320|408:336,1,67.5000025749208
448,208,235015,6,8,P|440:128|392:64,1,135.000005149842
277,63,235354,2,8,P|211:109|180:183,1,135.000005149842
223,287,235693,2,8,P|296:320|375:310,1,135.000005149842
112,200,236032,1,0,0:0:0:0:
216,160,236201,6,0,P|248:128|272:80,1,67.5000025749208
112,200,236540,1,0,0:0:0:0:
192,280,236710,2,0,P|216:320|240:344,1,67.5000025749208
344,312,237049,1,8,0:0:0:0:
392,272,237162,1,8,0:0:0:0:
424,216,237275,1,8,0:0:0:0:
432,152,237388,1,8,0:0:0:0:
416,88,237501,1,8,0:0:0:0:
368,48,237614,1,8,0:0:0:0:
304,40,237727,1,8,0:0:0:0:
240,56,237840,1,8,0:0:0:0:
200,104,237953,1,8,0:0:0:0:
184,168,238066,6,0,P|176:208|176:248,1,67.5000025749208
304,280,238405,1,0,0:0:0:0:
360,160,238574,1,0,0:0:0:0:
240,104,238744,2,0,P|208:80|176:64,1,67.5000025749208
152,200,239083,6,8,P|184:272|248:336,1,135.000005149842
416,128,239422,2,8,P|360:80|288:64,1,135.000005149842
320,336,239761,2,8,P|408:288|432:256,1,135.000005149842
320,176,240100,5,0,0:0:0:0:
224,272,240269,2,0,P|184:304|160:312,1,67.5000025749208
320,176,240608,1,0,0:0:0:0:
184,160,240778,2,0,P|144:144|120:120,1,67.5000025749208
328,96,241117,6,8,P|392:136|424:240,1,135.000005149842
216,360,241456,2,8,P|216:280|256:192,1,135.000005149842
328,96,241795,2,8,P|392:136|424:240,1,135.000005149842
344,296,242133,5,0,0:0:0:0:
216,328,242303,2,0,P|160:304|144:280,1,67.5000025749208
344,296,242642,1,0,0:0:0:0:
296,168,242811,2,0,P|328:136|360:112,1,67.5000025749208
256,224,243150,6,8,P|184:208|120:168,1,135.000005149842
400,224,243489,2,8,P|376:304|352:368,1,135.000005149842
256,224,243828,2,8,P|184:208|120:168,1,135.000005149842
240,96,244167,5,0,0:0:0:0:
344,176,244337,2,0,P|360:216|368:248,1,67.5000025749208
240,96,244676,1,0,0:0:0:0:
192,224,244845,2,0,P|160:256|136:264,1,67.5000025749208
64,200,245184,5,8,0:0:0:0:
88,136,245297,1,8,0:0:0:0:
136,96,245410,1,8,0:0:0:0:
200,88,245523,1,8,0:0:0:0:
248,136,245636,1,8,0:0:0:0:
256,200,245749,1,8,0:0:0:0:
272,264,245862,1,8,0:0:0:0:
320,312,245975,1,8,0:0:0:0:
384,312,246088,1,8,0:0:0:0:
440,272,246201,6,0,P|464:240|488:200,1,67.5000025749208
384,120,246540,1,0,0:0:0:0:
344,248,246710,1,0,0:0:0:0:
248,152,246879,2,0,P|208:112|176:104,1,67.5000025749208
208,240,247218,6,8,P|264:296|344:328,1,135.000005149842
440,80,247557,2,8,P|448:168|440:224,1,135.000005149842
208,240,247896,2,8,P|264:296|344:328,1,135.000005149842
176,328,248235,5,0,0:0:0:0:
88,224,248405,2,0,P|80:192|88:144,1,67.5000025749208
176,328,248744,1,0,0:0:0:0:
248,216,248913,2,0,P|256:168|248:144,1,67.5000025749208
128,88,249252,6,8,P|80:144|48:224,1,135.000005149842
304,296,249591,2,8,L|312:160,1,135.000005149842
128,88,249930,2,8,P|80:144|48:224,1,135.000005149842
168,280,250269,5,0,0:0:0:0:
232,160,250439,2,0,P|256:120|272:96,1,67.5000025749208
168,280,250778,1,0,0:0:0:0:
304,240,250947,2,0,P|336:224|368:200,1,67.5000025749208
240,144,251286,6,8,P|176:72|136:48,1,135.000005149842
80,176,251625,2,8,P|80:256|104:328,1,135.000005149842
240,144,251964,2,8,P|176:72|136:48,1,135.000005149842
176,184,252303,5,0,0:0:0:0:
272,280,252472,2,0,P|320:312|352:320,1,90
176,184,252811,1,0,0:0:0:0:
96,296,252981,2,0,P|56:344|24:352,1,90
160,320,253320,1,8,0:0:0:0:
216,296,253433,1,8,0:0:0:0:
256,256,253546,1,8,0:0:0:0:
280,200,253659,1,8,0:0:0:0:
280,144,253772,1,8,0:0:0:0:
245,94,253885,1,8,0:0:0:0:
194,62,253998,1,8,0:0:0:0:
134,70,254111,1,8,0:0:0:0:
76,87,254224,1,8,0:0:0:0:
43,137,254337,6,0,P|29:188|29:229,1,90
97,321,254676,1,0,0:0:0:0:
207,244,254845,2,0,P|247:212|279:180,1,90
352,288,255184,1,0,0:0:0:0:
352,288,255354,6,8,P|272:328|200:320,1,135.000005149842
232,192,255693,2,8,P|256:104|288:56,1,135.000005149842
352,288,256032,2,8,P|272:328|200:320,1,135.000005149842
152,216,256371,5,0,0:0:0:0:
280,184,256540,2,0,P|312:144|328:96,1,90
152,216,256879,1,0,0:0:0:0:
56,120,257049,2,0,P|48:64|64:24,1,90
192,64,257388,6,8,P|272:48|352:72,1,135.000005149842
232,160,257727,2,8,P|208:224|200:296,1,135.000005149842
192,64,258066,2,8,P|272:48|352:72,1,135.000005149842
392,176,258405,5,0,0:0:0:0:
312,288,258574,2,0,P|272:320|224:328,1,90
392,176,258913,1,0,0:0:0:0:
264,128,259083,2,0,P|220:139|186:168,1,90
344,296,259422,6,8,P|416:264|472:208,1,135.000005149842
256,240,259761,2,8,P|193:265|142:309,1,135.000005149842
344,296,260100,2,8,P|416:264|472:208,1,135.000005149842
376,120,260439,5,0,0:0:0:0:
248,96,260608,2,0,P|200:64|176:32,1,90
376,120,260947,1,0,0:0:0:0:
248,168,261117,2,0,P|208:192|168:240,1,90
272,320,261456,1,8,0:0:0:0:
328,296,261569,1,8,0:0:0:0:
360,240,261682,1,8,0:0:0:0:
344,184,261795,1,8,0:0:0:0:
304,136,261907,1,8,0:0:0:0:
248,136,262020,1,8,0:0:0:0:
192,144,262133,1,8,0:0:0:0:
144,184,262246,1,8,0:0:0:0:
136,240,262359,1,8,0:0:0:0:
160,280,262472,6,0,L|208:328,1,67.5
280,312,262811,2,0,B|328:280|336:264|336:264|336:240|304:208,1,135
240,192,263173,2,0,P|176:176|192:88,1,135
208,64,263511,1,0,0:0:0:0:
376,136,263737,5,8,0:0:0:0:
376,136,263850,1,8,0:0:0:0:
232,240,264076,1,8,0:0:0:0:
232,240,264189,1,8,0:0:0:0:
296,72,264415,1,8,0:0:0:0:
296,72,264528,1,8,0:0:0:0:
144,168,264754,1,8,0:0:0:0:
144,168,264867,1,8,0:0:0:0:
272,296,265093,1,8,0:0:0:0:
272,296,265206,6,0,P|336:264|376:208,1,120
280,216,265545,2,0,P|208:232|160:272,1,120
104,320,265884,5,0,0:0:0:0:
187,156,266110,1,8,0:0:0:0:
187,156,266223,1,8,0:0:0:0:
368,192,266449,1,8,0:0:0:0:
368,192,266562,1,8,0:0:0:0:
230,76,266788,1,8,0:0:0:0:
230,76,266901,1,8,0:0:0:0:
300,241,267127,1,8,0:0:0:0:
300,241,267240,1,8,0:0:0:0:
152,343,267466,1,8,0:0:0:0:
152,343,267579,1,8,0:0:0:0:
197,168,267805,1,8,0:0:0:0:
200,160,267918,6,0,P|248:112|336:88,1,120
288,184,268257,2,0,L|280:312,1,120
200,344,268596,5,0,0:0:0:0:
88,208,268822,1,8,0:0:0:0:
61,167,268935,1,8,0:0:0:0:
208,232,269161,1,8,0:0:0:0:
234,271,269274,1,8,0:0:0:0:
51,115,269500,1,8,0:0:0:0:
74,73,269613,1,8,0:0:0:0:
267,131,269867,1,8,0:0:0:0:
250,163,269952,1,8,0:0:0:0:
412,239,270178,1,8,0:0:0:0:
385,279,270291,1,8,0:0:0:0:
152,312,270517,1,8,0:0:0:0:
152,312,270630,6,0,P|88:280|48:192,1,120
160,240,270969,2,0,L|280:296,1,120
352,336,271308,5,0,0:0:0:0:
416,144,271534,1,8,0:0:0:0:
344,56,271647,1,8,0:0:0:0:
176,216,271873,1,8,0:0:0:0:
272,280,271986,1,8,0:0:0:0:
344,56,272212,1,8,0:0:0:0:
416,144,272325,1,8,0:0:0:0:
272,280,272551,1,8,0:0:0:0:
176,216,272664,1,8,0:0:0:0:
24,48,272890,1,8,0:0:0:0:
104,128,273003,1,8,0:0:0:0:
320,192,273229,5,8,0:0:0:0:
371,208,273342,1,8,0:0:0:0:
405,249,273455,1,8,0:0:0:0:
409,302,273568,1,8,0:0:0:0:
366,335,273681,1,8,0:0:0:0:
284,315,273794,5,8,0:0:0:0:
272,231,273907,5,8,0:0:0:0:
183,249,274020,1,8,0:0:0:0:
162,149,274189,5,0,0:0:0:0:
284,91,274359,1,0,0:0:0:0:
256,208,274529,1,0,0:0:0:0:
368,128,274699,2,0,P|400:168|416:224,1,90
248,136,275038,2,0,P|216:96|176:80,1,90
136,256,275378,2,0,P|176:232|264:248,1,135
344,264,275717,2,0,P|376:192|368:128,1,135
280,112,276057,6,0,B|272:112|272:112|256:64|184:104|168:72,1,90
168,264,276396,2,0,B|176:264|176:264|192:216|264:256|280:224,1,90
408,320,276736,2,0,P|440:256|440:232,1,60
440,152,276962,5,8,0:0:0:0:
440,152,277076,1,8,0:0:0:0:
200,168,277302,1,8,0:0:0:0:
200,168,277415,1,8,0:0:0:0:
360,344,277641,1,8,0:0:0:0:
360,344,277755,1,8,0:0:0:0:
344,104,277981,1,8,0:0:0:0:
344,104,278094,1,8,0:0:0:0:
104,136,278321,1,8,0:0:0:0:
104,136,278434,1,8,0:0:0:0:
264,320,278660,1,8,0:0:0:0:
264,320,278773,6,0,P|312:272|304:176,1,120
280,136,279113,2,0,L|400:88,1,120
391,91,279452,5,0,0:0:0:0:
240,192,279679,1,8,0:0:0:0:
184,120,279792,1,8,0:0:0:0:
96,272,280018,1,8,0:0:0:0:
56,192,280132,1,8,0:0:0:0:
216,280,280358,1,8,0:0:0:0:
280,336,280471,1,8,0:0:0:0:
312,160,280697,1,8,0:0:0:0:
384,208,280811,1,8,0:0:0:0:
424,32,281037,1,8,0:0:0:0:
504,80,281150,1,8,0:0:0:0:
328,96,281377,1,8,0:0:0:0:
328,96,281490,6,0,P|272:64|208:72,1,120
232,160,281829,2,0,L|240:288,1,120
239,279,282169,5,0,0:0:0:0:
416,264,282395,1,8,0:0:0:0:
416,176,282508,1,8,0:0:0:0:
272,72,282735,1,8,0:0:0:0:
264,160,282848,1,8,0:0:0:0:
128,280,283074,1,8,0:0:0:0:
144,192,283188,1,8,0:0:0:0:
40,48,283414,1,8,0:0:0:0:
56,136,283527,1,8,0:0:0:0:
222,108,283754,1,8,0:0:0:0:
233,197,283867,1,8,0:0:0:0:
144,192,284093,1,8,0:0:0:0:
144,192,284206,6,0,P|176:136|240:104,1,120
304,200,284546,2,0,L|304:336,1,120
304,320,284885,5,0,0:0:0:0:
144,144,285112,1,8,0:0:0:0:
181,97,285225,1,8,0:0:0:0:
392,224,285451,1,8,0:0:0:0:
334,240,285564,1,8,0:0:0:0:
328,16,285791,1,8,0:0:0:0:
324,75,285904,1,8,0:0:0:0:
128,280,286130,1,8,0:0:0:0:
140,220,286244,1,8,0:0:0:0:
352,264,286470,1,8,0:0:0:0:
300,293,286583,1,8,0:0:0:0:
328,96,286810,1,8,0:0:0:0:
328,96,286923,6,0,P|400:120|432:176,1,120
328,216,287262,2,0,P|264:192|208:152,1,120
221,163,287602,5,0,0:0:0:0:
48,328,287828,1,8,0:0:0:0:
60,269,287941,1,8,0:0:0:0:
272,336,288168,1,8,0:0:0:0:
271,276,288281,1,8,0:0:0:0:
64,208,288507,1,8,0:0:0:0:
60,269,288620,1,8,0:0:0:0:
272,216,288847,1,8,0:0:0:0:
271,276,288960,1,8,0:0:0:0:
472,208,289186,1,8,0:0:0:0:
465,147,289300,1,8,0:0:0:0:
472,208,289526,1,8,0:0:0:0:
472,208,289639,6,0,P|448:272|392:288,1,120
352,216,289979,2,0,L|248:128,1,120
260,138,290318,5,0,0:0:0:0:
176,296,290545,1,8,0:0:0:0:
132,254,290658,1,8,0:0:0:0:
320,296,290884,1,8,0:0:0:0:
359,251,290997,1,8,0:0:0:0:
120,144,291224,1,8,0:0:0:0:
151,93,291337,1,8,0:0:0:0:
416,144,291563,1,8,0:0:0:0:
370,104,291677,1,8,0:0:0:0:
328,64,291903,1,8,0:0:0:0:
286,108,292017,1,8,0:0:0:0:
144,192,292242,1,8,0:0:0:0:
144,192,292356,6,0,P|136:128|176:56,1,120
232,168,292695,2,0,L|160:272,1,120
163,266,293035,5,0,0:0:0:0:
392,328,293261,1,8,0:0:0:0:
392,328,293374,1,8,0:0:0:0:
288,112,293601,1,8,0:0:0:0:
288,112,293714,1,8,0:0:0:0:
152,312,293940,1,8,0:0:0:0:
152,312,294053,1,8,0:0:0:0:
64,88,294280,1,8,0:0:0:0:
64,88,294393,1,8,0:0:0:0:
272,208,294619,1,8,0:0:0:0:
272,208,294733,1,8,0:0:0:0:
464,64,294959,1,8,0:0:0:0:
464,64,295072,6,0,P|432:128|424:184,1,120
368,280,295412,2,0,P|344:208|352:152,1,120
272,80,295728,6,0,P|208:64|152:88,1,107.999996704102
168,288,296066,2,0,P|192:216|224:176,1,107.999996704102
424,176,296405,2,0,P|384:120|336:88,1,107.999996704102
136,120,296744,2,0,P|80:160|64:208,1,107.999996704102
264,288,297083,2,0,P|272:216|288:176,1,107.999996704102
472,72,297422,2,0,P|440:136|432:192,1,107.999996704102
216,176,297761,2,0,P|192:112|160:56,1,107.999996704102
184,296,298100,2,0,L|336:344,1,107.999996704102
464,208,298439,6,0,P|416:168|368:168,1,107.999996704102
160,160,298778,2,0,P|216:152|272:168,1,107.999996704102
344,88,299033,5,0,0:0:0:0:
344,88,299117,2,0,P|280:64|200:80,1,107.999996704102
64,192,299456,2,0,P|72:128|104:80,1,107.999996704102
168,168,299711,5,0,0:0:0:0:
168,168,299795,2,0,P|152:232|152:288,1,107.999996704102
368,312,300134,5,0,0:0:0:0:
240,136,300304,2,0,P|176:72|56:96,1,215.999993408203
192,264,300812,2,0,P|256:264|312:240,1,107.999996704102
472,128,301151,6,0,L|448:248,1,107.999996704102
365,332,301490,2,0,L|293:244,1,107.999996704102
368,168,301829,2,0,P|296:144|240:160,1,107.999996704102
209,311,302168,2,0,L|297:247,1,107.999996704102
331,64,302507,2,0,P|267:144|259:168,1,107.999996704102
48,136,302846,2,0,L|88:256,1,107.999996704102
280,320,303185,2,0,L|208:232,1,107.999996704102
35,333,303524,2,0,P|75:269|83:221,1,107.999996704102
216,72,303863,2,0,L|272:168,1,107.999996704102
328,320,304202,6,0,L|240:248,1,107.999996704102
272,168,304456,1,0,0:0:0:0:
272,168,304541,2,0,P|320:208|344:256,1,107.999996704102
184,208,304880,2,0,P|144:168|128:112,1,107.999996704102
208,96,305134,1,0,0:0:0:0:
208,96,305219,2,0,L|296:64,1,53.9999983520508
344,80,305445,5,0,0:0:0:0:
368,96,305558,1,0,0:0:0:0:
384,120,305671,1,0,0:0:0:0:
392,144,305784,1,0,0:0:0:0:
392,176,305897,6,0,L|352:240,1,67.5
304,216,306236,2,0,P|256:152|144:152,1,135.000005149842
192,240,306575,2,0,P|216:304|304:344,1,135.000005149842
360,336,306914,6,0,P|416:296|432:240,1,120
320,208,307253,2,0,L|208:152,1,120
112,224,307592,2,0,P|80:160|72:104,1,120
192,88,307931,2,0,P|264:104|304:136,1,120
256,240,308270,2,0,L|176:336,1,120
136,240,308609,6,0,P|128:136|160:64,1,135.000005149842
272,168,308948,2,0,P|272:96|240:32,1,135.000005149842
136,240,309287,2,0,P|128:136|160:64,1,135.000005149842
320,112,309626,6,0,P|368:160|384:224,1,120
280,272,309965,2,0,P|272:208|272:152,1,120
152,160,310304,2,0,P|144:240|168:296,1,120
72,184,310643,2,0,L|128:64,1,120
240,72,310982,2,0,L|352:120,1,120
384,216,311321,6,0,P|360:288|304:336,1,135.000005149842
232,224,311660,2,0,L|128:136,1,135.000005149842
384,216,311999,2,0,P|360:288|304:336,1,135.000005149842
336,112,312338,6,0,P|304:176|256:200,1,120
184,152,312677,2,0,L|144:272,1,120
224,320,313016,2,0,P|288:304|344:256,1,120
288,184,313355,2,0,L|256:56,1,120
176,112,313694,2,0,P|128:168|96:224,1,120
224,288,314033,6,0,L|408:304,1,135.000005149842
264,224,314372,2,0,L|400:240,1,135.000005149842
304,160,314711,2,0,L|464:192,1,135.000005149842
288,80,315050,6,0,P|224:120|184:168,1,120
112,240,315389,2,0,L|192:344,1,120
296,296,315728,2,0,P|336:240|328:184,1,120
248,239,316066,2,0,P|224:303|184:335,1,120
144,224,316405,2,0,P|168:144|216:120,1,120
376,112,316744,6,0,P|400:184|400:248,1,135.000005149842
264,224,317083,2,0,P|264:304|288:368,1,135.000005149842
376,112,317422,1,0,0:0:0:0:
80,320,318100,1,0,0:0:0:0:
440,320,318778,1,0,0:0:0:0:
144,112,319456,1,0,0:0:0:0:
248,256,319795,5,8,0:0:0:0:
320,280,319908,1,8,0:0:0:0:
392,256,320021,1,8,0:0:0:0:
440,200,320134,1,8,0:0:0:0:
256,192,320219,12,8,325554,0:0:0:0:
168,112,336062,5,0,0:0:0:0:
344,160,336288,1,0,0:0:0:0:
344,160,336401,6,0,P|392:128|416:96,1,67.5000025749208
320,88,336740,2,0,P|280:96|256:112,1,53.9999983520508
208,160,337079,2,0,L|224:224,1,53.9999983520508
320,256,337418,2,0,L|360:208,1,53.9999983520508
416,304,337757,2,0,L|368:352,1,53.9999983520508
352,216,338096,2,0,L|312:160,1,53.9999983520508
216,168,338435,2,0,L|176:208,1,53.9999983520508
240,296,338774,2,0,L|296:272,1,53.9999983520508
288,224,339028,5,0,0:0:0:0:
288,224,339113,2,0,L|344:200,1,53.9999983520508
248,136,339452,2,0,L|184:136,1,53.9999983520508
120,216,339791,2,0,L|88:152,1,53.9999983520508
136,72,340130,2,0,L|200:48,1,53.9999983520508
200,160,340469,2,0,L|216:216,1,53.9999983520508
200,320,340808,2,0,L|256:360,1,53.9999983520508
344,320,341147,2,0,L|384:264,1,53.9999983520508
288,208,341486,2,0,L|240:184,1,53.9999983520508
224,136,341740,5,0,0:0:0:0:
224,136,341825,2,0,L|160:112,1,53.9999983520508
100,197,342164,2,0,L|111:257,1,53.9999983520508
209,292,342503,2,0,L|238:344,1,53.9999983520508
336,299,342842,1,0,0:0:0:0:
262,220,343011,2,0,L|245:160,1,53.9999983520508
321,88,343350,2,0,L|311:33,1,53.9999983520508
205,56,343689,2,0,P|176:64|151:85,1,53.9999983520508
180,183,344028,2,0,P|209:184|234:171,1,53.9999983520508
320,112,344367,6,0,B|355:193|355:193|395:153,1,134.999995880127
433,129,344876,2,0,P|456:161|458:192,1,53.9999983520508
394,261,345215,1,0,0:0:0:0:
293,223,345384,2,0,L|253:167,1,53.9999983520508
153,184,345723,2,0,P|158:195|125:289,1,107.999996704102
235,321,346231,2,0,P|260:292|285:272,1,53.9999983520508
319,184,346570,2,0,P|293:204|271:217,1,53.9999983520508
224,192,346825,2,0,L|191:166,1,26.9999991760254
108,122,347079,5,0,0:0:0:0:
108,122,347248,2,2,P|134:93|185:74,1,80.9999975280763
252,69,347587,2,0,P|285:88|318:145,1,80.9999975280763
259,185,347926,2,0,P|220:182|165:194,1,80.9999975280763
116,240,348265,2,0,L|150:325,1,80.9999975280763
67,337,348604,2,0,L|42:241,1,80.9999975280763
58,178,348943,2,0,L|110:107,1,80.9999975280763
182,84,349282,2,0,P|214:75|252:71,1,53.9999983520508
287,134,349537,1,0,0:0:0:0:
287,134,349621,1,0,0:0:0:0:
208,276,349960,6,2,P|242:283|304:281,1,80.9999975280763
327,212,350299,2,0,L|398:273,1,80.9999975280763
365,342,350638,2,0,P|326:350|269:346,1,80.9999975280763
207,323,350977,2,0,L|255:242,1,80.9999975280763
238,172,351316,2,0,P|275:147|328:131,1,80.9999975280763
364,193,351655,2,0,P|391:223|442:244,1,80.9999975280763
491,191,351994,2,0,L|497:120,1,53.9999983520508
441,76,352248,1,0,0:0:0:0:
441,76,352333,1,0,0:0:0:0:
319,48,352672,6,2,P|297:77|246:106,1,80.9999975280763
179,89,353011,2,0,L|163:175,1,80.9999975280763
83,174,353350,2,0,P|102:206|152:237,1,80.9999975280763
217,220,353689,2,0,L|206:306,1,80.9999975280763
265,356,354028,2,0,P|292:338|315:281,1,80.9999975280763
393,280,354367,2,0,L|388:187,1,80.9999975280763
461,162,354706,2,0,P|457:122|437:98,1,53.9999983520508
369,102,354960,1,0,0:0:0:0:
369,102,355045,1,0,0:0:0:0:
329,238,355384,6,2,P|302:200|254:174,1,80.9999975280763
207,134,355723,2,0,P|239:94|279:75,1,80.9999975280763
343,99,356062,2,0,L|395:164,1,80.9999975280763
407,242,356401,2,0,L|334:300,1,80.9999975280763
270,327,356740,2,2,L|196:256,1,80.9999975280763
145,318,357079,2,0,L|83:256,1,80.9999975280763
31,201,357418,2,0,L|96:132,1,80.9999975280763
160,176,357757,6,8,B|184:139|184:139|225:118,1,80.9999975280763
247,197,358096,2,0,L|214:285,1,80.9999975280763
154,323,358435,2,0,L|97:254,1,80.9999975280763
102,179,358774,2,0,L|155:107,1,80.9999975280763
231,118,359113,2,0,L|283:51,1,80.9999975280763
360,36,359452,2,0,L|439:94,1,80.9999975280763
413,164,359791,2,0,L|351:231,1,80.9999975280763
342,303,360130,2,0,L|408:337,1,53.9999983520508
454,278,360384,1,0,0:0:0:0:
454,278,360469,1,0,0:0:0:0:
293,262,360808,6,2,P|253:291|232:317,1,80.9999975280763
152,324,361147,2,0,P|136:290|80:252,1,80.9999975280763
132,185,361486,2,0,P|166:175|204:127,1,80.9999975280763
278,149,361825,2,0,P|293:181|339:212,1,80.9999975280763
386,151,362164,2,0,P|402:115|411:67,1,80.9999975280763
339,34,362503,2,0,P|311:56|256:77,1,80.9999975280763
192,98,362842,2,0,P|209:135|229:164,1,53.9999983520508
153,197,363096,1,0,0:0:0:0:
153,197,363181,1,0,0:0:0:0:
88,86,363520,6,2,L|57:170,1,80.9999975280763
153,197,363859,2,0,L|149:102,1,80.9999975280763
203,55,364198,2,0,P|231:75|255:132,1,80.9999975280763
223,191,364537,2,0,P|225:229|255:290,1,80.9999975280763
303,218,364876,2,0,L|347:138,1,80.9999975280763
422,160,365215,2,0,L|462:238,1,80.9999975280763
384,265,365554,2,0,L|328:312,1,53.9999983520508
288,239,365808,1,0,0:0:0:0:
288,239,365892,1,0,0:0:0:0:
203,304,366231,6,2,P|189:260|193:215,1,80.9999975280763
243,163,366570,2,0,P|266:122|306:89,1,80.9999975280763
221,55,366909,2,0,P|183:81|145:121,1,80.9999975280763
111,172,367248,2,0,P|110:212|118:273,1,80.9999975280763
175,305,367587,2,2,L|225:232,1,80.9999975280763
295,205,367926,2,0,L|354:279,1,80.9999975280763
426,258,368265,2,0,L|472:199,1,53.9999983520508
408,150,368520,1,0,0:0:0:0:
408,150,368604,1,0,0:0:0:0:
308,76,368943,6,2,P|275:121|243:138,1,80.9999975280763
201,71,369282,2,0,P|172:94|134:138,1,80.9999975280763
61,131,369621,2,0,P|56:169|72:226,1,80.9999975280763
145,217,369960,2,0,P|120:250|92:296,1,80.9999975280763
43,342,370299,2,0,P|75:360|123:369,1,80.9999975280763
161,300,370638,2,0,L|227:364,1,80.9999975280763
275,297,370977,2,0,L|265:228,1,53.9999983520508
198,200,371231,1,0,0:0:0:0:
198,200,371316,1,0,0:0:0:0:
176,80,371655,6,2,L|136:152,1,80.9999975280763
198,200,371994,2,0,L|246:131,1,80.9999975280763
325,137,372333,2,0,L|314:222,1,80.9999975280763
276,289,372672,2,0,P|236:310|182:319,1,80.9999975280763
176,240,373011,2,0,P|208:209|253:181,1,80.9999975280763
313,218,373350,2,0,L|352:141,1,80.9999975280763
280,103,373689,2,0,L|224:55,1,53.9999983520508
171,113,373943,1,0,0:0:0:0:
171,113,374028,1,0,0:0:0:0:
202,229,374367,6,2,P|241:189|276:176,1,80.9999975280763
335,141,374706,2,0,L|338:233,1,80.9999975280763
347,302,375045,2,0,P|312:311|258:304,1,80.9999975280763
186,315,375384,2,0,P|151:321|87:306,1,80.9999975280763
116,233,375723,2,0,P|133:194|170:142,1,80.9999975280763
144,80,376062,2,0,P|114:92|50:97,1,80.9999975280763
30,171,376401,2,0,P|19:216|8:244,1,53.9999983520508
65,288,376655,1,0,0:0:0:0:
65,288,376740,1,0,0:0:0:0:
173,235,377079,6,2,P|180:267|212:312,1,80.9999975280763
253,240,377418,2,0,P|271:194|304:163,1,80.9999975280763
341,235,377757,2,0,L|403:298,1,80.9999975280763
450,230,378096,2,0,L|461:149,1,80.9999975280763
390,109,378435,2,2,L|309:73,1,80.9999975280763
246,118,378774,2,0,L|171:178,1,80.9999975280763
105,144,379113,2,0,L|37:112,1,53.9999983520508
36,42,379367,1,0,0:0:0:0:
36,42,379452,1,0,0:0:0:0:
183,32,379791,6,2,P|177:70|184:134,1,80.9999975280763
108,152,380130,2,0,P|136:188|183:209,1,80.9999975280763
203,277,380469,2,0,P|243:250|275:204,1,80.9999975280763
344,217,380808,2,0,P|327:176|294:126,1,80.9999975280763
346,73,381147,2,0,P|311:73|248:100,1,80.9999975280763
263,168,381486,2,0,P|294:184|346:185,1,80.9999975280763
417,207,381825,2,0,P|396:246|383:273,1,53.9999983520508
317,287,382079,1,0,0:0:0:0:
317,287,382164,1,0,0:0:0:0:
91,282,382503,6,2,P|114:254|166:229,1,80.9999975280763
233,225,382842,2,0,P|205:195|159:166,1,80.9999975280763
106,124,383181,2,0,P|148:81|180:63,1,80.9999975280763
246,64,383520,2,0,P|210:37|155:18,1,80.9999975280763
96,36,383859,2,0,P|69:60|48:101,1,80.9999975280763
48,180,384198,2,0,P|64:233|91:269,1,80.9999975280763
157,269,384537,2,0,P|133:298|109:317,1,53.9999983520508
42,332,384791,1,0,0:0:0:0:
42,332,384876,1,0,0:0:0:0:
241,330,385215,6,2,P|240:298|248:243,1,80.9999975280763
327,250,385554,2,0,P|314:207|280:163,1,80.9999975280763
214,172,385892,2,0,P|242:130|283:96,1,80.9999975280763
344,119,386231,2,0,P|382:97|436:95,1,80.9999975280763
482,141,386570,2,0,P|501:174|512:217,1,80.9999975280763
431,227,386909,2,0,P|402:203|362:171,1,80.9999975280763
288,160,387248,2,0,P|317:125|338:105,1,53.9999983520508
392,74,387503,1,0,0:0:0:0:
392,74,387587,1,0,0:0:0:0:
221,60,387842,5,0,0:0:0:0:
221,60,387926,2,2,P|201:103|194:138,1,80.9999975280763
179,242,388265,2,0,P|216:238|269:221,1,80.9999975280763
357,72,388604,2,0,P|350:117|329:160,1,80.9999975280763
321,236,388943,2,0,P|357:245|408:243,1,80.9999975280763
341,334,389282,2,2,L|268:273,1,80.9999975280763
175,314,389621,2,0,L|102:252,1,80.9999975280763
109,153,389960,2,0,L|162:198,1,53.9999983520508
212,209,390215,1,0,0:0:0:0:
212,209,390299,2,0,P|240:174|282:189,1,80.9999975280763
380,177,390638,5,0,0:0:0:0:
380,177,390795,1,0,0:0:0:0:
228,326,391103,1,0,0:0:0:0:
228,326,391257,1,0,0:0:0:0:
176,138,391565,1,0,0:0:0:0:
176,138,391718,1,0,0:0:0:0:
52,317,392026,1,0,0:0:0:0:
52,317,392180,1,0,0:0:0:0:
222,259,392488,6,0,P|253:216|327:174,1,135
334,131,392795,2,0,P|302:89|200:63,1,135
190,88,393103,5,0,0:0:0:0:
190,88,393257,1,0,0:0:0:0:
229,263,393565,1,0,0:0:0:0:
229,263,393718,1,0,0:0:0:0:
346,126,394026,1,0,0:0:0:0:
346,126,394180,1,0,0:0:0:0:
419,290,394488,1,0,0:0:0:0:
419,290,394642,1,0,0:0:0:0:
312,145,394949,6,0,P|289:186|190:249,1,135
190,204,395257,2,0,P|170:160|87:98,1,135
66,129,395565,5,0,0:0:0:0:
66,129,395718,1,0,0:0:0:0:
224,43,396026,1,0,0:0:0:0:
224,43,396180,1,0,0:0:0:0:
396,94,396488,1,0,0:0:0:0:
396,94,396642,1,0,0:0:0:0:
480,252,396949,1,0,0:0:0:0:
480,252,397103,1,0,0:0:0:0:
308,308,397411,6,0,P|283:262|320:158,1,135
341,187,397718,2,0,P|360:141|431:83,1,135
468,81,398026,5,0,0:0:0:0:
468,81,398180,1,0,0:0:0:0:
447,260,398488,1,0,0:0:0:0:
447,260,398642,1,0,0:0:0:0:
295,356,398949,1,0,0:0:0:0:
295,356,399103,1,0,0:0:0:0:
135,272,399411,1,0,0:0:0:0:
135,272,399565,1,0,0:0:0:0:
222,115,399872,6,0,P|226:163|255:255,1,135
295,254,400180,2,0,P|324:212|428:160,1,135
430,139,400488,1,0,0:0:0:0:
321,57,400642,6,0,P|276:80|220:78,1,90
115,140,400949,1,0,0:0:0:0:
212,233,401103,2,0,P|260:238|310:267,1,90
423,307,401411,1,0,0:0:0:0:
292,341,401565,2,0,P|237:348|189:368,1,90
95,279,401872,1,0,0:0:0:0:
141,151,402026,2,8,P|186:126|211:84,1,90
88,29,402334,2,8,P|77:81|51:120,1,90
53,247,402642,2,8,P|103:266|149:265,1,90
216,156,402949,5,0,0:0:0:0:
125,168,403103,2,0,P|105:223|81:264,1,90
185,346,403411,1,0,0:0:0:0:
296,269,403565,2,0,P|327:218|362:189,1,90
233,128,403872,1,0,0:0:0:0:
348,57,404026,2,0,P|400:79|447:108,1,90
434,231,404334,1,0,0:0:0:0:
300,184,404488,2,0,P|254:157|231:124,1,90
125,46,404795,1,8,0:0:0:0:
196,211,404949,1,8,0:0:0:0:
227,33,405103,1,8,0:0:0:0:
132,186,405257,1,8,0:0:0:0:
288,97,405411,5,0,0:0:0:0:
288,97,405565,2,0,P|343:88|408:99,1,90
267,234,405872,1,0,0:0:0:0:
149,97,406026,2,0,P|94:75|53:75,1,90
115,247,406334,1,0,0:0:0:0:
267,234,406488,2,0,P|325:260|369:298,1,90
174,331,406795,1,0,0:0:0:0:
174,331,406949,2,0,P|180:278|180:228,1,90
196,60,407257,1,8,0:0:0:0:
375,69,407411,1,8,0:0:0:0:
274,218,407565,1,8,0:0:0:0:
294,40,407718,1,8,0:0:0:0:
392,191,407872,5,0,0:0:0:0:
392,191,408026,2,0,P|375:239|377:281,1,90
196,303,408334,1,0,0:0:0:0:
196,303,408488,2,0,P|197:249|186:187,1,90
16,176,408795,1,0,0:0:0:0:
16,176,408949,2,0,P|8:226|14:284,1,90
141,139,409257,1,0,0:0:0:0:
141,139,409411,2,0,L|96:54,1,90
227,30,409718,1,8,0:0:0:0:
46,22,409872,1,8,0:0:0:0:
57,201,410026,1,8,0:0:0:0:
188,77,410180,1,8,0:0:0:0:
161,255,410334,5,0,0:0:0:0:
161,255,410488,2,0,P|169:312|177:348,1,90
320,236,410795,1,0,0:0:0:0:
320,236,410949,2,0,P|279:191|262:158,1,90
418,69,411257,1,0,0:0:0:0:
418,69,411411,2,0,P|432:118|474:178,1,90
398,323,411718,1,0,0:0:0:0:
398,323,411872,2,0,P|372:269|342:231,1,90
186,313,412180,1,8,0:0:0:0:
181,132,412334,1,8,0:0:0:0:
311,314,412488,1,8,0:0:0:0:
312,133,412642,1,8,0:0:0:0:
162,231,412795,5,0,0:0:0:0:
162,231,412949,2,0,P|109:178|86:148,1,90
312,133,413257,1,0,0:0:0:0:
312,133,413411,2,0,L|422:154,1,90
298,298,413718,1,0,0:0:0:0:
298,298,413872,2,0,L|201:334,1,90
59,234,414180,1,0,0:0:0:0:
59,234,414334,2,0,L|112:140,1,90
272,91,414642,1,8,0:0:0:0:
357,248,414795,1,8,0:0:0:0:
188,184,414949,1,8,0:0:0:0:
397,314,415103,1,8,0:0:0:0:
359,137,415257,5,0,0:0:0:0:
359,137,415411,2,0,P|384:87|400:50,1,90
217,60,415718,1,0,0:0:0:0:
217,60,415872,2,0,L|121:24,1,90
81,202,416180,1,0,0:0:0:0:
81,202,416334,2,0,L|177:258,1,90
294,127,416642,1,0,0:0:0:0:
294,127,416795,2,0,L|291:239,1,90
163,345,417103,1,8,0:0:0:0:
16,283,417257,1,8,0:0:0:0:
206,163,417411,1,8,0:0:0:0:
5,224,417565,1,8,0:0:0:0:
185,91,417718,5,0,0:0:0:0:
185,91,417872,2,0,P|241:83|292:89,1,90
206,163,418180,1,0,0:0:0:0:
206,163,418334,2,0,L|188:261,1,90
360,312,418642,1,0,0:0:0:0:
360,312,418795,2,0,L|377:214,1,90
347,44,419103,1,0,0:0:0:0:
347,44,419257,2,0,L|253:7,1,90
196,179,419565,1,8,0:0:0:0:
451,95,419718,1,8,0:0:0:0:
245,270,419872,1,8,0:0:0:0:
59,73,420026,5,8,0:0:0:0:
59,73,420180,2,0,P|125:67|246:115,1,180
405,153,420642,2,0,P|362:186|314:303,1,180
134,305,421103,2,0,P|138:249|245:148,1,180
324,0,421565,2,0,L|407:166,1,180
340,329,422026,5,8,0:0:0:0:
471,92,422180,1,8,0:0:0:0:
207,151,422334,1,8,0:0:0:0:
437,292,422488,1,8,0:0:0:0:
207,151,422642,2,0,P|162:113|50:180,1,180
141,312,423103,2,0,P|188:281|150:170,1,180
5,212,423565,2,0,P|17:267|131:282,1,180
155,109,424026,2,0,P|105:108|47:213,1,180
195,312,424488,5,8,0:0:0:0:
341,85,424642,1,8,0:0:0:0:
73,67,424795,1,8,0:0:0:0:
86,336,424949,1,8,0:0:0:0:
73,67,425103,2,0,P|137:58|234:122,1,180
301,283,425565,2,0,L|414:126,1,180
230,116,426026,2,0,P|161:63|73:67,1,180
406,136,426488,2,0,L|301:283,1,180
133,216,426949,5,8,0:0:0:0:
304,6,427103,1,8,0:0:0:0:
45,86,427257,1,8,0:0:0:0:
290,198,427411,1,8,0:0:0:0:
133,216,427565,2,0,P|156:265|270:318,1,180
455,126,428026,2,0,L|448:317,1,180
264,318,428488,2,0,P|180:290|133:216,1,180
448,305,428949,2,0,L|455:126,1,180
288,54,429411,5,8,0:0:0:0:
178,301,429565,1,8,0:0:0:0:
357,101,429718,1,8,0:0:0:0:
270,356,429872,1,8,0:0:0:0:
200,189,430026,5,8,0:0:0:0:
200,189,430180,2,0,P|213:132|249:89,1,90
313,267,430488,1,0,0:0:0:0:
313,267,430642,2,0,P|277:309|256:349,1,90
87,286,430949,1,0,0:0:0:0:
87,286,431103,2,0,L|96:172,1,90
254,111,431411,1,0,0:0:0:0:
254,111,431565,2,0,L|253:224,1,90
400,305,431872,1,8,0:0:0:0:
220,323,432026,1,8,0:0:0:0:
320,173,432180,1,8,0:0:0:0:
299,351,432334,1,8,0:0:0:0:
171,223,432488,5,0,0:0:0:0:
171,223,432642,2,0,P|123:245|82:254,1,90
190,106,432949,1,0,0:0:0:0:
190,106,433103,2,0,P|247:121|282:137,1,90
286,314,433411,1,0,0:0:0:0:
286,314,433565,2,0,L|344:229,1,90
398,70,433872,1,0,0:0:0:0:
398,70,434026,2,0,L|299:43,1,90
133,82,434334,1,8,0:0:0:0:
306,131,434488,1,8,0:0:0:0:
155,230,434642,1,8,0:0:0:0:
33,98,434795,1,8,0:0:0:0:
54,276,434949,5,0,0:0:0:0:
54,276,435103,2,0,P|63:221|85:175,1,90
194,52,435411,1,0,0:0:0:0:
194,52,435565,2,0,L|220:150,1,90
254,315,435872,1,0,0:0:0:0:
254,315,436026,2,0,L|310:218,1,90
377,73,436334,1,0,0:0:0:0:
377,73,436488,2,0,L|316:149,1,90
164,232,436795,1,8,0:0:0:0:
242,69,436949,1,8,0:0:0:0:
131,296,437103,1,8,0:0:0:0:
242,69,437257,1,8,0:0:0:0:
290,242,437411,5,0,0:0:0:0:
290,242,437565,2,0,P|252:205|204:174,1,90
153,67,437872,1,0,0:0:0:0:
153,67,438026,2,0,L|95:152,1,90
74,274,438334,1,0,0:0:0:0:
74,274,438488,2,0,L|148:203,1,90
264,261,438795,1,0,0:0:0:0:
264,261,438949,2,0,L|331:189,1,90
395,78,439257,1,8,0:0:0:0:
463,194,439411,1,8,0:0:0:0:
293,132,439565,1,8,0:0:0:0:
471,116,439718,1,8,0:0:0:0:
352,251,439872,5,0,0:0:0:0:
352,251,440026,2,0,L|257:211,1,90
102,287,440334,1,0,0:0:0:0:
102,287,440488,2,0,L|149:191,1,90
248,61,440795,1,0,0:0:0:0:
248,61,440949,2,0,L|258:171,1,90
102,54,441257,1,0,0:0:0:0:
102,54,441411,2,0,L|104:150,1,90
216,284,441718,1,8,0:0:0:0:
43,232,441872,1,8,0:0:0:0:
215,179,442026,1,8,0:0:0:0:
346,302,442180,1,8,0:0:0:0:
216,284,442334,5,0,0:0:0:0:
216,284,442488,2,0,P|258:252|278:211,1,90
331,48,442795,1,0,0:0:0:0:
331,48,442949,2,0,P|299:92|258:121,1,90
90,130,443257,1,0,0:0:0:0:
90,130,443411,2,0,P|130:158|165:200,1,90
266,331,443718,1,0,0:0:0:0:
266,331,443872,2,0,P|224:302|162:296,1,90
8,261,444180,1,8,0:0:0:0:
64,89,444334,1,8,0:0:0:0:
206,199,444488,1,8,0:0:0:0:
111,45,444642,1,8,0:0:0:0:
77,220,444795,5,0,0:0:0:0:
77,220,444949,2,0,P|82:271|98:308,1,90
206,199,445257,1,0,0:0:0:0:
206,199,445411,2,0,P|262:152|286:146,1,90
295,326,445718,1,0,0:0:0:0:
295,326,445872,2,0,P|251:298|206:284,1,90
395,266,446180,1,0,0:0:0:0:
395,266,446334,2,0,P|388:215|396:171,1,90
338,4,446642,1,8,0:0:0:0:
331,182,446795,1,8,0:0:0:0:
427,29,446949,1,8,0:0:0:0:
254,82,447103,1,8,0:0:0:0:
74,70,447257,5,0,0:0:0:0:
74,70,447411,2,0,P|68:136|74:171,1,90
254,82,447718,1,0,0:0:0:0:
254,82,447872,2,0,L|352:37,1,90
310,223,448180,1,0,0:0:0:0:
310,223,448334,2,0,L|238:289,1,90
323,121,448642,1,0,0:0:0:0:
323,121,448795,2,0,P|375:142|415:169,1,90
372,338,449103,1,8,0:0:0:0:
102,319,449257,1,8,0:0:0:0:
361,242,449411,1,8,0:0:0:0:
91,220,449565,5,8,0:0:0:0:
366,171,449718,2,0,P|304:103|171:76,1,225
69,336,450180,2,0,P|102:277|238:193,1,225
486,70,450642,2,0,L|469:308,1,225
301,300,451103,2,0,L|237:79,1,225
122,208,451565,1,8,0:0:0:0:
373,86,451718,1,8,0:0:0:0:
274,349,451872,1,8,0:0:0:0:
135,103,452026,1,8,0:0:0:0:
398,230,452180,6,0,P|383:291|262:239,1,225
248,108,452642,2,0,P|272:50|413:105,1,225
199,266,453103,2,0,P|149:301|22:220,1,225
28,92,453565,2,0,P|72:46|222:94,1,225
314,281,454026,1,8,0:0:0:0:
82,120,454180,1,8,0:0:0:0:
341,229,454334,1,8,0:0:0:0:
115,60,454488,1,8,0:0:0:0:
183,333,454642,6,0,L|154:88,1,225
314,342,455103,2,0,L|367:117,1,225
183,333,455565,2,0,L|154:88,1,225
314,342,456026,2,0,L|367:117,1,225
114,254,456488,1,8,0:0:0:0:
282,28,456642,1,8,0:0:0:0:
254,306,456795,1,8,0:0:0:0:
109,64,456949,1,8,0:0:0:0:
355,199,457103,6,0,B|309:192|309:192|269:176|269:176|246:138|246:138|214:112|214:112|119:117,1,225
17,257,457565,2,0,L|248:241,1,225
355,199,458026,2,0,B|309:192|309:192|269:176|269:176|246:138|246:138|214:112|214:112|119:117,1,225
17,257,458488,2,0,L|248:241,1,225
251,91,458949,1,8,0:0:0:0:
325,362,459103,1,8,0:0:0:0:
104,187,459257,1,8,0:0:0:0:
384,211,459411,1,8,0:0:0:0:
105,331,459565,6,0,L|79:58,1,270.000010299683
246,355,460026,2,0,L|330:74,1,270.000010299683
105,331,460488,2,0,L|79:58,1,270.000010299683
246,355,460949,2,0,L|330:74,1,270.000010299683
421,50,461411,1,8,0:0:0:0:
336,306,461565,1,8,0:0:0:0:
126,138,461718,1,8,0:0:0:0:
393,173,461872,1,8,0:0:0:0:
126,216,462026,6,0,L|388:343,1,270.000010299683
158,161,462488,2,0,L|419:62,1,270.000010299683
126,216,462949,2,0,L|388:343,1,270.000010299683
158,161,463411,2,0,L|419:62,1,270.000010299683
140,62,463872,1,8,0:0:0:0:
40,313,464026,1,8,0:0:0:0:
202,71,464180,1,8,0:0:0:0:
307,320,464334,1,8,0:0:0:0:
95,151,464488,6,0,B|144:174|144:174|154:240|154:240|227:258|227:258|264:255|264:255|312:241,1,270.000010299683
338,162,464949,2,0,B|289:139|289:139|279:73|279:73|206:55|206:55|169:58|169:58|133:68,1,270.000010299683
95,151,465411,2,0,B|144:174|144:174|154:240|154:240|227:258|227:258|264:255|264:255|312:241,1,270.000010299683
338,162,465872,2,0,B|289:139|289:139|279:73|279:73|206:55|206:55|169:58|169:58|133:68,1,270.000010299683
404,46,466334,1,8,0:0:0:0:
388,315,466488,1,8,0:0:0:0:
348,47,466642,1,8,0:0:0:0:
235,290,466795,1,8,0:0:0:0:
35,308,466949,6,0,B|93:299|93:299|19:218|320:266|58:152|172:98,1,270.000010299683
281,47,467411,2,0,B|279:102|279:102|234:180|297:213|326:145|326:145|401:215|416:228,1,270.000010299683
35,308,467872,2,0,B|93:299|93:299|19:218|320:266|58:152|172:98,1,270.000010299683
281,47,468334,2,0,B|279:102|279:102|234:180|297:213|326:145|326:145|401:215|416:228,1,270.000010299683
323,319,468795,1,8,0:0:0:0:
59,260,468949,1,8,0:0:0:0:
237,56,469103,1,8,0:0:0:0:
399,271,469257,1,8,0:0:0:0:
230,206,469411,5,8,0:0:0:0:
230,206,469565,1,0,0:0:0:0:
74,116,469872,1,0,0:0:0:0:
74,116,470026,1,0,0:0:0:0:
252,95,470334,1,0,0:0:0:0:
252,95,470488,1,0,0:0:0:0:
145,239,470795,1,0,0:0:0:0:
145,239,470949,1,0,0:0:0:0:
313,301,471257,6,0,B|333:247|333:247|293:238|298:149,1,135
363,182,471565,2,0,P|345:134|278:80,1,135
217,100,471872,5,0,0:0:0:0:
217,100,472026,1,0,0:0:0:0:
126,256,472334,1,0,0:0:0:0:
126,256,472488,1,0,0:0:0:0:
274,356,472795,1,0,0:0:0:0:
274,356,472949,1,0,0:0:0:0:
409,237,473257,1,0,0:0:0:0:
409,237,473411,1,0,0:0:0:0:
296,97,473718,6,0,P|241:74|154:73,1,135
154,115,474026,2,0,B|170:157|170:157|162:196,1,74.2500022659302
154,208,474334,5,0,0:0:0:0:
221,280,474488,2,0,P|241:241|248:226,1,49.5000015106202
365,214,474795,1,0,0:0:0:0:
286,117,474949,2,0,P|258:86|239:80,1,49.5000015106202
144,146,475257,1,0,0:0:0:0:
90,257,475411,2,0,P|117:285|139:294,1,49.5000015106202
231,225,475718,1,0,0:0:0:0:
306,126,475872,6,0,P|334:111|363:104,1,49.5000015106202
349,230,476180,2,0,P|328:256|310:272,1,49.5000015106202
231,225,476488,2,0,P|213:199|211:165,1,49.5000015106202
136,82,476795,5,0,0:0:0:0:
136,82,476949,2,0,P|108:103|92:119,1,49.5000015106202
117,236,477257,1,0,0:0:0:0:
117,236,477411,2,0,L|140:177,1,49.5000015106202
202,86,477718,1,0,0:0:0:0:
202,86,477872,2,0,L|243:130,1,49.5000015106202
306,224,478180,1,0,0:0:0:0:
306,224,478334,2,0,L|339:165,1,49.5000015106202
375,120,478642,2,0,L|423:85,1,49.5000015106202
484,118,478949,2,0,L|476:170,1,49.5000015106202
437,244,479257,5,0,0:0:0:0:
437,244,479411,2,0,L|382:214,1,49.5000015106202
323,195,479718,1,0,0:0:0:0:
323,195,479872,2,0,L|285:238,1,49.5000015106202
253,297,480180,1,0,0:0:0:0:
253,297,480334,2,0,L|195:341,1,49.5000015106202
143,299,480642,1,0,0:0:0:0:
143,299,480795,6,0,P|124:270|116:246,1,49.5000015106202
219,182,481103,2,0,P|202:210|199:228,1,49.5000015106202
301,297,481411,2,0,P|266:295|246:288,1,49.5000015106202
135,331,481718,5,0,0:0:0:0:
135,331,481872,2,0,L|94:294,1,49.5000015106202
117,174,482180,1,0,0:0:0:0:
117,174,482334,2,0,L|147:219,1,49.5000015106202
265,245,482642,1,0,0:0:0:0:
265,245,482795,2,0,L|221:191,1,49.5000015106202
259,84,483103,1,0,0:0:0:0:
259,84,483257,2,0,L|296:128,1,49.5000015106202
197,156,483565,2,0,L|183:223,1,49.5000015106202
95,242,483872,2,0,L|115:175,1,49.5000015106202
115,127,484180,5,0,0:0:0:0:
115,127,484334,2,0,L|83:69,1,49.5000015106202
215,69,484642,1,0,0:0:0:0:
215,69,484795,2,0,L|235:123,1,49.5000015106202
253,238,485103,1,0,0:0:0:0:
253,238,485257,2,0,L|262:307,1,49.5000015106202
359,290,485565,1,0,0:0:0:0:
359,290,485718,6,0,L|373:234,1,49.5000015106202
419,154,486026,2,0,P|409:125|389:101,1,49.5000015106202
290,172,486334,2,0,P|314:190|336:201,1,49.5000015106202
337,74,486642,5,0,0:0:0:0:
337,74,486795,2,0,P|304:91|278:95,1,49.5000015106202
231,38,487103,1,0,0:0:0:0:
231,38,487257,2,0,P|200:45|168:46,1,49.5000015106202
79,116,487565,1,0,0:0:0:0:
79,116,487718,2,0,P|77:152|84:180,1,49.5000015106202
203,179,488026,1,0,0:0:0:0:
203,179,488180,2,0,P|199:208|180:243,1,49.5000015106202
191,301,488488,2,0,L|221:357,1,49.5000015106202
254,299,488795,2,0,L|270:242,1,49.5000015106202
248,184,489103,5,0,0:0:0:0:
248,184,489257,2,0,L|259:129,1,49.5000015106202
352,103,489565,1,0,0:0:0:0:
352,103,489718,2,0,L|398:60,1,49.5000015106202
457,141,490026,1,0,0:0:0:0:
457,141,490180,2,0,L|441:197,1,49.5000015106202
345,205,490488,1,0,0:0:0:0:
345,205,490642,2,0,L|363:255,1,49.5000015106202
306,300,490949,2,0,L|251:334,1,49.5000015106202
166,346,491257,2,0,L|104:327,1,49.5000015106202
44,280,491565,5,0,0:0:0:0:
44,280,491718,2,0,L|52:216,1,49.5000015106202
142,192,492026,1,0,0:0:0:0:
142,192,492180,2,0,L|182:243,1,49.5000015106202
272,233,492488,1,0,0:0:0:0:
272,233,492642,2,0,L|315:186,1,49.5000015106202
356,111,492949,1,0,0:0:0:0:
356,111,493103,2,0,L|299:78,1,49.5000015106202
177,92,493411,5,0,0:0:0:0:
211,222,493565,1,0,0:0:0:0:
88,167,493718,1,0,0:0:0:0:
221,146,493872,1,0,0:0:0:0:
141,255,494026,5,8,0:0:0:0:
10,220,494180,1,8,0:0:0:0:
44,350,494334,1,8,0:0:0:0:
86,221,494488,5,8,0:0:0:0:
162,332,494642,1,8,0:0:0:0:
266,247,494795,1,8,0:0:0:0:
149,178,494949,5,8,0:0:0:0:
258,98,495103,1,8,0:0:0:0:
329,212,495257,1,8,0:0:0:0:
380,87,495411,5,8,0:0:0:0:
448,203,495565,1,8,0:0:0:0:
378,318,495718,1,8,0:0:0:0:
272,233,495872,5,8,0:0:0:0:
272,233,496026,2,0,P|252:181|208:141,1,90
116,231,496334,5,8,0:0:0:0:
168,106,496488,2,8,P|211:79|265:68,1,90
338,169,496795,1,8,0:0:0:0:
219,233,496949,2,8,P|180:269|154:311,1,90
73,194,497257,5,8,0:0:0:0:
199,147,497411,2,8,L|264:77,1,90
290,212,497718,1,8,0:0:0:0:
423,232,497872,2,8,L|454:137,1,90
375,33,498180,1,8,0:0:0:0:
360,156,498334,6,0,L|285:215,1,90
156,242,498642,2,0,L|241:298,1,90
366,283,498949,5,8,0:0:0:0:
338,150,499103,1,8,0:0:0:0:
222,220,499257,1,8,0:0:0:0:
94,174,499411,5,8,0:0:0:0:
165,59,499565,1,8,0:0:0:0:
260,153,499718,1,8,0:0:0:0:
149,230,499872,5,8,0:0:0:0:
102,103,500026,1,8,0:0:0:0:
23,214,500180,1,8,0:0:0:0:
114,314,500334,5,8,0:0:0:0:
156,185,500488,1,8,0:0:0:0:
231,296,500642,1,8,0:0:0:0:
320,195,500795,5,0,0:0:0:0:
221,102,500949,1,0,0:0:0:0:
320,195,501103,1,0,0:0:0:0:
221,102,501257,1,0,0:0:0:0:
320,195,501411,5,8,0:0:0:0:
191,236,501565,1,8,0:0:0:0:
277,133,501718,1,8,0:0:0:0:
143,151,501872,5,8,0:0:0:0:
263,212,502026,1,8,0:0:0:0:
147,282,502180,1,8,0:0:0:0:
53,184,502334,5,8,0:0:0:0:
145,85,502488,1,8,0:0:0:0:
247,173,502642,1,8,0:0:0:0:
138,252,502795,5,8,0:0:0:0:
254,320,502949,1,8,0:0:0:0:
339,215,503103,1,8,0:0:0:0:
214,268,503257,5,8,0:0:0:0:
306,169,503411,1,8,0:0:0:0:
202,82,503565,1,8,0:0:0:0:
334,60,503718,1,8,0:0:0:0:
417,143,503872,5,2,0:0:0:0:
256,192,524973,12,0,527435,0:0:0:0:
199,300,527633,5,0,0:0:0:0:
133,86,527786,2,0,P|188:56|235:41,1,90
424,129,528094,1,0,0:0:0:0:
202,169,528248,2,0,P|157:187|116:207,1,90
264,379,528556,1,0,0:0:0:0:
397,212,528709,2,0,P|422:156|423:125,1,90
206,60,529017,5,0,0:0:0:0:
320,254,529171,1,0,0:0:0:0:
143,113,529325,1,0,0:0:0:0:
56,320,529479,1,0,0:0:0:0:
227,174,529633,1,0,0:0:0:0:
40,70,529786,1,0,0:0:0:0:
162,259,529940,5,0,0:0:0:0:
162,259,530094,2,0,P|216:245|262:223,1,90
128,37,530402,1,0,0:0:0:0:
128,37,530556,2,0,P|114:85|120:134,1,90
342,112,530863,1,0,0:0:0:0:
342,112,531017,2,0,P|339:164|325:206,1,90
133,316,531325,1,0,0:0:0:0:
357,305,531479,1,0,0:0:0:0:
440,95,531633,5,0,0:0:0:0:
287,258,531786,1,0,0:0:0:0:
112,115,531940,1,0,0:0:0:0:
337,106,532094,1,0,0:0:0:0:
443,304,532248,1,0,0:0:0:0:
220,271,532402,1,0,0:0:0:0:
220,271,532556,6,0,P|206:217|181:181,1,90
13,45,532863,1,0,0:0:0:0:
13,45,533017,2,0,P|54:97|69:129,1,90
101,341,533325,1,0,0:0:0:0:
101,341,533479,2,0,P|142:291|150:262,1,90
247,64,533786,1,0,0:0:0:0:
315,278,533940,1,0,0:0:0:0:
366,58,534094,5,0,0:0:0:0:
122,175,534248,1,0,0:0:0:0:
391,150,534402,1,0,0:0:0:0:
64,188,534556,1,0,0:0:0:0:
331,213,534709,1,0,0:0:0:0:
79,113,534863,1,0,0:0:0:0:
295,274,535017,1,0,0:0:0:0:
295,274,535171,6,0,P|347:304|391:317,1,90
435,94,535479,1,0,0:0:0:0:
435,94,535633,2,0,P|397:123|343:143,1,90
134,117,535940,1,0,0:0:0:0:
134,117,536094,2,0,P|185:141|225:166,1,90
374,318,536402,5,0,0:0:0:0:
148,326,536556,1,0,0:0:0:0:
51,124,536709,1,0,0:0:0:0:
219,273,536863,1,0,0:0:0:0:
103,79,537017,1,0,0:0:0:0:
64,300,537171,1,0,0:0:0:0:
194,116,537325,1,0,0:0:0:0:
359,329,537479,5,8,0:0:0:0:
130,184,537633,1,8,0:0:0:0:
130,184,537786,1,8,0:0:0:0:
380,83,537940,5,8,0:0:0:0:
193,278,538094,1,8,0:0:0:0:
193,278,538248,1,8,0:0:0:0:
123,16,538402,5,8,0:0:0:0:
300,219,538556,1,8,0:0:0:0:
300,219,538709,1,8,0:0:0:0:
40,144,538863,5,8,0:0:0:0:
305,91,539017,1,8,0:0:0:0:
305,91,539171,1,8,0:0:0:0:
202,341,539325,6,0,P|136:300|116:261,1,90
305,91,539633,2,0,P|355:119|397:165,1,90
357,367,539940,2,8,L|311:341,1,45
229,240,540094,5,8,0:0:0:0:
229,240,540248,1,8,0:0:0:0:
494,186,540402,2,8,L|452:153,1,45
352,71,540556,5,8,0:0:0:0:
352,71,540709,1,8,0:0:0:0:
151,252,540863,2,8,L|174:202,1,45
214,81,541017,5,8,0:0:0:0:
214,81,541171,1,8,0:0:0:0:
255,348,541325,2,8,L|266:288,1,45
297,171,541479,5,8,0:0:0:0:
297,171,541633,1,8,0:0:0:0:
392,191,541786,6,0,L|396:295,1,90
132,300,542094,2,0,L|123:187,1,90
287,306,542402,6,2,B|295:239|295:239|322:164|217:358|263:159|263:159|346:136|296:68,1,360
