osu file format v14

[General]
AudioFilename: audio.mp3
AudioLeadIn: 0
PreviewTime: 55
Countdown: 0
SampleSet: Drum
StackLeniency: 0.4
Mode: 0
LetterboxInBreaks: 0
WidescreenStoryboard: 1

[Editor]
Bookmarks: 50828,53573,56647,61774,64502,67561,73165
DistanceSpacing: 0.9
BeatDivisor: 4
GridSize: 32
TimelineZoom: 2.800005

[Metadata]
Title:Basket Case
TitleUnicode:Basket Case
Artist:Green Day
ArtistUnicode:Green Day
Creator:Hectic
Version:Hard
Source:
Tags:h4d0uk3n1 kuyusu fergas schoolboy komore xbopost tokiko time freeze ksardas smozit adioni frakturehawkens themefisto fcl senseabel rock english punk-rock punk pop-punk alternative dookie
BeatmapID:3200741
BeatmapSetID:1142364

[Difficulty]
HPDrainRate:4
CircleSize:3
OverallDifficulty:6
ApproachRate:8
SliderMultiplier:2
SliderTickRate:1

[Events]
//Background and Video events
0,0,"l;;;;;;;.jpg",0,0
//Break Periods
2,42637,46082
//Storyboard Layer 0 (Background)
//Storyboard Layer 1 (Fail)
//Storyboard Layer 2 (Pass)
//Storyboard Layer 3 (Foreground)
//Storyboard Layer 4 (Overlay)
//Storyboard Sound Samples

[TimingPoints]
36863,392.156862745098,4,3,1,65,1,0
37059,358.208955223881,4,3,1,65,1,0
37596,344.827586206897,4,3,1,65,1,0
37768,336.134453781513,4,3,1,65,1,0
38104,350.877192982456,4,3,1,65,1,0
38454,338.983050847458,4,3,1,65,1,0
38623,330.578512396694,4,3,1,65,1,0
38953,382.165605095541,4,3,1,65,1,0
39144,338.983050847458,4,3,1,65,1,0
39313,363.636363636364,4,3,1,65,1,0
39494,344.827586206897,4,3,1,65,1,0
39666,357.142857142857,4,3,1,65,1,0
40023,300,4,3,1,65,1,0
40173,348.837209302326,4,3,1,65,1,0
40347,389.61038961039,4,3,1,65,1,0
40541,376.175548589342,4,3,1,65,1,0
40729,338.983050847458,4,3,1,65,1,0
40898,341.880341880342,4,3,1,65,1,0
41239,365.853658536585,4,3,1,65,1,0
41421,349.854227405248,4,3,1,65,1,0
41770,340.909090909091,4,3,1,65,1,0
42110,322.58064516129,4,3,1,65,1,0
42271,333.333333333333,4,3,1,65,1,0
42437,368.098159509203,4,3,1,65,1,0
46486,346.820809248555,4,3,1,65,1,0
46832,350.877192982456,4,3,1,65,1,0
47884,294.117647058824,4,3,1,65,1,0
48031,408.163265306122,4,3,1,65,1,0
48235,342.857142857143,4,3,1,65,1,0
48920,348.837209302326,4,3,1,65,1,0
49268,331.491712707183,4,3,1,65,1,0
49433,357.142857142857,4,3,1,65,1,0
49790,372.670807453416,4,3,1,65,1,0
49976,340.909090909091,4,3,1,65,1,0
50316,352.941176470589,4,3,1,65,1,0
50492,329.67032967033,4,3,1,65,1,0
50492,-102.040816326531,4,3,1,65,0,0
50656,345.821325648415,4,3,1,65,1,0
51001,344.827586206897,4,3,1,65,1,0
51863,361.44578313253,4,3,1,65,1,0
52043,327.868852459016,4,3,1,65,1,0
52206,335.195530726257,4,3,1,65,1,0
52541,375,4,3,1,65,1,0
52728,335.195530726257,4,3,1,65,1,0
53063,344.827586206897,4,3,1,65,1,0
53235,-98.0392156862745,4,3,1,65,0,0
53407,333.333333333333,4,3,1,65,1,0
53740,355.029585798817,4,3,1,65,1,0
54095,342.857142857143,4,3,1,65,1,0
54437,333.333333333333,4,3,1,65,1,0
54770,329.67032967033,4,3,1,65,1,0
55264,368.098159509202,4,3,1,65,1,0
55448,316.122233930453,4,3,1,65,1,0
55606,344.827586206897,4,3,1,65,1,0
55950,363.636363636364,4,3,1,65,1,0
56131,340.909090909091,4,3,1,65,1,0
56301,-101.522842639594,4,3,1,65,0,0
56471,352.941176470588,4,3,1,65,1,0
56823,339.943342776204,4,3,1,65,1,0
57672,344.827586206897,4,3,1,65,1,0
58016,352.941176470588,4,3,1,65,1,0
58192,340.909090909091,4,3,1,65,1,0
58532,333.333333333333,4,3,1,65,1,0
59198,355.029585798817,4,3,1,65,1,0
59464,-100,4,3,1,5,0,0
59553,342.857142857143,4,3,1,65,1,0
60238,329.67032967033,4,3,1,65,1,0
60402,344.332855093257,4,3,1,65,1,0
60746,350.877192982456,4,3,1,65,1,0
60921,342.857142857143,4,3,1,65,1,0
61263,333.333333333333,4,3,1,65,1,0
61429,355.029585798817,4,3,1,65,1,0
61429,-97.0873786407767,4,3,1,65,0,0
61606,337.078651685393,4,3,1,65,1,0
61943,349.854227405248,4,3,1,65,1,0
62817,327.868852459016,4,3,1,65,1,0
62980,338.983050847458,4,3,1,65,1,0
63149,344.827586206897,4,3,1,65,1,0
63493,340.909090909091,4,3,1,65,1,0
63663,337.078651685393,4,3,1,65,1,0
64168,-99.009900990099,4,3,1,65,0,0
64337,331.491712707182,4,3,1,65,1,0
64668,338.983050847458,4,3,1,65,1,0
65345,348.837209302326,4,3,1,65,1,0
65693,329.67032967033,4,3,1,65,1,0
65857,342.857142857143,4,3,1,65,1,0
66371,337.078651685393,4,3,1,65,1,0
66539,341.880341880342,4,3,1,65,1,0
66795,-100,4,3,1,5,0,0
66880,-100,4,3,1,65,0,0
67051,338.028169014084,4,3,1,65,1,0
67220,-101.010101010101,4,3,1,65,0,0
67389,344.827586206897,4,3,1,65,1,0
67733,340.909090909091,4,3,1,65,1,0
68073,320.855614973262,4,3,1,65,1,0
68233,342.857142857143,4,3,1,65,1,0
68575,327.868852459016,4,3,1,65,1,0
69066,332.409972299169,4,3,1,65,1,0
69564,-100,4,3,2,65,0,0
69730,-100,4,3,1,65,0,0
69813,-100,4,3,2,65,0,0
70063,358.208955223881,4,3,1,65,1,0
70421,352.422907488987,4,3,1,65,1,0
70773,350.877192982456,4,3,1,65,1,0
70948,338.983050847458,4,3,1,65,1,0
71117,333.333333333333,4,3,1,65,1,0
71283,337.078651685393,4,3,1,65,1,0
71957,346.820809248555,4,3,1,65,1,0
72303,363.636363636364,4,3,1,65,1,0
72484,333.333333333333,4,3,1,65,1,0
72817,344.827586206897,4,3,1,65,1,0
72817,-101.010101010101,4,3,1,65,0,0
72989,352.941176470588,4,3,1,65,1,0
73165,349.854227405248,4,3,1,65,1,0
73514,335.195530726257,4,3,1,65,1,0
73849,327.868852459016,4,3,1,65,1,0
74012,344.827586206897,4,3,1,65,1,0
74529,338.983050847458,4,3,1,65,1,0
74698,322.58064516129,4,3,1,65,1,0
75181,-100,4,3,2,65,0,0
75343,344.827586206897,4,3,2,65,1,0
75343,-100,4,3,2,65,0,0
75515,350.877192982456,4,3,1,65,1,0
75865,346.820809248555,4,3,1,65,1,0
76211,352.941176470588,4,3,1,65,1,0
76387,333.333333333333,4,3,1,65,1,0
76553,338.983050847458,4,3,1,65,1,0
77061,384.615384615385,4,3,1,65,1,0
77253,348.837209302326,4,3,1,65,1,0
77427,350.877192982456,4,3,1,65,1,0
77953,343.839541547278,4,3,1,65,1,0
78640,338.983050847458,4,3,1,65,1,0
78978,331.491712707182,4,3,1,65,1,0
79475,344.827586206897,4,3,1,65,1,0
79819,350.877192982456,4,3,1,65,1,0
79994,346.820809248555,4,3,1,65,1,0
80514,338.983050847458,4,3,1,65,1,0
80683,333.333333333333,4,3,1,65,1,0
81016,348.837209302326,4,3,1,65,1,0
81364,343.839541547278,4,3,1,65,1,0
81707,356.083086053412,4,3,1,65,1,0
81885,337.078651685393,4,3,1,65,1,0
82053,344.827586206897,4,3,1,65,1,0
82225,352.941176470588,4,3,1,65,1,0
82577,335.195530726257,4,3,1,65,1,0
82744,344.827586206897,4,3,1,65,1,0
83261,357.142857142857,4,3,1,65,1,0
83439,320.855614973262,4,3,1,65,1,0
83759,346.820809248555,4,3,1,65,1,0
83932,342.857142857143,4,3,1,65,1,0
84446,338.983050847458,4,3,1,65,1,0
84954,322.58064516129,4,3,1,65,1,0
85276,348.837209302326,4,3,1,65,1,0
85450,344.827586206897,4,3,1,65,1,0
85794,357.142857142857,4,3,1,65,1,0
85972,344.827586206897,4,3,1,65,1,0
86144,394.736842105263,4,3,1,65,1,0
86341,340.909090909091,4,3,1,65,1,0
86767,-100,4,3,1,5,0,0
86852,300,4,3,1,65,1,0
87002,359.281437125748,4,3,1,65,1,0
87361,357.142857142857,4,3,1,65,1,0
87539,329.67032967033,4,3,1,65,1,0
87703,337.078651685393,4,3,1,65,1,0
88040,382.165605095541,4,3,1,65,1,0
88231,329.67032967033,4,3,1,65,1,0
88560,340.909090909091,4,3,1,65,1,0
88730,363.636363636364,4,3,1,65,1,0
88911,324.324324324324,4,3,1,65,1,0
89073,342.857142857143,4,3,1,65,1,0
89244,355.029585798817,4,3,1,65,1,0
89599,327.868852459016,4,3,1,65,1,0
89762,384.615384615385,4,3,1,65,1,0
89954,333.333333333333,4,3,1,65,1,0
90287,269.058295964126,4,3,1,65,1,0
90421,392.156862745098,4,3,1,65,1,0
90617,352.941176470588,4,3,1,65,1,0
90969,292.682926829268,4,3,1,65,1,0
91115,382.165605095541,4,3,1,65,1,0
91306,344.827586206897,4,3,1,65,1,0
91650,285.714285714286,4,3,1,65,1,0
91792,352.941176470588,4,3,1,65,1,0
92321,315.789473684211,4,3,1,65,1,0
92478,387.096774193548,4,3,1,65,1,0
92671,335.195530726257,4,3,1,65,1,0
93006,319.148936170213,4,3,1,65,1,0
93165,352.941176470588,4,3,1,65,1,0
93341,344.827586206897,4,3,1,65,1,0
93685,260.869565217391,4,3,1,65,1,0
93815,352.941176470588,4,3,1,65,1,0
93991,350.877192982456,4,3,1,65,1,0
94341,346.820809248555,4,3,1,65,1,0
94687,340.909090909091,4,3,1,65,1,0
95027,294.117647058824,4,3,1,65,1,0
95174,359.281437125748,4,3,1,65,1,0
95353,338.983050847458,4,3,1,65,1,0
95691,295.566502463054,4,3,1,65,1,0
95838,373.831775700935,4,3,1,65,1,0
96024,357.142857142857,4,3,1,65,1,0
96381,281.69014084507,4,3,1,65,1,0
96521,387.096774193548,4,3,1,65,1,0
96714,329.67032967033,4,3,1,65,1,0
97043,326.086956521739,4,3,1,65,1,0
97369,340.909090909091,4,3,1,65,1,0
97880,384.615384615385,4,3,1,65,1,0
98072,334.261838440111,4,3,1,65,1,0
98406,331.491712707182,4,3,1,65,1,0
98571,346.820809248555,4,3,1,65,1,0
98744,342.857142857143,4,3,1,65,1,0
99086,247.933884297521,4,3,1,65,1,0
99209,406.779661016949,4,3,1,65,1,0
99412,348.837209302326,4,3,1,65,1,0
99586,355.029585798817,4,3,1,65,1,0
100118,347.826086956522,4,3,1,65,1,0
100465,312.5,4,3,1,65,1,0
100621,342.857142857143,4,3,1,65,1,0
100792,361.44578313253,4,3,1,65,1,0
100972,340.909090909091,4,3,1,65,1,0
101142,294.117647058824,4,3,1,65,1,0
101289,344.827586206897,4,3,1,65,1,0
101633,375,4,3,1,65,1,0
101820,333.333333333333,4,3,1,65,1,0
101986,344.827586206897,4,3,1,65,1,0
102158,338.983050847458,4,3,1,65,1,0
102327,329.67032967033,4,3,1,65,1,0
102491,329.67032967033,4,3,1,65,1,0
102655,342.857142857143,4,3,1,65,1,0
103169,337.078651685393,4,3,1,65,1,0
103337,344.827586206897,4,3,1,65,1,0
103509,329.67032967033,4,3,1,65,1,0
103673,346.820809248555,4,3,1,65,1,0
103846,324.324324324324,4,3,1,65,1,0
104008,357.142857142857,4,3,1,65,1,0
104186,340.909090909091,4,3,1,65,1,0
105038,340.909090909091,4,3,1,65,1,0
105208,359.281437125748,4,3,1,65,1,0
105387,357.142857142857,4,3,1,65,1,0
105565,349.854227405248,4,3,1,65,1,0
105914,346.820809248555,4,3,1,65,1,0
106260,312.5,4,3,1,65,1,0
106416,361.44578313253,4,3,1,65,1,0
106596,345.821325648415,4,3,1,65,1,0
106768,337.078651685393,4,3,1,65,1,0
107105,352.941176470588,4,3,1,65,1,0
107281,350.877192982456,4,3,1,65,1,0
107631,322.58064516129,4,3,1,65,1,0
107792,340.909090909091,4,3,1,65,1,0
108303,358.208955223881,4,3,1,65,1,0
108571,-100,4,3,1,5,0,0
108661,352.941176470588,4,3,1,65,1,0
109013,309.278350515464,4,3,1,65,1,0
109167,333.333333333333,4,3,1,65,1,0
109833,379.746835443038,4,3,1,65,1,0
110022,355.029585798817,4,3,1,65,1,0
110377,306.90537084399,4,3,1,65,1,0
110530,324.324324324324,4,3,1,65,1,0
110692,344.827586206897,4,3,1,65,1,0
111036,350.877192982456,4,3,1,65,1,0
111386,346.820809248555,4,3,1,65,1,0
111732,333.333333333333,4,3,1,65,1,0
112065,315.789473684211,4,3,1,65,1,0
112222,344.827586206897,4,3,1,65,1,0
112566,382.165605095541,4,3,1,65,1,0
112757,322.58064516129,4,3,1,65,1,0
112918,331.491712707182,4,3,1,65,1,0
113249,375,4,3,1,65,1,0
113436,355.029585798817,4,3,1,65,1,0
114501,329.67032967033,4,3,1,65,1,0
114830,322.58064516129,4,3,1,65,1,0
114991,335.195530726257,4,3,1,65,1,0
115326,340.909090909091,4,3,1,65,1,0
115496,349.854227405248,4,3,1,65,1,0
115845,326.086956521739,4,3,1,65,1,0
116008,361.44578313253,4,3,1,65,1,0
116188,355.029585798817,4,3,1,65,1,0
116543,358.208955223881,4,3,1,65,1,0
117259,322.58064516129,4,3,1,65,1,0
117420,359.281437125748,4,3,1,65,1,0
117599,345.821325648415,4,3,1,65,1,0
117771,338.028169014084,4,3,1,65,1,0
118109,361.44578313253,4,3,1,65,1,0
118289,348.837209302326,4,3,1,65,1,0
118637,329.67032967033,4,3,1,65,1,0
118801,348.837209302326,4,3,1,65,1,0
118975,333.333333333333,4,3,1,65,1,0
119308,357.142857142857,4,3,1,65,1,0
120022,338.983050847458,4,3,1,65,1,0
120191,324.324324324324,4,3,1,65,1,0
120515,315.789473684211,4,3,1,65,1,0
120830,400,4,3,1,65,1,0
121030,340.909090909091,4,3,1,65,1,0
121370,283.018867924528,4,3,1,65,1,0
121511,375,4,3,1,65,1,0
121698,344.827586206897,4,3,1,65,1,0
122042,357.142857142857,4,3,1,65,1,0
122399,346.820809248555,4,3,1,65,1,0
122745,338.983050847458,4,3,1,65,1,0
122914,333.333333333333,4,3,1,65,1,0
123247,326.086956521739,4,3,1,65,1,0
123573,375,4,3,1,65,1,0
123760,324.324324324324,4,3,1,65,1,0
123922,361.44578313253,4,3,1,65,1,0
124464,337.078651685393,5,3,1,65,1,0
125980,327.868852459016,4,3,1,65,1,0
126307,344.827586206897,4,3,1,65,1,0
126479,338.028169014084,4,3,1,65,1,0
126817,333.333333333333,4,3,2,65,1,0
126817,-100,4,3,2,65,0,0
127150,-100,4,3,1,65,0,0
127483,348.837209302326,4,3,1,65,1,0
127831,331.491712707182,4,3,1,65,1,0
128991,359.281437125748,4,3,1,65,1,0
129170,329.67032967033,4,3,1,65,1,0
129334,339.943342776204,4,3,1,65,1,0
129673,335.195530726257,4,3,1,65,1,0
129840,304.568527918782,4,3,1,65,1,0
129992,372.670807453416,4,3,1,65,1,0
130178,348.837209302326,4,3,1,65,1,0
130526,344.827586206897,4,3,1,65,1,0
130870,337.078651685393,4,3,1,65,1,0
131038,342.857142857143,4,3,1,65,1,0
131209,319.148936170213,4,3,1,65,1,0
131687,352.941176470588,4,3,1,65,1,0
132039,335.195530726257,4,3,1,65,1,0
132374,327.868852459016,4,3,1,65,1,0
132537,319.148936170213,4,3,2,65,1,0
132537,-100,4,3,2,65,0,0
132696,350.877192982456,4,3,2,65,1,0
132696,-100,4,3,2,65,0,0
132871,353.982300884956,4,3,1,65,1,0
133224,340.909090909091,4,3,1,65,1,0
133905,317.460317460317,4,3,1,65,1,0
134063,327.868852459016,4,3,1,65,1,0
134554,333.333333333333,4,3,1,65,1,0
134720,335.195530726257,4,3,1,65,1,0
135055,357.142857142857,4,3,1,65,1,0
135233,344.827586206897,4,3,1,65,1,0
135577,348.837209302326,4,3,1,65,1,0
135925,342.857142857143,4,3,1,65,1,0
136267,336.134453781513,4,3,1,65,1,0
136771,320.855614973262,4,3,1,65,1,0
137091,340.909090909091,4,3,1,65,1,0
137261,329.67032967033,4,3,1,65,1,0
137425,303.030303030303,4,3,1,65,1,0
137576,331.491712707182,4,3,1,65,1,0
137907,346.820809248555,4,3,2,65,1,0
137907,-100,4,3,2,65,0,0
138253,357.142857142857,4,3,1,65,1,0
138610,327.868852459016,4,3,1,65,1,0
138937,333.333333333333,4,3,1,65,1,0
139103,350.877192982456,4,3,1,65,1,0
139278,333.333333333333,4,3,1,65,1,0
140444,319.148936170213,4,3,1,65,1,0
140842,-100,4,3,1,5,0,0
140922,333.333333333333,4,3,1,65,1,0
141088,342.857142857143,4,3,1,65,1,0
141602,340.909090909091,4,3,1,65,1,0
141772,365.853658536585,4,3,1,65,1,0
141954,317.460317460317,4,3,1,65,1,0
142430,352.941176470588,4,3,1,65,1,0
142606,331.491712707182,4,3,1,65,1,0
142937,361.44578313253,4,3,1,65,1,0
143117,333.333333333333,4,3,1,65,1,0
143450,319.148936170213,4,3,1,65,1,0
143609,352.941176470588,5,3,1,65,1,0
143961,310.880829015544,4,3,1,65,1,0
144116,324.324324324324,4,3,1,65,1,0
144440,387.096774193548,4,3,1,65,1,0
144633,326.086956521739,4,3,1,65,1,0
145122,357.142857142857,4,3,1,65,1,0
145300,320.855614973262,4,3,1,65,1,0
145620,327.868852459016,4,3,1,65,1,0
145947,340.909090909091,4,3,1,65,1,0
146287,352.941176470588,4,3,1,65,1,0
146639,335.195530726257,4,3,1,65,1,0
146806,352.941176470588,4,3,1,65,1,0
147158,350.877192982456,4,3,1,65,1,0
147333,340.909090909091,4,3,1,65,1,0
147673,346.820809248555,4,3,1,65,1,0
148019,335.195530726257,4,3,1,65,1,0
148186,340.909090909091,4,3,1,65,1,0
148526,350.877192982456,4,3,1,65,1,0
148701,329.67032967033,4,3,1,65,1,0
149030,340.909090909091,4,3,1,65,1,0
149711,355.029585798817,4,3,1,65,1,0
149888,346.820809248555,4,3,1,65,1,0
150061,304.568527918782,4,3,1,65,1,0
150213,333.333333333333,4,3,1,65,1,0
150546,350.877192982456,4,3,1,65,1,0
150721,292.682926829268,4,3,1,65,1,0
150867,375,4,3,1,65,1,0
151054,303.030303030303,4,3,1,65,1,0
151205,342.857142857143,4,3,1,65,1,0
151376,295.566502463054,4,3,1,65,1,0
151523,352.941176470588,4,3,1,65,1,0
151699,359.281437125748,4,3,1,65,1,0
152058,337.078651685393,4,3,1,65,1,0
153069,346.820809248555,4,3,1,65,1,0
153415,333.333333333333,4,3,1,65,1,0
153581,340.909090909091,4,3,1,65,1,0
154433,337.078651685393,4,3,1,65,1,0
154770,324.324324324324,4,3,1,65,1,0
155094,348.837209302326,4,3,1,65,1,0
155442,312.5,4,3,1,65,1,0
155598,333.333333333333,4,3,1,65,1,0
155931,337.078651685393,4,3,1,65,1,0
156099,329.67032967033,4,3,1,65,1,0
156263,300,4,3,2,65,1,0
156263,-100,4,3,2,65,0,0
156413,315.789473684211,4,3,2,65,1,0
156413,-100,4,3,2,65,0,0
156570,304.568527918782,4,3,2,65,1,0
156570,-100,4,3,2,65,0,0
156722,340.909090909091,4,3,2,65,1,0
156722,-100,4,3,2,65,0,0
157062,353.982300884956,4,3,1,65,1,0
157415,346.820809248555,4,3,1,65,1,0
157588,337.078651685393,4,3,1,65,1,0
157925,361.44578313253,4,3,1,65,1,0
158105,333.333333333333,4,3,1,65,1,0
158605,344.827586206897,4,3,1,65,1,0
158777,312.5,4,3,1,65,1,0
158933,338.983050847458,4,3,1,65,1,0
159271,368.098159509202,4,3,1,65,1,0
159455,342.857142857143,4,3,1,65,1,0
160140,331.491712707182,4,3,1,65,1,0
160471,342.857142857143,4,3,1,65,1,0
160642,363.636363636364,4,3,1,65,1,0
160823,317.460317460317,4,3,1,65,1,0
160981,340.909090909091,4,3,1,65,1,0
161321,350.877192982456,4,3,1,65,1,0
161496,292.682926829268,4,3,1,65,1,0
161642,370.37037037037,4,3,1,65,1,0
161827,315.789473684211,4,3,1,65,1,0
161984,331.491712707182,4,3,1,65,1,0
162149,266.666666666667,4,3,1,65,1,0
162282,413.793103448276,4,3,1,65,1,0
162488,340.909090909091,4,3,1,65,1,0
162828,337.078651685393,4,3,1,65,1,0
163165,361.44578313253,4,3,1,65,1,0
163345,344.827586206897,4,3,1,65,1,0
163517,303.030303030303,4,3,1,65,1,0
163668,363.636363636364,4,3,1,65,1,0
164213,300,4,3,1,65,1,0
164363,335.195530726257,4,3,1,65,1,0
164698,365.853658536585,4,3,1,65,1,0
164880,338.983050847458,4,3,1,65,1,0
165896,324.324324324324,4,3,1,65,1,0
166220,365.853658536585,4,3,1,65,1,0
166951,357.142857142857,4,3,1,65,1,0
167308,335.195530726257,4,3,1,65,1,0
167643,327.868852459016,4,3,1,65,1,0
167970,379.746835443038,4,3,1,65,1,0
168349,348.837209302326,4,3,1,65,1,0
168697,384.615384615385,4,3,1,65,1,0
176581,-100,4,3,1,5,0,0

[Colours]
Combo1 : 60,96,164
Combo2 : 150,41,90
Combo3 : 136,87,166
Combo4 : 94,71,184

[HitObjects]
48,28,36863,5,6,0:0:0:0:
74,108,37059,1,8,0:0:0:0:
60,114,37148,1,8,0:0:0:0:
48,130,37238,2,0,L|40:195,3,50,8|8|8|8,0:0|0:0|0:0|0:0,0:0:0:0:
42,205,37596,6,0,B|94:229|94:229|135:207,1,100,6|6,0:0|0:0,0:0:0:0:
203,172,37936,1,8,0:0:0:0:
278,247,38104,6,0,P|287:186|401:210,1,200,6|4,0:0|0:0,0:0:0:0:
383,304,38623,5,8,0:0:0:0:
381,317,38705,1,8,0:0:0:0:
383,334,38788,2,0,L|455:351,2,50,8|8|4,0:0|0:0|0:0,0:0:0:0:
463,265,39144,2,0,L|520:255,2,50,8|8|4,0:0|0:0|0:0,0:0:0:0:
299,337,39494,1,8,0:0:0:0:
284,325,39580,1,8,0:0:0:0:
278,306,39666,6,0,P|282:254|298:203,1,100,6|0,0:0|0:0,0:0:0:0:
373,82,40023,2,0,B|352:131|352:131|283:124,1,100,8|4,0:0|0:0,0:0:0:0:
233,86,40347,1,4,0:0:0:0:
204,7,40541,2,0,L|220:134,1,100,4|8,0:0|0:0,0:0:0:0:
40,161,40898,6,0,P|64:121|124:213,1,200,6|4,0:0|0:0,0:0:0:0:
197,368,41421,2,0,L|191:261,1,100,8|0,0:0|0:0,0:0:0:0:
275,160,41770,5,4,0:0:0:0:
351,130,41940,1,4,0:0:0:0:
419,176,42110,2,0,L|428:288,1,100,8|4,0:0|0:0,0:0:0:0:
512,381,42437,5,6,0:0:0:0:
184,217,46832,5,4,0:0:0:0:
184,217,46919,1,8,0:0:0:0:
266,246,47095,5,8,0:0:0:0:
266,246,47182,1,4,0:0:0:0:
328,308,47358,5,8,0:0:0:0:
328,308,47446,1,4,0:0:0:0:
365,383,47621,5,8,0:0:0:0:
365,383,47709,1,4,0:0:0:0:
456,258,47884,6,0,P|458:338|454:381,1,100,8|4,0:0|0:0,0:0:0:0:
446,246,48235,6,0,B|399:217|399:217|439:56,1,200,6|8,0:0|0:0,0:0:0:0:
433,76,48920,5,4,0:0:0:0:
382,142,49094,1,4,0:0:0:0:
300,163,49268,1,8,0:0:0:0:
438,69,49433,6,0,P|464:126|449:270,1,200,4|4,0:0|0:0,0:0:0:0:
299,250,49976,2,0,L|183:232,2,100,8|0|4,0:0|0:0|0:0,0:0:0:0:
169,141,50492,6,0,P|195:198|92:259,1,200,4|0,0:0|0:0,0:0:0:0:
140,50,51001,6,0,P|227:79|256:109,1,100,6|0,0:0|0:0,0:0:0:0:
282,217,51345,2,0,B|297:139|297:139|348:110,1,100,8|0,0:0|0:0,0:0:0:0:
453,197,51690,5,4,0:0:0:0:
370,206,51863,1,4,0:0:0:0:
269,300,52043,1,8,0:0:0:0:
395,328,52206,6,0,P|404:249|406:111,1,200,4|4,0:0|0:0,0:0:0:0:
319,20,52728,1,8,0:0:0:0:
319,20,53063,5,4,0:0:0:0:
402,42,53235,2,0,L|184:27,1,200,4|0,0:0|0:0,0:0:0:0:
314,154,53740,6,0,B|281:193|281:193|296:256,1,100,6|0,0:0|0:0,0:0:0:0:
397,370,54095,2,0,P|394:318|356:284,1,100,8|0,0:0|0:0,0:0:0:0:
246,304,54437,5,4,0:0:0:0:
178,232,54603,2,0,P|162:309|158:360,1,100,4|8,0:0|0:0,0:0:0:0:
242,176,54934,6,0,P|235:114|217:64,1,100,4|0,0:0|0:0,0:0:0:0:
328,151,55264,2,0,B|325:227|325:227|276:262,1,100,4|8,0:0|0:0,0:0:0:0:
425,126,55606,2,0,L|211:169,1,200,4|4,0:0|0:0,0:0:0:0:
80,94,56131,5,8,0:0:0:0:
163,109,56301,2,0,P|198:170|104:274,1,200
259,383,56823,2,0,L|251:258,1,100,8|0,0:0|0:0,0:0:0:0:
312,125,57162,5,4,0:0:0:0:
296,210,57332,1,4,0:0:0:0:
439,232,57502,1,8,0:0:0:0:
468,313,57672,6,0,L|453:99,1,200,6|4,0:0|0:0,0:0:0:0:
382,292,58192,2,0,B|373:358|373:358|408:395,1,100,8|0,0:0|0:0,0:0:0:0:
469,325,58532,5,4,0:0:0:0:
287,364,58698,1,4,0:0:0:0:
200,353,58865,1,8,0:0:0:0:
200,353,59198,6,0,P|252:329|195:256,1,150,6|0,0:0|0:0,0:0:0:0:
189,257,59553,2,0,L|74:272,1,100,8|0,0:0|0:0,0:0:0:0:
8,125,59895,5,4,0:0:0:0:
70,180,60067,2,0,P|122:192|173:221,1,100,4|8,0:0|0:0,0:0:0:0:
216,359,60402,6,0,B|206:303|206:303|286:179,1,200,4|4,0:0|0:0,0:0:0:0:
387,276,60921,2,0,P|394:337|355:379,1,100,8|0,0:0|0:0,0:0:0:0:
308,297,61263,1,4,0:0:0:0:
438,186,61429,6,0,P|472:250|483:378,1,200,4|0,0:0|0:0,0:0:0:0:
371,138,61943,6,0,B|381:77|381:77|432:57,1,100,6|0,0:0|0:0,0:0:0:0:
299,173,62292,2,0,L|161:199,1,100,8|0,0:0|0:0,0:0:0:0:
115,46,62642,5,4,0:0:0:0:
186,91,62817,2,0,L|172:194,1,100,4|8,0:0|0:0,0:0:0:0:
198,348,63149,6,0,P|186:300|49:294,1,200,4|4,0:0|0:0,0:0:0:0:
115,348,63663,1,8,0:0:0:0:
115,348,64000,5,4,0:0:0:0:
44,271,64168,2,0,P|126:306|230:371,1,200,4|0,0:0|0:0,0:0:0:0:
301,237,64668,6,0,B|312:307|312:307|291:344,1,100,6|0,0:0|0:0,0:0:0:0:
219,204,65006,2,0,P|252:162|325:158,1,100,8|0,0:0|0:0,0:0:0:0:
392,232,65345,5,4,0:0:0:0:
400,337,65519,2,0,L|413:202,1,100,4|8,0:0|0:0,0:0:0:0:
467,112,65857,6,0,P|467:54|428:28,1,100,4|0,0:0|0:0,0:0:0:0:
391,149,66199,2,0,P|325:154|290:174,1,100,4|8,0:0|0:0,0:0:0:0:
435,222,66539,2,0,B|414:333|414:333|466:366,1,150,4|0,0:0|0:0,0:0:0:0:
484,362,66880,1,4,0:0:0:0:
339,285,67051,5,8,0:0:0:0:
442,231,67220,2,0,L|227:279,1,200
499,172,67733,6,0,L|510:63,1,100,8|0,0:0|0:0,0:0:0:0:
391,16,68073,5,4,0:0:0:0:
423,92,68233,1,4,0:0:0:0:
343,156,68404,1,8,0:0:0:0:
411,103,68575,6,0,B|363:126|363:126|217:74,1,200,6|4,0:0|0:0,0:0:0:0:
87,22,69066,5,8,0:0:0:0:
77,28,69149,1,8,0:0:0:0:
69,38,69232,2,0,P|53:68|47:92,2,50,8|8|4,0:0|0:0|0:0,0:0:0:0:
54,173,69564,2,0,P|61:200|84:234,5,50,8|8|4|4|4|4,0:0|0:0|0:0|0:0|0:0|0:0,0:0:0:0:
100,215,70063,6,0,L|222:200,1,100,6|0,0:0|0:0,0:0:0:0:
345,229,70421,1,8,0:0:0:0:
295,292,70597,5,0,0:0:0:0:
397,157,70773,2,0,P|423:199|426:249,1,100,4|4,0:0|0:0,0:0:0:0:
347,358,71117,1,8,0:0:0:0:
281,300,71283,6,0,B|205:291|205:291|183:324,1,100,6|0,0:0|0:0,0:0:0:0:
85,375,71620,2,0,P|106:354|69:297,1,100,4|8,0:0|0:0,0:0:0:0:
0,151,71957,2,0,B|-8:194|-8:194|180:239,1,200,4|4,0:0|0:0,0:0:0:0:
290,311,72484,2,0,L|389:302,1,100,8|0,0:0|0:0,0:0:0:0:
511,230,72817,6,0,L|284:205,1,200,4|8,0:0|0:0,0:0:0:0:
313,209,73514,5,4,0:0:0:0:
291,128,73681,1,4,0:0:0:0:
368,92,73849,1,8,0:0:0:0:
300,220,74012,6,0,L|89:251,1,200,6|4,0:0|0:0,0:0:0:0:
194,275,74529,5,8,0:0:0:0:
207,147,74698,1,8,0:0:0:0:
163,74,74859,6,0,B|156:41|156:41|230:-3,1,100,4|4,0:0|0:0,0:0:0:0:
348,108,75181,2,0,L|247:75,1,100,4|4,0:0|0:0,0:0:0:0:
89,110,75515,6,0,B|61:327,1,200,6|8,0:0|0:0,0:0:0:0:
131,359,76038,5,0,0:0:0:0:
166,284,76211,1,4,0:0:0:0:
262,294,76387,2,0,P|235:349|260:398,1,100,4|8,0:0|0:0,0:0:0:0:
426,333,76722,6,0,L|312:354,1,100,6|0,0:0|0:0,0:0:0:0:
512,310,77061,2,0,P|484:268|434:247,1,100,4|8,0:0|0:0,0:0:0:0:
253,293,77427,2,0,B|110:273|110:273|121:206,1,200,4|4,0:0|0:0,0:0:0:0:
201,103,77953,2,0,P|206:191|203:240,1,100,8|0,0:0|0:0,0:0:0:0:
141,366,78296,6,0,L|32:333,1,100,6|0,0:0|0:0,0:0:0:0:
13,180,78640,2,0,L|80:265,1,100,8|0,0:0|0:0,0:0:0:0:
153,221,78978,5,4,0:0:0:0:
238,214,79143,1,4,0:0:0:0:
245,368,79309,1,8,0:0:0:0:
274,289,79475,6,0,L|261:68,1,200,6|4,0:0|0:0,0:0:0:0:
358,278,79994,2,0,B|349:366|349:366|308:379,1,100,8|0,0:0|0:0,0:0:0:0:
212,364,80340,5,4,0:0:0:0:
132,343,80514,1,4,0:0:0:0:
95,199,80683,1,8,0:0:0:0:
71,281,80849,5,0,0:0:0:0:
154,260,81016,2,0,L|270:238,1,100,6|0,0:0|0:0,0:0:0:0:
401,306,81364,2,0,L|499:324,1,100,8|0,0:0|0:0,0:0:0:0:
336,252,81707,5,4,0:0:0:0:
320,331,81885,1,4,0:0:0:0:
406,204,82053,1,8,0:0:0:0:
408,299,82225,6,0,P|316:314|207:366,1,200,6|4,0:0|0:0,0:0:0:0:
53,326,82744,2,0,L|41:219,1,100,8|0,0:0|0:0,0:0:0:0:
200,172,83088,5,4,0:0:0:0:
144,274,83261,2,0,L|130:382,1,100,4|8,0:0|0:0,0:0:0:0:
131,373,83759,5,6,0:0:0:0:
265,336,83932,1,8,0:0:0:0:
282,333,84017,1,8,0:0:0:0:
299,335,84103,2,0,L|294:392,3,50,8|8|8|8,0:0|0:0|0:0|0:0,0:0:0:0:
320,306,84446,5,6,0:0:0:0:
398,276,84615,1,6,0:0:0:0:
454,340,84784,1,8,0:0:0:0:
309,294,84954,6,0,L|111:274,1,200,6|4,0:0|0:0,0:0:0:0:
33,151,85450,5,8,0:0:0:0:
29,135,85536,1,8,0:0:0:0:
32,120,85622,2,0,L|99:106,2,50,8|8|4,0:0|0:0|0:0,0:0:0:0:
198,208,85972,2,0,L|264:224,2,50,8|8|4,0:0|0:0|0:0,0:0:0:0:
112,189,86341,5,8,0:0:0:0:
110,196,86426,1,8,0:0:0:0:
107,205,86511,2,0,L|92:362,1,150,6|0,0:0|0:0,0:0:0:0:
126,383,86852,2,0,B|184:359|184:359|178:312,1,100,8|4,0:0|0:0,0:0:0:0:
254,191,87181,5,0,0:0:0:0:
232,115,87361,1,4,0:0:0:0:
340,7,87539,1,8,0:0:0:0:
346,131,87703,6,0,L|330:346,1,200,6|4,0:0|0:0,0:0:0:0:
439,199,88231,2,0,P|447:140|417:103,1,100,8|0,0:0|0:0,0:0:0:0:
264,161,88560,5,4,0:0:0:0:
293,237,88730,2,0,L|398:300,1,100,4|8,0:0|0:0,0:0:0:0:
464,277,89073,1,4,0:0:0:0:
380,369,89244,6,0,L|439:145,1,200,6|8,0:0|0:0,0:0:0:0:
296,26,89762,5,4,0:0:0:0:
363,77,89954,2,0,P|354:140|223:148,1,200,4|8,0:0|0:0,0:0:0:0:
85,106,90421,5,4,0:0:0:0:
0,105,90617,2,0,L|214:71,1,200,4|8,0:0|0:0,0:0:0:0:
298,208,91115,5,4,0:0:0:0:
209,302,91306,2,0,P|174:224|252:144,1,200,4|8,0:0|0:0,0:0:0:0:
377,187,91792,1,4,0:0:0:0:
444,57,91968,6,0,B|462:217|462:217|416:268,1,200,6|8,0:0|0:0,0:0:0:0:
310,324,92478,5,4,0:0:0:0:
252,266,92671,2,0,L|49:256,1,200,4|8,0:0|0:0,0:0:0:0:
23,102,93165,5,4,0:0:0:0:
90,52,93341,2,0,P|145:161|155:252,1,200,4|8,0:0|0:0,0:0:0:0:
288,249,93815,5,4,0:0:0:0:
374,348,93991,2,0,P|365:281|399:221,1,100,4|0,0:0|0:0,0:0:0:0:
503,159,94341,1,8,0:0:0:0:
503,159,94687,6,0,B|368:141|368:141|355:58,1,200,6|8,0:0|0:0,0:0:0:0:
512,6,95174,5,4,0:0:0:0:
447,64,95353,2,0,P|409:131|359:255,1,200,4|8,0:0|0:0,0:0:0:0:
222,303,95838,5,4,0:0:0:0:
270,374,96024,2,0,L|243:152,1,200,4|8,0:0|0:0,0:0:0:0:
97,135,96521,5,4,0:0:0:0:
147,28,96714,2,0,P|39:57|20:161,1,200,4|8,0:0|0:0,0:0:0:0:
54,209,97206,1,4,0:0:0:0:
240,197,97369,6,0,B|397:225|397:225|412:274,1,200,6|8,0:0|0:0,0:0:0:0:
300,380,97880,5,4,0:0:0:0:
315,298,98072,2,0,L|354:97,1,200,4|8,0:0|0:0,0:0:0:0:
460,43,98571,5,4,0:0:0:0:
496,115,98744,2,0,P|489:175|345:198,1,200,4|8,0:0|0:0,0:0:0:0:
207,134,99209,5,4,0:0:0:0:
127,153,99412,1,4,0:0:0:0:
48,253,99586,5,8,0:0:0:0:
45,269,99674,1,8,0:0:0:0:
46,286,99763,2,0,L|52:346,3,50,8|8|8|8,0:0|0:0|0:0|0:0,0:0:0:0:
75,356,100118,6,0,B|138:340|138:340|182:358,1,100,4|4,0:0|0:0,0:0:0:0:
190,217,100465,2,0,L|252:301,1,100,8|4,0:0|0:0,0:0:0:0:
63,342,100792,6,0,B|136:327|136:327|194:351,1,100,4|4,0:0|0:0,0:0:0:0:
200,201,101142,2,0,L|252:297,1,100,8|4,0:0|0:0,0:0:0:0:
53,319,101461,6,0,B|127:313|127:313|181:331,1,100,0|4,0:0|0:0,0:0:0:0:
218,182,101820,2,0,L|241:284,1,100,8|4,0:0|0:0,0:0:0:0:
45,292,102158,6,0,B|121:295|121:295|174:335,1,100,4|4,0:0|0:0,0:0:0:0:
237,159,102491,2,0,L|237:274,1,100,8|4,0:0|0:0,0:0:0:0:
342,130,102826,5,8,0:0:0:0:
322,210,102997,1,4,0:0:0:0:
425,137,103169,5,8,0:0:0:0:
407,56,103337,1,4,0:0:0:0:
481,12,103509,6,0,B|512:49|512:49|502:120,1,100,8|4,0:0|0:0,0:0:0:0:
477,265,103846,2,0,L|460:363,1,100,8|4,0:0|0:0,0:0:0:0:
495,182,104186,5,8,0:0:0:0:
400,271,105038,5,4,0:0:0:0:
324,353,105208,2,0,P|263:353|196:382,1,100,8|4,0:0|0:0,0:0:0:0:
410,264,105565,6,0,B|380:111|380:111|454:55,1,200,6|8,0:0|0:0,0:0:0:0:
415,84,106260,5,4,0:0:0:0:
412,166,106416,1,4,0:0:0:0:
344,42,106596,1,8,0:0:0:0:
420,181,106768,6,0,P|403:243|281:218,1,200,6|4,0:0|0:0,0:0:0:0:
150,127,107281,2,0,P|132:174|127:224,1,100,8|0,0:0|0:0,0:0:0:0:
222,292,107631,5,4,0:0:0:0:
210,209,107792,1,4,0:0:0:0:
144,118,107962,1,8,0:0:0:0:
144,118,108303,6,0,P|111:204|89:294,1,150,6|0,0:0|0:0,0:0:0:0:
96,282,108661,2,0,B|143:312|143:312|191:295,1,100,8|0,0:0|0:0,0:0:0:0:
312,212,109013,5,4,0:0:0:0:
297,128,109167,1,4,0:0:0:0:
451,88,109333,1,8,0:0:0:0:
380,128,109500,6,0,B|220:101|220:101|213:63,1,200,6|4,0:0|0:0,0:0:0:0:
100,190,110022,2,0,L|108:304,1,100,8|0,0:0|0:0,0:0:0:0:
214,333,110377,5,4,0:0:0:0:
296,348,110530,1,4,0:0:0:0:
371,252,110692,2,0,L|271:272,1,100,8|0,0:0|0:0,0:0:0:0:
383,246,111036,6,0,P|354:171|458:162,1,200,6|8,0:0|0:0,0:0:0:0:
446,149,111732,5,4,0:0:0:0:
466,228,111898,1,4,0:0:0:0:
416,364,112065,1,8,0:0:0:0:
501,307,112222,6,0,L|274:330,1,200,6|4,0:0|0:0,0:0:0:0:
224,303,112757,1,8,0:0:0:0:
102,365,112918,6,0,P|35:352|47:234,1,200,4|4,0:0|0:0,0:0:0:0:
149,92,113436,2,0,B|167:168|167:168|136:196,1,100,8|0,0:0|0:0,0:0:0:0:
73,142,113791,6,0,L|288:161,1,200,6|8,0:0|0:0,0:0:0:0:
272,159,114501,5,4,0:0:0:0:
294,240,114665,1,4,0:0:0:0:
331,100,114830,1,8,0:0:0:0:
380,268,114991,6,0,P|311:280|183:357,1,200,6|4,0:0|0:0,0:0:0:0:
55,244,115496,2,0,L|73:124,1,100,8|0,0:0|0:0,0:0:0:0:
209,99,115845,5,4,0:0:0:0:
127,86,116008,1,4,0:0:0:0:
283,40,116188,2,0,L|307:163,1,100,10|0,0:0|0:0,0:0:0:0:
444,66,116543,6,0,B|392:85|392:85|373:265,1,200,6|8,0:0|0:0,0:0:0:0:
376,228,117259,5,4,0:0:0:0:
448,274,117420,1,4,0:0:0:0:
289,237,117599,1,8,0:0:0:0:
259,115,117771,6,0,P|204:168|235:294,1,200,6|4,0:0|0:0,0:0:0:0:
315,371,118289,2,0,B|325:297|325:297|275:256,1,100,8|0,0:0|0:0,0:0:0:0:
142,315,118637,5,4,0:0:0:0:
60,326,118801,1,4,0:0:0:0:
52,231,118975,2,0,P|39:306|76:345,1,100,8|0,0:0|0:0,0:0:0:0:
216,263,119308,6,0,P|289:267|422:336,1,200,6|8,0:0|0:0,0:0:0:0:
402,319,120022,5,4,0:0:0:0:
361,247,120191,1,4,0:0:0:0:
488,187,120353,1,8,0:0:0:0:
392,326,120515,6,0,P|384:250|322:108,1,200,6|4,0:0|0:0,0:0:0:0:
158,138,121030,2,0,L|41:158,1,100,8|0,0:0|0:0,0:0:0:0:
201,64,121370,5,4,0:0:0:0:
287,74,121511,1,4,0:0:0:0:
162,144,121698,2,0,P|144:219|133:263,1,100,8|0,0:0|0:0,0:0:0:0:
208,78,122042,6,0,P|239:199|313:181,1,200,6|8,0:0|0:0,0:0:0:0:
288,196,122745,5,4,0:0:0:0:
371,186,122914,1,4,0:0:0:0:
420,50,123080,1,8,0:0:0:0:
435,129,123247,6,0,L|398:334,1,200,6|4,0:0|0:0,0:0:0:0:
472,368,123760,1,8,0:0:0:0:
323,260,123922,6,0,L|319:42,1,200,6|4,0:0|0:0,0:0:0:0:
462,128,124464,2,0,P|441:187|407:201,1,100,8|0,0:0|0:0,0:0:0:0:
220,150,124801,5,6,0:0:0:0:
140,164,124969,1,0,0:0:0:0:
112,88,125138,5,10,0:0:0:0:
43,128,125306,1,0,0:0:0:0:
182,233,125475,6,0,P|179:294|160:345,1,100,4|4,0:0|0:0,0:0:0:0:
344,381,125812,2,0,B|333:340|333:340|404:315,1,100,8|6,0:0|0:0,0:0:0:0:
502,261,126143,5,0,0:0:0:0:
419,245,126307,1,4,0:0:0:0:
338,129,126479,6,0,L|328:66,3,50,8|8|8|8,0:0|0:0|0:0|0:0,0:0:0:0:
354,49,126817,2,0,L|423:59,2,50,4|4|4,0:0|0:0|0:0,0:0:0:0:
432,159,127150,1,8,0:0:0:0:
432,159,127233,1,8,0:0:0:0:
432,159,127317,1,8,0:0:0:0:
264,194,127483,6,0,P|244:136|237:81,1,100,6|0,0:0|0:0,0:0:0:0:
238,97,127831,1,8,0:0:0:0:
238,97,127996,1,0,0:0:0:0:
238,97,128162,1,4,0:0:0:0:
238,97,128328,1,4,0:0:0:0:
238,97,128493,1,8,0:0:0:0:
354,207,128659,6,0,B|337:288|337:288|283:299,1,100,4|0,0:0|0:0,0:0:0:0:
320,291,128991,1,4,0:0:0:0:
417,375,129170,6,0,P|413:320|459:308,1,100,8|4,0:0|0:0,0:0:0:0:
447,305,129503,1,0,0:0:0:0:
447,305,129673,1,4,0:0:0:0:
512,209,129840,6,0,L|400:232,1,100,8|4,0:0|0:0,0:0:0:0:
281,149,130178,5,6,0:0:0:0:
281,149,130352,1,0,0:0:0:0:
355,57,130526,6,0,L|367:171,1,100,8|0,0:0|0:0,0:0:0:0:
365,156,130870,1,4,0:0:0:0:
365,156,131038,1,4,0:0:0:0:
365,156,131209,1,8,0:0:0:0:
298,291,131368,6,0,P|299:242|244:222,1,100,6|0,0:0|0:0,0:0:0:0:
258,219,131687,1,4,0:0:0:0:
214,345,131863,5,8,0:0:0:0:
343,376,132039,1,8,0:0:0:0:
292,308,132206,6,0,P|194:328|158:349,1,100,4|4,0:0|0:0,0:0:0:0:
118,282,132537,2,0,P|69:267|28:233,1,100,4|4,0:0|0:0,0:0:0:0:
77,73,132871,5,6,0:0:0:0:
77,73,133047,1,0,0:0:0:0:
159,19,133224,6,0,L|171:145,1,100,8|0,0:0|0:0,0:0:0:0:
168,118,133564,1,4,0:0:0:0:
263,107,133735,6,0,B|246:184|246:184|202:199,1,100,4|8,0:0|0:0,0:0:0:0:
89,155,134063,6,0,P|36:182|34:243,1,100,6|0,0:0|0:0,0:0:0:0:
26,217,134390,1,4,0:0:0:0:
92,278,134554,6,0,L|205:268,1,100,8|4,0:0|0:0,0:0:0:0:
191,269,134887,1,0,0:0:0:0:
191,269,135055,1,4,0:0:0:0:
256,338,135233,6,0,P|318:358|369:387,1,100,8|0,0:0|0:0,0:0:0:0:
476,336,135577,5,6,0:0:0:0:
476,336,135751,1,0,0:0:0:0:
392,303,135925,6,0,B|372:254|372:254|420:201,1,100,10|0,0:0|0:0,0:0:0:0:
403,219,136267,1,4,0:0:0:0:
403,219,136435,1,4,0:0:0:0:
403,219,136603,1,8,0:0:0:0:
495,164,136771,6,0,P|432:145|388:137,1,100,6|0,0:0|0:0,0:0:0:0:
398,138,137091,1,4,0:0:0:0:
486,78,137261,6,0,P|468:49|520:10,1,100,8|8,0:0|0:0,0:0:0:0:
380,40,137576,6,0,L|264:52,1,100,4|4,0:0|0:0,0:0:0:0:
181,137,137907,2,0,L|116:126,2,50,4|4|4,0:0|0:0|0:0,0:0:0:0:
248,199,138253,5,6,0:0:0:0:
248,199,138431,1,0,0:0:0:0:
326,233,138610,6,0,P|301:292|292:347,1,100,8|0,0:0|0:0,0:0:0:0:
293,326,138937,1,4,0:0:0:0:
382,312,139103,6,0,P|434:310|453:367,1,100,4|8,0:0|0:0,0:0:0:0:
338,234,139444,6,0,B|331:165|331:165|353:132,1,100,6|0,0:0|0:0,0:0:0:0:
347,139,139778,1,4,0:0:0:0:
512,106,139944,6,0,L|401:88,1,100,8|0,0:0|0:0,0:0:0:0:
413,89,140278,1,4,0:0:0:0:
413,89,140444,1,4,0:0:0:0:
473,0,140603,6,0,B|358:14|358:14|315:56,1,150,8|0,0:0|0:0,0:0:0:0:
320,58,140922,5,6,0:0:0:0:
344,138,141088,1,8,0:0:0:0:
346,150,141173,1,8,0:0:0:0:
346,164,141259,2,0,P|326:188|312:215,3,50,8|8|8|8,0:0|0:0|0:0|0:0,0:0:0:0:
309,227,141602,6,0,B|275:249|275:249|220:209,1,100,6|6,0:0|0:0,0:0:0:0:
164,157,141954,1,8,0:0:0:0:
202,77,142112,6,0,L|172:289,1,200,6|4,0:0|0:0,0:0:0:0:
270,359,142606,1,8,0:0:0:0:
269,347,142688,1,8,0:0:0:0:
267,334,142771,2,0,L|263:252,2,50,8|8|4,0:0|0:0|0:0,0:0:0:0:
360,360,143117,2,0,L|369:301,2,50,8|8|4,0:0|0:0|0:0,0:0:0:0:
171,342,143450,1,8,0:0:0:0:
164,333,143529,1,8,0:0:0:0:
154,327,143609,6,0,B|106:311|106:311|35:330,1,100,6|0,0:0|0:0,0:0:0:0:
18,169,143961,2,0,P|29:224|8:263,1,100,8|4,0:0|0:0,0:0:0:0:
149,237,144278,5,0,0:0:0:0:
106,166,144440,1,4,0:0:0:0:
236,142,144633,1,8,0:0:0:0:
291,83,144796,6,0,P|263:150|249:280,1,200,6|4,0:0|0:0,0:0:0:0:
351,359,145300,2,0,L|460:347,1,100,8|0,0:0|0:0,0:0:0:0:
512,226,145620,5,8,0:0:0:0:
501,223,145701,1,8,0:0:0:0:
491,222,145783,1,8,0:0:0:0:
450,143,145947,2,0,P|416:149|404:158,3,50,8|8|8|8,0:0|0:0|0:0|0:0,0:0:0:0:
379,179,146287,6,0,P|269:164|246:74,1,200,6|8,0:0|0:0,0:0:0:0:
352,8,146806,2,0,L|330:108,1,100,4|0,0:0|0:0,0:0:0:0:
312,231,147158,1,4,0:0:0:0:
323,333,147333,2,0,B|301:297|301:297|344:221,1,100,8|0,0:0|0:0,0:0:0:0:
395,293,147673,5,6,0:0:0:0:
462,342,147846,1,4,0:0:0:0:
406,213,148019,1,8,0:0:0:0:
509,201,148186,6,0,P|419:194|399:86,1,200,4|4,0:0|0:0,0:0:0:0:
512,11,148701,2,0,L|392:24,1,100,8|0,0:0|0:0,0:0:0:0:
470,132,149030,6,0,B|313:111|313:111|288:46,1,200,6|8,0:0|0:0,0:0:0:0:
298,72,149711,5,6,0:0:0:0:
325,197,149888,1,6,0:0:0:0:
310,276,150061,1,8,0:0:0:0:
409,298,150213,6,0,P|301:321|201:352,1,200,6|4,0:0|0:0,0:0:0:0:
83,314,150721,5,8,0:0:0:0:
14,269,150867,1,4,0:0:0:0:
85,229,151054,5,8,0:0:0:0:
70,149,151205,1,4,0:0:0:0:
150,160,151376,5,8,0:0:0:0:
161,80,151523,1,4,0:0:0:0:
149,3,151699,6,0,L|163:221,1,200,6|8,0:0|0:0,0:0:0:0:
268,280,152226,2,0,P|265:343|228:366,1,100,0|4,0:0|0:0,0:0:0:0:
184,292,152563,1,4,0:0:0:0:
344,236,152732,2,0,B|365:316|365:316|345:356,1,100,8|0,0:0|0:0,0:0:0:0:
462,218,153069,6,0,L|250:195,1,200,6|8,0:0|0:0,0:0:0:0:
146,65,153581,2,0,L|240:128,1,100,4|0,0:0|0:0,0:0:0:0:
254,36,153921,1,4,0:0:0:0:
152,167,154092,2,0,B|139:235|139:235|161:275,1,100,8|0,0:0|0:0,0:0:0:0:
55,211,154433,6,0,P|39:275|149:340,1,200,6|8,0:0|0:0,0:0:0:0:
136,343,155094,5,6,0:0:0:0:
259,318,155268,1,6,0:0:0:0:
340,334,155442,1,8,0:0:0:0:
470,237,155598,6,0,B|317:257|317:257|307:200,1,200,6|4,0:0|0:0,0:0:0:0:
371,83,156099,1,8,0:0:0:0:
393,161,156263,2,0,L|393:234,2,50,8|8|8,0:0|0:0|0:0,0:0:0:0:
309,211,156570,1,8,0:0:0:0:
235,247,156722,2,0,L|226:308,3,50,8|8|4|4,0:0|0:0|0:0|0:0,0:0:0:0:
217,321,157062,6,0,P|140:298|49:399,1,200,6|8,0:0|0:0,0:0:0:0:
1,241,157588,2,0,L|120:271,1,100,4|0,0:0|0:0,0:0:0:0:
161,207,157925,1,4,0:0:0:0:
146,97,158105,2,0,L|170:212,1,100,8|0,0:0|0:0,0:0:0:0:
218,295,158438,5,6,0:0:0:0:
290,330,158605,1,4,0:0:0:0:
409,273,158777,1,8,0:0:0:0:
328,257,158933,6,0,P|315:202|436:154,1,200,4|4,0:0|0:0,0:0:0:0:
485,315,159455,2,0,B|465:356|465:356|370:348,1,100,8|0,0:0|0:0,0:0:0:0:
472,227,159797,6,0,P|401:257|301:328,1,200,6|8,0:0|0:0,0:0:0:0:
301,327,160471,5,6,0:0:0:0:
220,307,160642,1,6,0:0:0:0:
348,258,160823,1,8,0:0:0:0:
388,366,160981,6,0,L|402:147,1,200,6|4,0:0|0:0,0:0:0:0:
433,30,161496,5,8,0:0:0:0:
457,108,161642,1,4,0:0:0:0:
360,65,161827,5,8,0:0:0:0:
327,140,161984,1,4,0:0:0:0:
281,46,162149,5,8,0:0:0:0:
203,71,162282,1,4,0:0:0:0:
316,142,162488,6,0,P|323:264|314:346,1,200,6|8,0:0|0:0,0:0:0:0:
187,250,162996,2,0,P|221:184|256:192,1,100,0|4,0:0|0:0,0:0:0:0:
344,233,163345,5,4,0:0:0:0:
269,266,163517,1,8,0:0:0:0:
421,320,163668,6,0,B|440:169|440:169|392:138,1,200,6|4,0:0|0:0,0:0:0:0:
296,104,164213,1,8,0:0:0:0:
374,31,164363,6,0,P|403:86|295:110,1,200,4|4,0:0|0:0,0:0:0:0:
163,31,164880,2,0,P|114:42|73:82,1,100,8|0,0:0|0:0,0:0:0:0:
211,100,165218,6,0,L|95:263,1,200,6|8,0:0|0:0,0:0:0:0:
95,263,165896,6,0,L|178:198,1,100,6|0,0:0|0:0,0:0:0:0:
258,210,166220,1,8,0:0:0:0:
314,313,166402,6,0,P|339:226|388:119,1,200,6|0,0:0|0:0,0:0:0:0:
463,84,166951,5,2,0:2:0:0:
463,84,167308,1,2,0:2:0:0:
463,84,167643,1,2,0:2:0:0:
463,84,167970,6,0,P|470:141|422:163,1,100,6|0,0:0|0:0,0:0:0:0:
324,155,168349,1,8,0:0:0:0:
324,155,168697,6,0,B|239:136|239:136|162:258,1,200,6|0,0:0|0:0,0:0:0:0:
94,247,169273,5,6,0:0:0:0:
256,192,169370,12,0,176581,0:0:0:0:
