osu file format v14

[General]
AudioFilename: audio.mp3
AudioLeadIn: 0
PreviewTime: 55
Countdown: 0
SampleSet: Drum
StackLeniency: 0.5
Mode: 0
LetterboxInBreaks: 0
WidescreenStoryboard: 1

[Editor]
Bookmarks: 36863,42437,48235,50828,53573,61774,64502,89244,127483
DistanceSpacing: 0.9
BeatDivisor: 4
GridSize: 8
TimelineZoom: 4.699997

[Metadata]
Title:Basket Case
TitleUnicode:Basket Case
Artist:Green Day
ArtistUnicode:Green Day
Creator:Hectic
Version:Extra
Source:
Tags:h4d0uk3n1 kuyusu fergas schoolboy komore xbopost tokiko time freeze ksardas smozit adioni frakturehawkens themefisto fcl senseabel rock english punk-rock punk pop-punk alternative dookie
BeatmapID:3200740
BeatmapSetID:1142364

[Difficulty]
HPDrainRate:6
CircleSize:4
OverallDifficulty:9
ApproachRate:9.5
SliderMultiplier:2.3
SliderTickRate:1

[Events]
//Background and Video events
0,0,"l;;;;;;;.jpg",0,0
//Break Periods
2,42637,45381
//Storyboard Layer 0 (Background)
//Storyboard Layer 1 (Fail)
//Storyboard Layer 2 (Pass)
//Storyboard Layer 3 (Foreground)
//Storyboard Layer 4 (Overlay)
//Storyboard Sound Samples

[TimingPoints]
36863,392.156862745098,4,3,1,65,1,0
37059,358.208955223881,4,3,1,65,1,0
37596,344.827586206897,4,3,1,65,1,0
37768,336.134453781513,4,3,1,65,1,0
38104,350.877192982456,4,3,1,65,1,0
38367,-100,4,3,1,5,0,0
38454,338.983050847458,4,3,1,65,1,0
38623,330.578512396694,4,3,1,65,1,0
38953,382.165605095541,4,3,1,65,1,0
39144,338.983050847458,4,3,1,65,1,0
39313,363.636363636364,4,3,1,65,1,0
39494,344.827586206897,4,3,1,65,1,0
39666,357.142857142857,4,3,1,65,1,0
39666,-66.6666666666667,4,3,1,65,0,0
40023,300,4,3,1,65,1,0
40173,348.837209302326,4,3,1,65,1,0
40347,389.61038961039,4,3,1,65,1,0
40541,376.175548589342,4,3,1,65,1,0
40729,338.983050847458,4,3,1,65,1,0
40898,341.880341880342,4,3,1,65,1,0
40898,-66.6666666666667,4,3,1,65,0,0
41239,365.853658536585,4,3,1,65,1,0
41421,349.854227405248,4,3,1,65,1,0
41770,340.909090909091,4,3,1,65,1,0
42110,322.58064516129,4,3,1,65,1,0
42271,333.333333333333,4,3,1,65,1,0
42437,368.098159509203,4,3,1,65,1,0
46486,346.820809248555,4,3,1,65,1,0
46832,350.877192982456,4,3,1,65,1,0
47884,294.117647058824,4,3,1,65,1,0
48031,408.163265306122,4,3,1,65,1,0
48235,342.857142857143,4,3,1,65,1,0
48235,-83.3333333333333,4,3,1,65,0,0
48920,348.837209302326,4,3,1,65,1,0
49268,331.491712707183,4,3,1,65,1,0
49433,357.142857142857,4,3,1,65,1,0
49433,-83.3333333333333,4,3,1,65,0,0
49790,372.670807453416,4,3,1,65,1,0
49976,340.909090909091,4,3,1,65,1,0
50316,352.941176470589,4,3,1,65,1,0
50492,329.67032967033,4,3,1,65,1,0
50492,-84.7457627118644,4,3,1,65,0,0
50656,345.821325648415,4,3,1,65,1,0
51001,344.827586206897,4,3,1,65,1,0
51001,-83.3333333333333,4,3,1,65,0,0
51863,361.44578313253,4,3,1,65,1,0
52043,327.868852459016,4,3,1,65,1,0
52206,335.195530726257,4,3,1,65,1,0
52206,-83.3333333333333,4,3,1,65,0,0
52541,375,4,3,1,65,1,0
52728,335.195530726257,4,3,1,65,1,0
52728,-83.3333333333333,4,3,1,65,0,0
53063,344.827586206897,4,3,1,65,1,0
53235,-81.9672131147541,4,3,1,65,0,0
53407,333.333333333333,4,3,1,65,1,0
53740,355.029585798817,4,3,1,65,1,0
53740,-83.3333333333333,4,3,1,65,0,0
54095,342.857142857143,4,3,1,65,1,0
54095,-83.3333333333333,4,3,1,65,0,0
54437,333.333333333333,4,3,1,65,1,0
54770,329.67032967033,4,3,1,65,1,0
54934,-83.3333333333333,4,3,1,65,0,0
55264,368.098159509202,4,3,1,65,1,0
55264,-83.3333333333333,4,3,1,65,0,0
55448,316.122233930453,4,3,1,65,1,0
55606,344.827586206897,4,3,1,65,1,0
55606,-83.3333333333333,4,3,1,65,0,0
55864,-83.3333333333333,4,3,1,5,0,0
55950,363.636363636364,4,3,1,65,1,0
56131,340.909090909091,4,3,1,65,1,0
56471,352.941176470588,4,3,1,65,1,0
56471,-83.3333333333333,4,3,1,65,0,0
56823,339.943342776204,4,3,1,65,1,0
57672,344.827586206897,4,3,1,65,1,0
57672,-83.3333333333333,4,3,1,65,0,0
58016,352.941176470588,4,3,1,65,1,0
58192,340.909090909091,4,3,1,65,1,0
58192,-83.3333333333333,4,3,1,65,0,0
58532,333.333333333333,4,3,1,65,1,0
58865,-83.3333333333333,4,3,1,65,0,0
59198,355.029585798817,4,3,1,65,1,0
59198,-83.3333333333333,4,3,1,65,0,0
59553,342.857142857143,4,3,1,65,1,0
60238,329.67032967033,4,3,1,65,1,0
60402,344.332855093257,4,3,1,65,1,0
60402,-83.3333333333333,4,3,1,65,0,0
60660,-83.3333333333333,4,3,1,5,0,0
60746,350.877192982456,4,3,1,65,1,0
60921,342.857142857143,4,3,1,65,1,0
61263,333.333333333333,4,3,1,65,1,0
61429,355.029585798817,4,3,1,65,1,0
61429,-81.3008130081301,4,3,1,65,0,0
61606,337.078651685393,4,3,1,65,1,0
61943,349.854227405248,4,3,1,65,1,0
61943,-83.3333333333333,4,3,1,65,0,0
62292,-71.4285714285714,4,3,1,65,0,0
62817,327.868852459016,4,3,1,65,1,0
62980,338.983050847458,4,3,1,65,1,0
63149,344.827586206897,4,3,1,65,1,0
63149,-83.3333333333333,4,3,1,65,0,0
63407,-83.3333333333333,4,3,1,5,0,0
63493,340.909090909091,4,3,1,65,1,0
63663,337.078651685393,4,3,1,65,1,0
64168,-82.6446280991736,4,3,1,65,0,0
64337,331.491712707182,4,3,1,65,1,0
64668,338.983050847458,4,3,1,65,1,0
64668,-66.6666666666667,4,3,1,65,0,0
65345,348.837209302326,4,3,1,65,1,0
65693,329.67032967033,4,3,1,65,1,0
65857,342.857142857143,4,3,1,65,1,0
65857,-83.3333333333333,4,3,1,65,0,0
66371,337.078651685393,4,3,1,65,1,0
66539,341.880341880342,4,3,1,65,1,0
66539,-83.3333333333333,4,3,1,65,0,0
67051,338.028169014084,4,3,1,65,1,0
67051,-83.3333333333333,4,3,1,65,0,0
67389,344.827586206897,4,3,1,65,1,0
67389,-66.6666666666667,4,3,1,65,0,0
67733,340.909090909091,4,3,1,65,1,0
68073,320.855614973262,4,3,1,65,1,0
68233,342.857142857143,4,3,1,65,1,0
68575,327.868852459016,4,3,1,65,1,0
68575,-66.6666666666667,4,3,1,65,0,0
69066,332.409972299169,4,3,1,65,1,0
69564,-100,4,3,2,65,0,0
69730,-100,4,3,1,65,0,0
69813,-100,4,3,2,65,0,0
70063,358.208955223881,4,3,1,65,1,0
70421,352.422907488987,4,3,1,65,1,0
70773,350.877192982456,4,3,1,65,1,0
70948,338.983050847458,4,3,1,65,1,0
71117,333.333333333333,4,3,1,65,1,0
71283,337.078651685393,4,3,1,65,1,0
71283,-83.3333333333333,4,3,1,65,0,0
71957,346.820809248555,4,3,1,65,1,0
71957,-83.3333333333333,4,3,1,65,0,0
72303,363.636363636364,4,3,1,65,1,0
72484,333.333333333333,4,3,1,65,1,0
72817,344.827586206897,4,3,1,65,1,0
72989,352.941176470588,4,3,1,65,1,0
73165,349.854227405248,4,3,1,65,1,0
73165,-83.3333333333333,4,3,1,65,0,0
73514,335.195530726257,4,3,1,65,1,0
73849,327.868852459016,4,3,1,65,1,0
74012,344.827586206897,4,3,1,65,1,0
74012,-83.3333333333333,4,3,1,65,0,0
74529,338.983050847458,4,3,1,65,1,0
74698,322.58064516129,4,3,1,65,1,0
75181,-100,4,3,2,65,0,0
75343,344.827586206897,4,3,2,65,1,0
75343,-100,4,3,2,65,0,0
75515,350.877192982456,4,3,1,65,1,0
75515,-83.3333333333333,4,3,1,65,0,0
75865,346.820809248555,4,3,1,65,1,0
76211,352.941176470588,4,3,1,65,1,0
76387,333.333333333333,4,3,1,65,1,0
76553,338.983050847458,4,3,1,65,1,0
76722,-83.3333333333333,4,3,1,65,0,0
77061,384.615384615385,4,3,1,65,1,0
77253,348.837209302326,4,3,1,65,1,0
77427,350.877192982456,4,3,1,65,1,0
77427,-83.3333333333333,4,3,1,65,0,0
77953,343.839541547278,4,3,1,65,1,0
78296,-83.3333333333333,4,3,1,65,0,0
78555,-83.3333333333333,4,3,1,5,0,0
78640,338.983050847458,4,3,1,65,1,0
78640,-83.3333333333333,4,3,1,65,0,0
78978,331.491712707182,4,3,1,65,1,0
79475,344.827586206897,4,3,1,65,1,0
79475,-66.6666666666667,4,3,1,65,0,0
79733,-66.6666666666667,4,3,1,5,0,0
79819,350.877192982456,4,3,1,65,1,0
79994,346.820809248555,4,3,1,65,1,0
80514,338.983050847458,4,3,1,65,1,0
80683,333.333333333333,4,3,1,65,1,0
81016,348.837209302326,4,3,1,65,1,0
81364,343.839541547278,4,3,1,65,1,0
81707,356.083086053412,4,3,1,65,1,0
81885,337.078651685393,4,3,1,65,1,0
82053,344.827586206897,4,3,1,65,1,0
82225,352.941176470588,4,3,1,65,1,0
82225,-76.9230769230769,4,3,1,65,0,0
82489,-76.9230769230769,4,3,1,5,0,0
82577,335.195530726257,4,3,1,65,1,0
82744,344.827586206897,4,3,1,65,1,0
82744,-83.3333333333333,4,3,1,65,0,0
83261,357.142857142857,4,3,1,65,1,0
83439,320.855614973262,4,3,1,65,1,0
83759,346.820809248555,4,3,1,65,1,0
83759,-66.6666666666667,4,3,1,65,0,0
83932,342.857142857143,4,3,1,65,1,0
84446,338.983050847458,4,3,1,65,1,0
84954,322.58064516129,4,3,1,65,1,0
85276,348.837209302326,4,3,1,65,1,0
85450,344.827586206897,4,3,1,65,1,0
85794,357.142857142857,4,3,1,65,1,0
85972,344.827586206897,4,3,1,65,1,0
86144,394.736842105263,4,3,1,65,1,0
86341,340.909090909091,4,3,1,65,1,0
86511,-83.3333333333333,4,3,1,65,0,0
86852,300,4,3,1,65,1,0
87002,359.281437125748,4,3,1,65,1,0
87361,357.142857142857,4,3,1,65,1,0
87539,329.67032967033,4,3,1,65,1,0
87703,337.078651685393,4,3,1,65,1,0
87703,-83.3333333333333,4,3,1,65,0,0
87955,-83.3333333333333,4,3,1,5,0,0
88040,382.165605095541,4,3,1,65,1,0
88231,329.67032967033,4,3,1,65,1,0
88560,340.909090909091,4,3,1,65,1,0
88730,363.636363636364,4,3,1,65,1,0
88911,324.324324324324,4,3,1,65,1,0
89073,342.857142857143,4,3,1,65,1,0
89244,355.029585798817,4,3,1,65,1,0
89244,-83.3333333333333,4,3,1,65,0,0
89510,-83.3333333333333,4,3,1,5,0,0
89599,327.868852459016,4,3,1,65,1,0
89762,384.615384615385,4,3,1,65,1,0
89954,333.333333333333,4,3,1,65,1,0
89954,-83.3333333333333,4,3,1,65,0,0
90204,-83.3333333333333,4,3,1,5,0,0
90287,269.058295964126,4,3,1,65,1,0
90421,392.156862745098,4,3,1,65,1,0
90617,352.941176470588,4,3,1,65,1,0
90617,-83.3333333333333,4,3,1,65,0,0
90881,-83.3333333333333,4,3,1,5,0,0
90969,292.682926829268,4,3,1,65,1,0
91115,382.165605095541,4,3,1,65,1,0
91306,344.827586206897,4,3,1,65,1,0
91306,-83.3333333333333,4,3,1,65,0,0
91564,-83.3333333333333,4,3,1,5,0,0
91650,285.714285714286,4,3,1,65,1,0
91792,352.941176470588,4,3,1,65,1,0
91968,-83.3333333333333,4,3,1,65,0,0
92233,-83.3333333333333,4,3,1,5,0,0
92321,315.789473684211,4,3,1,65,1,0
92478,387.096774193548,4,3,1,65,1,0
92671,335.195530726257,4,3,1,65,1,0
92671,-83.3333333333333,4,3,1,65,0,0
92922,-83.3333333333333,4,3,1,5,0,0
93006,319.148936170213,4,3,1,65,1,0
93165,352.941176470588,4,3,1,65,1,0
93341,344.827586206897,4,3,1,65,1,0
93341,-83.3333333333333,4,3,1,65,0,0
93599,-83.3333333333333,4,3,1,5,0,0
93685,260.869565217391,4,3,1,65,1,0
93815,352.941176470588,4,3,1,65,1,0
93991,350.877192982456,4,3,1,65,1,0
93991,-83.3333333333333,4,3,1,65,0,0
94341,346.820809248555,4,3,1,65,1,0
94687,340.909090909091,4,3,1,65,1,0
94687,-83.3333333333333,4,3,1,65,0,0
94942,-83.3333333333333,4,3,1,5,0,0
95027,294.117647058824,4,3,1,65,1,0
95174,359.281437125748,4,3,1,65,1,0
95353,338.983050847458,4,3,1,65,1,0
95353,-83.3333333333333,4,3,1,65,0,0
95607,-83.3333333333333,4,3,1,5,0,0
95691,295.566502463054,4,3,1,65,1,0
95838,373.831775700935,4,3,1,65,1,0
96024,357.142857142857,4,3,1,65,1,0
96024,-83.3333333333333,4,3,1,65,0,0
96291,-83.3333333333333,4,3,1,5,0,0
96381,281.69014084507,4,3,1,65,1,0
96521,387.096774193548,4,3,1,65,1,0
96714,329.67032967033,4,3,1,65,1,0
96714,-83.3333333333333,4,3,1,65,0,0
96961,-83.3333333333333,4,3,1,5,0,0
97043,326.086956521739,4,3,1,65,1,0
97369,340.909090909091,4,3,1,65,1,0
97369,-83.3333333333333,4,3,1,65,0,0
97624,-83.3333333333333,4,3,1,5,0,0
97709,-83.3333333333333,4,3,1,65,0,0
97880,384.615384615385,4,3,1,65,1,0
98072,334.261838440111,4,3,1,65,1,0
98072,-83.3333333333333,4,3,1,65,0,0
98322,-83.3333333333333,4,3,1,5,0,0
98406,331.491712707182,4,3,1,65,1,0
98571,346.820809248555,4,3,1,65,1,0
98744,342.857142857143,4,3,1,65,1,0
98744,-83.3333333333333,4,3,1,65,0,0
99001,-83.3333333333333,4,3,1,5,0,0
99086,247.933884297521,4,3,1,65,1,0
99209,406.779661016949,4,3,1,65,1,0
99412,348.837209302326,4,3,1,65,1,0
99412,-83.3333333333333,4,3,1,65,0,0
99586,355.029585798817,4,3,1,65,1,0
100118,347.826086956522,4,3,1,65,1,0
100465,312.5,4,3,1,65,1,0
100621,342.857142857143,4,3,1,65,1,0
100792,361.44578313253,4,3,1,65,1,0
100972,340.909090909091,4,3,1,65,1,0
101142,294.117647058824,4,3,1,65,1,0
101289,344.827586206897,4,3,1,65,1,0
101633,375,4,3,1,65,1,0
101820,333.333333333333,4,3,1,65,1,0
101986,344.827586206897,4,3,1,65,1,0
102158,338.983050847458,4,3,1,65,1,0
102327,329.67032967033,4,3,1,65,1,0
102491,329.67032967033,4,3,1,65,1,0
102655,342.857142857143,4,3,1,65,1,0
103169,337.078651685393,4,3,1,65,1,0
103337,344.827586206897,4,3,1,65,1,0
103509,329.67032967033,4,3,1,65,1,0
103673,346.820809248555,4,3,1,65,1,0
103846,324.324324324324,4,3,1,65,1,0
104008,357.142857142857,4,3,1,65,1,0
104186,340.909090909091,4,3,1,65,1,0
105038,340.909090909091,4,3,1,65,1,0
105208,359.281437125748,4,3,1,65,1,0
105208,-166.666666666667,4,3,1,65,0,0
105387,357.142857142857,4,3,1,65,1,0
105565,349.854227405248,4,3,1,65,1,0
105565,-83.3333333333333,4,3,1,65,0,0
105914,346.820809248555,4,3,1,65,1,0
106260,312.5,4,3,1,65,1,0
106416,361.44578313253,4,3,1,65,1,0
106596,345.821325648415,4,3,1,65,1,0
106768,337.078651685393,4,3,1,65,1,0
106768,-83.3333333333333,4,3,1,65,0,0
107020,-83.3333333333333,4,3,1,5,0,0
107105,352.941176470588,4,3,1,65,1,0
107281,350.877192982456,4,3,1,65,1,0
107631,322.58064516129,4,3,1,65,1,0
107792,340.909090909091,4,3,1,65,1,0
107962,-83.3333333333333,4,3,1,65,0,0
108303,358.208955223881,4,3,1,65,1,0
108303,-83.3333333333333,4,3,1,65,0,0
108661,352.941176470588,4,3,1,65,1,0
109013,309.278350515464,4,3,1,65,1,0
109167,333.333333333333,4,3,1,65,1,0
109500,-83.3333333333333,4,3,1,65,0,0
109833,379.746835443038,4,3,1,65,1,0
110022,355.029585798817,4,3,1,65,1,0
110377,306.90537084399,4,3,1,65,1,0
110530,324.324324324324,4,3,1,65,1,0
110692,344.827586206897,4,3,1,65,1,0
111036,350.877192982456,4,3,1,65,1,0
111036,-83.3333333333333,4,3,1,65,0,0
111299,-83.3333333333333,4,3,1,5,0,0
111386,346.820809248555,4,3,1,65,1,0
111732,333.333333333333,4,3,1,65,1,0
112065,315.789473684211,4,3,1,65,1,0
112222,344.827586206897,4,3,1,65,1,0
112222,-83.3333333333333,4,3,1,65,0,0
112480,-83.3333333333333,4,3,1,5,0,0
112566,382.165605095541,4,3,1,65,1,0
112757,322.58064516129,4,3,1,65,1,0
112918,331.491712707182,4,3,1,65,1,0
112918,-83.3333333333333,4,3,1,65,0,0
113249,375,4,3,1,65,1,0
113436,355.029585798817,4,3,1,65,1,0
113791,-83.3333333333333,4,3,1,65,0,0
114501,329.67032967033,4,3,1,65,1,0
114830,322.58064516129,4,3,1,65,1,0
114991,335.195530726257,4,3,1,65,1,0
114991,-83.3333333333333,4,3,1,65,0,0
115326,340.909090909091,4,3,1,65,1,0
115496,349.854227405248,4,3,1,65,1,0
115496,-66.6666666666667,4,3,1,65,0,0
115845,326.086956521739,4,3,1,65,1,0
116008,361.44578313253,4,3,1,65,1,0
116188,355.029585798817,4,3,1,65,1,0
116188,-83.3333333333333,4,3,1,65,0,0
116543,358.208955223881,4,3,1,65,1,0
116543,-83.3333333333333,4,3,1,65,0,0
117259,322.58064516129,4,3,1,65,1,0
117420,359.281437125748,4,3,1,65,1,0
117599,345.821325648415,4,3,1,65,1,0
117771,338.028169014084,4,3,1,65,1,0
117771,-83.3333333333333,4,3,1,65,0,0
118109,361.44578313253,4,3,1,65,1,0
118289,348.837209302326,4,3,1,65,1,0
118289,-83.3333333333333,4,3,1,65,0,0
118637,329.67032967033,4,3,1,65,1,0
118801,348.837209302326,4,3,1,65,1,0
118975,333.333333333333,4,3,1,65,1,0
119308,357.142857142857,4,3,1,65,1,0
119308,-83.3333333333333,4,3,1,65,0,0
119575,-83.3333333333333,4,3,1,5,0,0
119665,-83.3333333333333,4,3,1,65,0,0
120022,338.983050847458,4,3,1,65,1,0
120191,324.324324324324,4,3,1,65,1,0
120515,315.789473684211,4,3,1,65,1,0
120515,-83.3333333333333,4,3,1,65,0,0
120751,-83.3333333333333,4,3,1,5,0,0
120830,400,4,3,1,65,1,0
121030,340.909090909091,4,3,1,65,1,0
121370,283.018867924528,4,3,1,65,1,0
121511,375,4,3,1,65,1,0
121698,344.827586206897,4,3,1,65,1,0
122042,357.142857142857,4,3,1,65,1,0
122042,-83.3333333333333,4,3,1,65,0,0
122309,-83.3333333333333,4,3,1,5,0,0
122399,346.820809248555,4,3,1,65,1,0
122745,338.983050847458,4,3,1,65,1,0
122914,333.333333333333,4,3,1,65,1,0
123247,326.086956521739,4,3,1,65,1,0
123247,-83.3333333333333,4,3,1,65,0,0
123491,-83.3333333333333,4,3,1,5,0,0
123573,375,4,3,1,65,1,0
123760,324.324324324324,4,3,1,65,1,0
123922,361.44578313253,4,3,1,65,1,0
123922,-83.3333333333333,4,3,1,65,0,0
124464,337.078651685393,5,3,1,65,1,0
125980,327.868852459016,4,3,1,65,1,0
125980,-83.3333333333333,4,3,1,65,0,0
126307,344.827586206897,4,3,1,65,1,0
126479,338.028169014084,4,3,1,65,1,0
126817,333.333333333333,4,3,2,65,1,0
126817,-100,4,3,2,65,0,0
127150,-100,4,3,1,65,0,0
127483,348.837209302326,4,3,1,65,1,0
127483,-333.333333333333,4,3,1,65,0,0
127831,331.491712707182,4,3,1,65,1,0
128659,-333.333333333333,4,3,1,65,0,0
128991,359.281437125748,4,3,1,65,1,0
129170,329.67032967033,4,3,1,65,1,0
129170,-333.333333333333,4,3,1,65,0,0
129334,339.943342776204,4,3,1,65,1,0
129673,335.195530726257,4,3,1,65,1,0
129840,304.568527918782,4,3,1,65,1,0
129840,-333.333333333333,4,3,1,65,0,0
129992,372.670807453416,4,3,1,65,1,0
130178,348.837209302326,4,3,1,65,1,0
130526,344.827586206897,4,3,1,65,1,0
130526,-333.333333333333,4,3,1,65,0,0
130870,337.078651685393,4,3,1,65,1,0
131038,342.857142857143,4,3,1,65,1,0
131209,319.148936170213,4,3,1,65,1,0
131368,-333.333333333333,4,3,1,65,0,0
131687,352.941176470588,4,3,1,65,1,0
131863,-333.333333333333,4,3,1,65,0,0
132039,335.195530726257,4,3,1,65,1,0
132039,-333.333333333333,4,3,1,65,0,0
132374,327.868852459016,4,3,1,65,1,0
132537,319.148936170213,4,3,2,65,1,0
132537,-333.333333333333,4,3,2,65,0,0
132696,350.877192982456,4,3,2,65,1,0
132696,-100,4,3,2,65,0,0
132871,353.982300884956,4,3,1,65,1,0
132871,-333.333333333333,4,3,1,65,0,0
133224,340.909090909091,4,3,1,65,1,0
133224,-333.333333333333,4,3,1,65,0,0
133905,317.460317460317,4,3,1,65,1,0
134063,327.868852459016,4,3,1,65,1,0
134063,-333.333333333333,4,3,1,65,0,0
134554,333.333333333333,4,3,1,65,1,0
134554,-333.333333333333,4,3,1,65,0,0
134720,335.195530726257,4,3,1,65,1,0
135055,357.142857142857,4,3,1,65,1,0
135233,344.827586206897,4,3,1,65,1,0
135233,-333.333333333333,4,3,1,65,0,0
135577,348.837209302326,4,3,1,65,1,0
135925,342.857142857143,4,3,1,65,1,0
135925,-333.333333333333,4,3,1,65,0,0
136267,336.134453781513,4,3,1,65,1,0
136771,320.855614973262,4,3,1,65,1,0
136771,-333.333333333333,4,3,1,65,0,0
137091,340.909090909091,4,3,1,65,1,0
137261,329.67032967033,4,3,1,65,1,0
137261,-333.333333333333,4,3,1,65,0,0
137425,303.030303030303,4,3,1,65,1,0
137576,331.491712707182,4,3,1,65,1,0
137907,346.820809248555,4,3,2,65,1,0
137907,-100,4,3,2,65,0,0
138253,357.142857142857,4,3,1,65,1,0
138253,-333.333333333333,4,3,1,65,0,0
138610,327.868852459016,4,3,1,65,1,0
138610,-333.333333333333,4,3,1,65,0,0
138937,333.333333333333,4,3,1,65,1,0
139103,350.877192982456,4,3,1,65,1,0
139103,-333.333333333333,4,3,1,65,0,0
139278,333.333333333333,4,3,1,65,1,0
139444,-55.5555555555556,4,3,1,65,0,0
139944,-333.333333333333,4,3,1,65,0,0
140444,319.148936170213,4,3,1,65,1,0
140444,-333.333333333333,4,3,1,65,0,0
140603,-83.3333333333333,4,3,1,65,0,0
140922,333.333333333333,4,3,1,65,1,0
141088,342.857142857143,4,3,1,65,1,0
141602,340.909090909091,4,3,1,65,1,0
141772,365.853658536585,4,3,1,65,1,0
141954,317.460317460317,4,3,1,65,1,0
142112,-66.6666666666667,4,3,1,65,0,0
142430,352.941176470588,4,3,1,65,1,0
142606,331.491712707182,4,3,1,65,1,0
142937,361.44578313253,4,3,1,65,1,0
143117,333.333333333333,4,3,1,65,1,0
143450,319.148936170213,4,3,1,65,1,0
143609,352.941176470588,5,3,1,65,1,0
143609,-83.3333333333333,5,3,1,65,0,0
143961,310.880829015544,4,3,1,65,1,0
144116,324.324324324324,4,3,1,65,1,0
144440,387.096774193548,4,3,1,65,1,0
144633,326.086956521739,4,3,1,65,1,0
144796,-83.3333333333333,4,3,1,65,0,0
145122,357.142857142857,4,3,1,65,1,0
145300,320.855614973262,4,3,1,65,1,0
145620,327.868852459016,4,3,1,65,1,0
145947,340.909090909091,4,3,1,65,1,0
146287,352.941176470588,4,3,1,65,1,0
146287,-83.3333333333333,4,3,1,65,0,0
146551,-83.3333333333333,4,3,1,5,0,0
146639,335.195530726257,4,3,1,65,1,0
146806,352.941176470588,4,3,1,65,1,0
146806,-83.3333333333333,4,3,1,65,0,0
147158,350.877192982456,4,3,1,65,1,0
147333,340.909090909091,4,3,1,65,1,0
147333,-83.3333333333333,4,3,1,65,0,0
147673,346.820809248555,4,3,1,65,1,0
148019,335.195530726257,4,3,1,65,1,0
148186,340.909090909091,4,3,1,65,1,0
148186,-81.3008130081301,4,3,1,65,0,0
148526,350.877192982456,4,3,1,65,1,0
148701,329.67032967033,4,3,1,65,1,0
149030,340.909090909091,4,3,1,65,1,0
149030,-83.3333333333333,4,3,1,65,0,0
149285,-83.3333333333333,4,3,1,5,0,0
149370,-83.3333333333333,4,3,1,65,0,0
149711,355.029585798817,4,3,1,65,1,0
149888,346.820809248555,4,3,1,65,1,0
150061,304.568527918782,4,3,1,65,1,0
150213,333.333333333333,4,3,1,65,1,0
150213,-83.3333333333333,4,3,1,65,0,0
150463,-83.3333333333333,4,3,1,5,0,0
150546,350.877192982456,4,3,1,65,1,0
150721,292.682926829268,4,3,1,65,1,0
150867,375,4,3,1,65,1,0
151054,303.030303030303,4,3,1,65,1,0
151205,342.857142857143,4,3,1,65,1,0
151376,295.566502463054,4,3,1,65,1,0
151523,352.941176470588,4,3,1,65,1,0
151699,359.281437125748,4,3,1,65,1,0
151699,-83.3333333333333,4,3,1,65,0,0
151968,-83.3333333333333,4,3,1,5,0,0
152058,337.078651685393,4,3,1,65,1,0
152226,-83.3333333333333,4,3,1,65,0,0
152984,-83.3333333333333,4,3,1,5,0,0
153069,346.820809248555,4,3,1,65,1,0
153069,-83.3333333333333,4,3,1,65,0,0
153415,333.333333333333,4,3,1,65,1,0
153581,340.909090909091,4,3,1,65,1,0
153581,-83.3333333333333,4,3,1,65,0,0
153836,-83.3333333333333,4,3,1,5,0,0
153921,-83.3333333333333,4,3,1,65,0,0
154433,337.078651685393,4,3,1,65,1,0
154433,-83.3333333333333,4,3,1,65,0,0
154685,-83.3333333333333,4,3,1,5,0,0
154770,324.324324324324,4,3,1,65,1,0
155094,348.837209302326,4,3,1,65,1,0
155442,312.5,4,3,1,65,1,0
155598,333.333333333333,4,3,1,65,1,0
155598,-83.3333333333333,4,3,1,65,0,0
155848,-83.3333333333333,4,3,1,5,0,0
155931,337.078651685393,4,3,1,65,1,0
156099,329.67032967033,4,3,1,65,1,0
156263,300,4,3,2,65,1,0
156263,-100,4,3,2,65,0,0
156413,315.789473684211,4,3,2,65,1,0
156413,-100,4,3,2,65,0,0
156570,304.568527918782,4,3,2,65,1,0
156570,-100,4,3,2,65,0,0
156722,340.909090909091,4,3,2,65,1,0
156722,-100,4,3,2,65,0,0
157062,353.982300884956,4,3,1,65,1,0
157062,-83.3333333333333,4,3,1,65,0,0
157327,-83.3333333333333,4,3,1,5,0,0
157415,346.820809248555,4,3,1,65,1,0
157588,337.078651685393,4,3,1,65,1,0
157588,-83.3333333333333,4,3,1,65,0,0
157925,361.44578313253,4,3,1,65,1,0
158105,333.333333333333,4,3,1,65,1,0
158105,-83.3333333333333,4,3,1,65,0,0
158355,-83.3333333333333,4,3,1,5,0,0
158438,-83.3333333333333,4,3,1,65,0,0
158605,344.827586206897,4,3,1,65,1,0
158777,312.5,4,3,1,65,1,0
158933,338.983050847458,4,3,1,65,1,0
158933,-83.3333333333333,4,3,1,65,0,0
159187,-83.3333333333333,4,3,1,5,0,0
159271,368.098159509202,4,3,1,65,1,0
159455,342.857142857143,4,3,1,65,1,0
159797,-83.3333333333333,4,3,1,65,0,0
160055,-83.3333333333333,4,3,1,5,0,0
160140,331.491712707182,4,3,1,65,1,0
160471,342.857142857143,4,3,1,65,1,0
160642,363.636363636364,4,3,1,65,1,0
160823,317.460317460317,4,3,1,65,1,0
160981,340.909090909091,4,3,1,65,1,0
160981,-83.3333333333333,4,3,1,65,0,0
161236,-83.3333333333333,4,3,1,5,0,0
161321,350.877192982456,4,3,1,65,1,0
161496,292.682926829268,4,3,1,65,1,0
161642,370.37037037037,4,3,1,65,1,0
161827,315.789473684211,4,3,1,65,1,0
161984,331.491712707182,4,3,1,65,1,0
162149,266.666666666667,4,3,1,65,1,0
162282,413.793103448276,4,3,1,65,1,0
162488,340.909090909091,4,3,1,65,1,0
162488,-83.3333333333333,4,3,1,65,0,0
162743,-83.3333333333333,4,3,1,5,0,0
162828,337.078651685393,4,3,1,65,1,0
162996,-76.9230769230769,4,3,1,65,0,0
163165,361.44578313253,4,3,1,65,1,0
163345,344.827586206897,4,3,1,65,1,0
163517,303.030303030303,4,3,1,65,1,0
163668,363.636363636364,4,3,1,65,1,0
163668,-66.6666666666667,4,3,1,65,0,0
164213,300,4,3,1,65,1,0
164363,335.195530726257,4,3,1,65,1,0
164363,-83.3333333333333,4,3,1,65,0,0
164614,-83.3333333333333,4,3,1,5,0,0
164698,365.853658536585,4,3,1,65,1,0
164880,338.983050847458,4,3,1,65,1,0
165896,324.324324324324,4,3,1,65,1,0
166220,365.853658536585,4,3,1,65,1,0
166951,357.142857142857,4,3,1,65,1,0
167308,335.195530726257,4,3,1,65,1,0
167643,327.868852459016,4,3,1,65,1,0
167970,379.746835443038,4,3,1,65,1,0
168349,348.837209302326,4,3,1,65,1,0
168697,384.615384615385,4,3,1,65,1,0
176581,-100,4,3,1,5,0,0

[Colours]
Combo1 : 60,96,164
Combo2 : 150,41,90
Combo3 : 136,87,166
Combo4 : 94,71,184

[HitObjects]
33,79,36863,5,6,0:0:0:0:
444,124,37059,1,8,0:0:0:0:
444,127,37148,1,8,0:0:0:0:
444,131,37238,1,8,0:0:0:0:
444,134,37327,1,8,0:0:0:0:
445,138,37417,2,0,L|363:144,1,57.5,8|8,0:0|0:0,0:0:0:0:
69,153,37596,5,6,0:0:0:0:
39,224,37768,1,6,0:0:0:0:
269,363,37936,1,8,0:0:0:0:
154,195,38104,6,0,P|144:128|221:14,1,172.5,6|0,0:0|0:0,0:0:0:0:
225,16,38454,1,4,0:0:0:0:
212,248,38623,5,8,0:0:0:0:
211,251,38705,1,8,0:0:0:0:
210,255,38788,1,8,0:0:0:0:
210,258,38870,1,8,0:0:0:0:
209,262,38953,1,4,0:0:0:0:
512,179,39144,1,8,0:0:0:0:
512,175,39228,1,8,0:0:0:0:
511,171,39313,1,4,0:0:0:0:
271,151,39494,2,0,L|264:240,1,57.5,8|8,0:0|0:0,0:0:0:0:
261,365,39666,6,0,L|293:-15,1,345.000013160706,6|8,0:0|0:0,0:0:0:0:
289,21,40173,1,4,0:0:0:0:
499,40,40347,5,4,0:0:0:0:
492,119,40541,1,4,0:0:0:0:
155,89,40729,1,8,0:0:0:0:
18,174,40898,6,0,L|385:153,1,345.000013160706,6|4,0:0|0:0,0:0:0:0:
11,188,41421,1,8,0:0:0:0:
11,188,41770,5,4,0:0:0:0:
11,188,41940,1,4,0:0:0:0:
438,149,42110,1,8,0:0:0:0:
192,3,42271,5,4,0:0:0:0:
220,362,42437,1,6,0:0:0:0:
56,157,46832,53,4,0:0:0:0:
56,157,46919,1,8,0:0:0:0:
56,157,47095,5,8,0:0:0:0:
56,157,47182,1,4,0:0:0:0:
56,157,47358,5,8,0:0:0:0:
56,157,47446,1,4,0:0:0:0:
56,157,47622,5,8,0:0:0:0:
56,157,47709,1,4,0:0:0:0:
18,55,47884,6,0,P|77:50|103:107,1,115,8|4,0:0|0:0,0:0:0:0:
58,377,48235,6,0,P|141:341|98:161,1,275.999991577149,6|8,0:0|0:0,0:0:0:0:
128,178,48920,5,4,0:0:0:0:
191,226,49094,1,4,0:0:0:0:
458,343,49268,1,8,0:0:0:0:
378,325,49433,6,0,L|362:142,1,137.999995788574,4|0,0:0|0:0,0:0:0:0:
366,188,49790,1,4,0:0:0:0:
53,139,49976,2,0,L|43:281,1,115,8|0,0:0|0:0,0:0:0:0:
85,69,50316,5,4,0:0:0:0:
35,12,50492,2,0,L|37:335,1,275.999991577149,4|0,0:0|0:0,0:0:0:0:
302,364,51001,6,0,P|359:316|323:230,1,137.999995788574,6|0,0:0|0:0,0:0:0:0:
224,51,51345,2,0,P|316:40|374:35,1,137.999995788574,8|0,0:0|0:0,0:0:0:0:
505,240,51690,5,4,0:0:0:0:
427,226,51863,1,4,0:0:0:0:
226,344,52043,1,8,0:0:0:0:
302,364,52206,6,0,P|219:324|17:333,1,275.999991577149,4|4,0:0|0:0,0:0:0:0:
363,316,52728,2,0,P|390:232|372:130,1,137.999995788574,8|0,0:0|0:0,0:0:0:0:
309,7,53063,5,4,0:0:0:0:
374,324,53235,2,0,P|415:267|256:244,1,275.999991577149,4|0,0:0|0:0,0:0:0:0:
56,27,53740,6,0,P|140:16|183:73,1,137.999995788574,6|0,0:0|0:0,0:0:0:0:
41,235,54095,2,0,P|27:143|24:74,1,137.999995788574,8|0,0:0|0:0,0:0:0:0:
152,287,54437,5,4,0:0:0:0:
74,303,54603,1,4,0:0:0:0:
302,373,54770,1,8,0:0:0:0:
386,263,54934,6,0,P|421:324|368:371,1,137.999995788574,4|0,0:0|0:0,0:0:0:0:
308,146,55264,2,0,P|384:143|416:210,1,137.999995788574,4|8,0:0|0:0,0:0:0:0:
89,140,55606,2,0,P|127:79|257:55,1,206.999993682861,4|0,0:0|0:0,0:0:0:0:
281,68,55950,5,4,0:0:0:0:
2,23,56131,1,8,0:0:0:0:
84,10,56301,1,0,0:0:0:0:
125,361,56471,6,0,P|114:223|100:86,1,275.999991577149,6|8,0:0|0:0,0:0:0:0:
100,86,57162,5,4,0:0:0:0:
124,163,57332,1,4,0:0:0:0:
139,352,57502,1,8,0:0:0:0:
163,0,57672,6,0,P|153:121|142:289,1,275.999991577149,6|4,0:0|0:0,0:0:0:0:
257,87,58192,2,0,P|197:81|106:77,1,137.999995788574,8|0,0:0|0:0,0:0:0:0:
6,171,58532,1,4,0:0:0:0:
6,171,58698,1,4,0:0:0:0:
249,172,58865,2,0,P|189:166|98:162,1,137.999995788574,8|0,0:0|0:0,0:0:0:0:
111,162,59198,6,0,P|219:163|410:158,1,275.999991577149,6|8,0:0|0:0,0:0:0:0:
386,159,59895,5,4,0:0:0:0:
466,153,60067,1,4,0:0:0:0:
111,162,60238,1,8,0:0:0:0:
99,28,60402,6,0,P|32:55|35:207,1,206.999993682861,4|0,0:0|0:0,0:0:0:0:
45,206,60746,1,4,0:0:0:0:
251,248,60921,2,0,P|265:319|260:368,1,115,8|0,0:0|0:0,0:0:0:0:
183,313,61263,5,4,0:0:0:0:
291,99,61429,2,0,P|324:190|353:376,1,275.999991577149,4|0,0:0|0:0,0:0:0:0:
212,66,61943,6,0,B|254:14|254:14|357:25,1,137.999995788574,6|0,0:0|0:0,0:0:0:0:
378,128,62292,2,0,B|327:188|327:188|207:175,1,160.99999508667,8|0,0:0|0:0,0:0:0:0:
28,154,62642,5,4,0:0:0:0:
34,78,62817,1,4,0:0:0:0:
112,290,62980,1,8,0:0:0:0:
179,332,63149,6,0,P|254:343|406:371,1,206.999993682861,4|0,0:0|0:0,0:0:0:0:
421,378,63493,1,4,0:0:0:0:
37,319,63663,1,8,0:0:0:0:
37,319,64000,5,4,0:0:0:0:
18,43,64168,2,0,L|39:359,1,275.999991577149,4|0,0:0|0:0,0:0:0:0:
431,364,64668,6,0,L|449:135,1,172.500006580353,6|0,0:0|0:0,0:0:0:0:
33,155,65006,2,0,L|46:355,1,172.500006580353,8|0,0:0|0:0,0:0:0:0:
247,379,65345,5,4,0:0:0:0:
247,379,65519,1,4,0:0:0:0:
439,141,65693,1,8,0:0:0:0:
375,93,65857,6,0,P|288:103|218:117,1,137.999995788574,4|0,0:0|0:0,0:0:0:0:
238,112,66199,1,4,0:0:0:0:
264,308,66371,1,8,0:0:0:0:
370,272,66539,2,0,P|273:219|101:147,1,275.999991577149,4|4,0:0|0:0,0:0:0:0:
65,344,67051,2,0,P|50:257|36:197,1,137.999995788574,8|0,0:0|0:0,0:0:0:0:
77,26,67389,6,0,B|109:138|162:399,1,345.000013160706,6|8,0:0|0:0,0:0:0:0:
154,362,68073,5,4,0:0:0:0:
233,376,68233,1,4,0:0:0:0:
15,111,68404,1,8,0:0:0:0:
97,13,68575,6,0,P|89:156|71:381,1,345.000013160706,6|4,0:0|0:0,0:0:0:0:
55,183,69066,5,8,0:0:0:0:
69,181,69149,1,8,0:0:0:0:
83,180,69232,1,8,0:0:0:0:
97,178,69315,1,8,0:0:0:0:
112,177,69398,1,4,0:0:0:0:
336,266,69564,5,8,0:0:0:0:
339,266,69647,1,8,0:0:0:0:
343,266,69730,1,4,0:0:0:0:
346,267,69813,1,4,0:0:0:0:
350,267,69896,1,4,0:0:0:0:
353,268,69979,1,4,0:0:0:0:
424,298,70062,5,6,0:0:0:0:
503,23,70421,1,8,0:0:0:0:
437,65,70597,1,0,0:0:0:0:
397,371,70773,1,4,0:0:0:0:
436,356,70948,5,4,0:0:0:0:
471,179,71117,1,8,0:0:0:0:
361,35,71283,2,0,L|214:28,1,137.999995788574,6|0,0:0|0:0,0:0:0:0:
223,28,71620,1,4,0:0:0:0:
3,17,71788,1,8,0:0:0:0:
27,91,71957,6,0,L|184:84,1,137.999995788574,4|0,0:0|0:0,0:0:0:0:
164,84,72303,1,4,0:0:0:0:
456,78,72484,1,8,0:0:0:0:
456,78,72817,5,4,0:0:0:0:
456,78,72989,1,4,0:0:0:0:
267,18,73165,2,0,P|252:90|240:165,1,137.999995788574,8|0,0:0|0:0,0:0:0:0:
359,331,73514,5,4,0:0:0:0:
322,157,73681,1,4,0:0:0:0:
465,86,73849,1,8,0:0:0:0:
258,12,74012,6,0,P|237:125|216:345,1,275.999991577149,6|4,0:0|0:0,0:0:0:0:
0,356,74529,5,8,0:0:0:0:
301,268,74698,1,8,0:0:0:0:
335,243,74859,5,4,0:0:0:0:
147,185,75020,1,4,0:0:0:0:
102,53,75181,1,4,0:0:0:0:
162,107,75343,5,4,0:0:0:0:
1,367,75515,1,6,0:0:0:0:
22,23,75865,1,8,0:0:0:0:
34,198,76038,5,0,0:0:0:0:
30,24,76211,5,4,0:0:0:0:
38,25,76387,1,4,0:0:0:0:
9,368,76553,1,8,0:0:0:0:
0,103,76722,6,0,L|146:113,1,137.999995788574,6|0,0:0|0:0,0:0:0:0:
216,119,77061,1,4,0:0:0:0:
249,363,77253,1,8,0:0:0:0:
327,358,77427,2,0,L|464:348,1,137.999995788574,4|0,0:0|0:0,0:0:0:0:
464,347,77777,5,4,0:0:0:0:
168,367,77953,1,8,0:0:0:0:
168,367,78296,6,0,B|152:356|152:356|174:142,1,206.999993682861,6|0,0:0|0:0,0:0:0:0:
180,92,78640,2,0,B|192:83|199:70|199:70|192:35|163:-1|163:-1|173:24|180:46,1,137.999995788574,8|0,0:0|0:0,0:0:0:0:
236,326,78978,5,4,0:0:0:0:
315,337,79143,1,4,0:0:0:0:
77,304,79309,1,8,0:0:0:0:
1,382,79475,6,0,P|90:360|48:213,1,258.75000987053,6|0,0:0|0:0,0:0:0:0:
30,207,79819,1,4,0:0:0:0:
392,347,79994,1,8,0:0:0:0:
392,347,80340,5,4,0:0:0:0:
260,319,80514,1,4,0:0:0:0:
191,200,80683,1,8,0:0:0:0:
222,66,80849,1,0,0:0:0:0:
206,374,81016,5,6,0:0:0:0:
269,2,81364,1,8,0:0:0:0:
199,374,81707,5,4,0:0:0:0:
199,374,81885,1,4,0:0:0:0:
278,4,82053,1,8,0:0:0:0:
216,59,82225,6,0,P|241:208|256:310,1,224.24998973465,6|0,0:0|0:0,0:0:0:0:
260,324,82577,1,4,0:0:0:0:
144,113,82744,2,0,P|157:193|165:250,1,137.999995788574,8|0,0:0|0:0,0:0:0:0:
77,194,83088,5,4,0:0:0:0:
0,209,83261,1,4,0:0:0:0:
313,159,83439,1,8,0:0:0:0:
500,12,83759,5,6,0:0:0:0:
239,1,83932,1,8,0:0:0:0:
238,4,84017,1,8,0:0:0:0:
238,8,84103,1,8,0:0:0:0:
237,11,84189,1,8,0:0:0:0:
238,15,84274,2,0,L|233:82,1,57.5,8|8,0:0|0:0,0:0:0:0:
218,342,84446,5,6,0:0:0:0:
218,342,84615,1,6,0:0:0:0:
287,130,84784,1,8,0:0:0:0:
18,50,84954,2,0,L|39:281,1,230,6|4,0:0|0:0,0:0:0:0:
299,341,85450,5,8,0:0:0:0:
313,343,85536,1,8,0:0:0:0:
327,346,85622,1,8,0:0:0:0:
341,349,85708,1,8,0:0:0:0:
355,352,85794,1,4,0:0:0:0:
144,302,85972,1,8,0:0:0:0:
129,299,86058,1,8,0:0:0:0:
115,296,86144,1,4,0:0:0:0:
218,364,86341,5,8,0:0:0:0:
234,281,86427,1,8,0:0:0:0:
250,198,86511,2,0,P|246:142|236:37,1,137.999995788574,6|0,0:0|0:0,0:0:0:0:
171,224,86852,5,8,0:0:0:0:
298,336,87002,1,4,0:0:0:0:
414,273,87181,5,0,0:0:0:0:
414,273,87361,1,4,0:0:0:0:
74,291,87539,1,8,0:0:0:0:
238,60,87703,6,0,P|244:129|257:284,1,206.999993682861,6|0,0:0|0:0,0:0:0:0:
258,308,88040,1,4,0:0:0:0:
179,4,88231,1,8,0:0:0:0:
179,4,88560,5,4,0:0:0:0:
179,4,88730,1,4,0:0:0:0:
470,46,88911,1,8,0:0:0:0:
510,119,89073,1,4,0:0:0:0:
258,25,89244,6,0,P|173:40|132:174,1,206.999993682861,6|0,0:0|0:0,0:0:0:0:
135,189,89599,1,8,0:0:0:0:
47,80,89762,5,4,0:0:0:0:
228,102,89954,2,0,P|331:119|459:146,1,206.999993682861,4|0,0:0|0:0,0:0:0:0:
472,151,90287,1,8,0:0:0:0:
141,91,90421,5,4,0:0:0:0:
202,26,90617,2,0,P|308:70|281:183,1,206.999993682861,4|0,0:0|0:0,0:0:0:0:
277,189,90969,1,8,0:0:0:0:
441,378,91115,5,4,0:0:0:0:
414,299,91306,2,0,P|406:208|405:78,1,206.999993682861,4|0,0:0|0:0,0:0:0:0:
409,47,91650,1,8,0:0:0:0:
492,56,91792,1,4,0:0:0:0:
443,217,91968,6,0,P|381:217|329:343,1,206.999993682861,6|0,0:0|0:0,0:0:0:0:
353,364,92321,1,8,0:0:0:0:
496,157,92478,5,4,0:0:0:0:
464,85,92671,2,0,P|365:77|206:69,1,206.999993682861,4|0,0:0|0:0,0:0:0:0:
217,68,93006,1,8,0:0:0:0:
12,239,93165,5,4,0:0:0:0:
44,167,93341,2,0,P|143:159|302:151,1,206.999993682861,4|0,0:0|0:0,0:0:0:0:
291,150,93685,1,8,0:0:0:0:
194,234,93815,5,4,0:0:0:0:
244,299,93991,2,0,P|332:310|424:326,1,137.999995788574,4|0,0:0|0:0,0:0:0:0:
380,317,94254,1,4,0:0:0:0:
380,317,94341,1,8,0:0:0:0:
465,346,94514,1,4,0:0:0:0:
276,379,94687,6,0,P|285:280|299:144,1,206.999993682861,6|0,0:0|0:0,0:0:0:0:
302,131,95027,1,8,0:0:0:0:
144,1,95174,5,4,0:0:0:0:
65,7,95353,2,0,P|69:89|80:248,1,206.999993682861,4|0,0:0|0:0,0:0:0:0:
83,256,95691,1,8,0:0:0:0:
36,81,95838,5,4,0:0:0:0:
101,134,96024,2,0,P|99:195|92:350,1,206.999993682861,4|0,0:0|0:0,0:0:0:0:
85,380,96381,1,8,0:0:0:0:
24,159,96521,5,4,0:0:0:0:
77,10,96714,2,0,P|169:15|309:28,1,206.999993682861,4|0,0:0|0:0,0:0:0:0:
326,32,97043,1,8,0:0:0:0:
459,148,97206,1,4,0:0:0:0:
444,274,97369,6,0,B|462:256|462:256|411:58,1,206.999993682861,6|0,0:0|0:0,0:0:0:0:
406,46,97709,1,8,0:0:0:0:
367,305,97880,5,4,0:0:0:0:
372,227,98072,2,0,L|108:188,1,206.999993682861,4|0,0:0|0:0,0:0:0:0:
129,190,98406,1,8,0:0:0:0:
116,340,98571,5,4,0:0:0:0:
192,366,98744,2,0,L|274:152,1,206.999993682861,4|0,0:0|0:0,0:0:0:0:
282,135,99086,1,8,0:0:0:0:
104,29,99209,5,4,0:0:0:0:
28,56,99412,2,0,L|46:178,1,68.9999978942872,4|0,0:0|0:0,0:0:0:0:
57,282,99586,5,8,0:0:0:0:
131,289,99674,1,8,0:0:0:0:
205,296,99763,1,8,0:0:0:0:
279,304,99852,1,8,0:0:0:0:
353,311,99941,1,8,0:0:0:0:
428,319,100029,1,8,0:0:0:0:
502,326,100118,5,4,0:0:0:0:
494,327,100291,1,4,0:0:0:0:
486,328,100465,1,8,0:0:0:0:
478,329,100621,1,4,0:0:0:0:
502,326,100792,5,4,0:0:0:0:
470,321,100972,1,4,0:0:0:0:
438,317,101142,1,8,0:0:0:0:
406,312,101289,1,4,0:0:0:0:
502,326,101461,5,0,0:0:0:0:
433,297,101633,1,4,0:0:0:0:
365,268,101820,1,8,0:0:0:0:
297,239,101986,1,4,0:0:0:0:
502,326,102158,5,4,0:0:0:0:
416,264,102327,1,4,0:0:0:0:
330,202,102491,1,8,0:0:0:0:
244,140,102655,1,4,0:0:0:0:
442,380,102826,21,8,0:0:0:0:
395,22,102997,1,4,0:0:0:0:
348,380,103169,5,8,0:0:0:0:
395,22,103337,1,4,0:0:0:0:
257,356,103509,5,8,0:0:0:0:
395,22,103673,1,4,0:0:0:0:
176,309,103846,5,8,0:0:0:0:
395,22,104008,1,4,0:0:0:0:
129,372,104186,1,8,0:0:0:0:
45,155,105038,5,4,0:0:0:0:
122,140,105208,2,0,B|139:151|128:203|101:199,1,68.9999978942872,8|4,0:0|0:0,0:0:0:0:
110,198,105565,6,0,P|200:230|386:329,1,275.999991577149,6|8,0:0|0:0,0:0:0:0:
360,312,106260,5,4,0:0:0:0:
283,292,106416,1,4,0:0:0:0:
195,29,106596,1,8,0:0:0:0:
272,217,106768,6,0,P|253:300|115:289,1,206.999993682861,6|0,0:0|0:0,0:0:0:0:
109,288,107105,1,4,0:0:0:0:
428,353,107281,1,8,0:0:0:0:
428,353,107631,5,4,0:0:0:0:
428,353,107792,1,4,0:0:0:0:
94,215,107962,2,0,P|88:241|68:359,1,137.999995788574,8|0,0:0|0:0,0:0:0:0:
59,11,108303,6,0,P|33:117|-4:302,1,275.999991577149,6|8,0:0|0:0,0:0:0:0:
0,280,109013,1,4,0:0:0:0:
79,298,109167,1,4,0:0:0:0:
316,381,109333,1,8,0:0:0:0:
451,289,109500,6,0,B|475:273|495:266|495:266|491:205|465:25,1,275.999991577149,6|4,0:0|0:0,0:0:0:0:
506,352,110022,1,8,0:0:0:0:
506,352,110377,5,4,0:0:0:0:
506,352,110530,1,4,0:0:0:0:
467,41,110692,1,8,0:0:0:0:
467,41,110864,1,0,0:0:0:0:
134,20,111036,6,0,L|355:33,1,206.999993682861,6|0,0:0|0:0,0:0:0:0:
375,34,111386,2,0,B|388:101|388:101|338:115,1,115,8|0,0:0|0:0,0:0:0:0:
91,93,111732,5,4,0:0:0:0:
91,93,111898,1,4,0:0:0:0:
29,363,112065,1,8,0:0:0:0:
183,248,112222,6,0,L|162:15,1,206.999993682861,6|0,0:0|0:0,0:0:0:0:
163,2,112566,1,4,0:0:0:0:
58,185,112757,1,8,0:0:0:0:
14,72,112918,6,0,L|297:207,1,275.999991577149,4|4,0:0|0:0,0:0:0:0:
439,275,113436,2,0,L|335:225,1,115,8|0,0:0|0:0,0:0:0:0:
380,21,113791,6,0,L|270:274,1,275.999991577149,6|8,0:0|0:0,0:0:0:0:
270,274,114501,5,4,0:0:0:0:
270,274,114665,1,4,0:0:0:0:
491,354,114830,1,8,0:0:0:0:
498,272,114991,6,0,B|430:282|430:282|403:339|403:339|247:362,1,275.999991577149,6|4,0:0|0:0,0:0:0:0:
94,380,115496,2,0,B|69:369|54:355|54:355|63:315|82:272|82:272|76:299|78:323,1,172.500006580353,8|0,0:0|0:0,0:0:0:0:
183,374,115845,5,4,0:0:0:0:
183,374,116008,1,4,0:0:0:0:
18,230,116188,2,0,P|24:157|36:71,1,137.999995788574,10|0,0:0|0:0,0:0:0:0:
32,92,116543,6,0,P|27:174|8:385,1,275.999991577149,6|8,0:0|0:0,0:0:0:0:
11,367,117259,5,4,0:0:0:0:
11,367,117420,1,4,0:0:0:0:
60,166,117599,1,8,0:0:0:0:
1,18,117771,6,0,P|87:10|285:-1,1,275.999991577149,6|4,0:0|0:0,0:0:0:0:
410,238,118289,2,0,P|331:229|253:215,1,137.999995788574,8|0,0:0|0:0,0:0:0:0:
491,243,118637,5,4,0:0:0:0:
491,243,118801,1,4,0:0:0:0:
202,199,118975,1,8,0:0:0:0:
202,199,119141,1,0,0:0:0:0:
74,232,119308,6,0,L|310:213,1,206.999993682861,6|0,0:0|0:0,0:0:0:0:
321,210,119665,2,0,P|320:142|309:64,1,137.999995788574,8|0,0:0|0:0,0:0:0:0:
305,291,120022,5,4,0:0:0:0:
305,291,120191,1,4,0:0:0:0:
266,10,120353,1,8,0:0:0:0:
379,372,120515,6,0,P|392:299|412:143,1,206.999993682861,6|0,0:0|0:0,0:0:0:0:
412,124,120830,1,4,0:0:0:0:
194,39,121030,1,8,0:0:0:0:
194,39,121370,5,4,0:0:0:0:
117,55,121511,1,4,0:0:0:0:
89,349,121698,1,8,0:0:0:0:
57,196,121870,5,0,0:0:0:0:
136,202,122042,2,0,L|394:224,1,206.999993682861,6|0,0:0|0:0,0:0:0:0:
382,224,122399,2,0,B|436:229|436:229|400:231|362:244,1,115,8|0,0:0|0:0,0:0:0:0:
310,373,122745,5,4,0:0:0:0:
320,296,122914,1,4,0:0:0:0:
506,184,123080,1,8,0:0:0:0:
483,34,123247,6,0,P|390:41|263:57,1,206.999993682861,6|0,0:0|0:0,0:0:0:0:
239,64,123573,1,4,0:0:0:0:
158,79,123760,1,8,0:0:0:0:
483,34,123922,6,0,P|357:30|190:18,1,275.999991577149,6|4,0:0|0:0,0:0:0:0:
5,3,124464,1,8,0:0:0:0:
5,3,124801,5,6,0:0:0:0:
43,72,124969,1,0,0:0:0:0:
170,83,125138,1,10,0:0:0:0:
99,183,125306,1,0,0:0:0:0:
285,197,125475,1,4,0:0:0:0:
207,168,125643,1,4,0:0:0:0:
402,262,125812,1,8,0:0:0:0:
461,367,125980,2,0,P|477:290|487:222,1,137.999995788574,6|0,0:0|0:0,0:0:0:0:
485,231,126307,1,4,0:0:0:0:
252,278,126479,5,8,0:0:0:0:
175,285,126563,1,8,0:0:0:0:
99,293,126648,1,8,0:0:0:0:
23,300,126732,1,8,0:0:0:0:
8,292,126817,5,4,0:0:0:0:
8,282,126900,1,4,0:0:0:0:
9,272,126983,1,4,0:0:0:0:
10,263,127066,1,4,0:0:0:0:
25,247,127150,5,8,0:0:0:0:
102,254,127233,1,8,0:0:0:0:
178,262,127317,1,8,0:0:0:0:
254,269,127400,1,8,0:0:0:0:
358,291,127483,6,0,L|362:334,1,34.4999989471436,6|0,0:0|0:0,0:0:0:0:
340,32,127831,1,8,0:0:0:0:
405,83,127996,5,0,0:0:0:0:
309,384,128162,1,4,0:0:0:0:
309,384,128328,1,4,0:0:0:0:
441,297,128493,1,8,0:0:0:0:
340,32,128659,6,0,L|293:35,1,34.4999989471436,4|0,0:0|0:0,0:0:0:0:
305,34,128991,1,4,0:0:0:0:
306,114,129170,2,0,L|260:109,1,34.4999989471436,8|4,0:0|0:0,0:0:0:0:
271,110,129503,1,0,0:0:0:0:
271,110,129673,1,4,0:0:0:0:
255,188,129840,2,0,L|210:175,1,34.4999989471436,8|4,0:0|0:0,0:0:0:0:
394,356,130178,5,6,0:0:0:0:
394,356,130352,1,0,0:0:0:0:
212,211,130526,2,0,L|224:166,1,34.4999989471436,8|0,0:0|0:0,0:0:0:0:
221,177,130870,1,4,0:0:0:0:
221,177,131038,1,4,0:0:0:0:
221,177,131209,1,8,0:0:0:0:
149,125,131368,2,0,L|192:108,1,34.4999989471436,6|0,0:0|0:0,0:0:0:0:
181,112,131687,1,4,0:0:0:0:
76,155,131863,6,0,L|48:168,1,17.2499994735718,8|0,0:0|0:0,0:0:0:0:
255,85,132039,1,8,0:0:0:0:
182,34,132206,5,4,0:0:0:0:
104,55,132374,1,4,0:0:0:0:
156,213,132537,2,0,L|154:242,1,17.2499994735718,4|0,0:0|0:0,0:0:0:0:
232,187,132696,1,4,0:0:0:0:
389,275,132871,6,0,L|386:319,1,34.4999989471436,6|0,0:0|0:0,0:0:0:0:
77,257,133224,2,0,L|80:240,1,17.2499994735718,8|0,0:0|0:0,0:0:0:0:
27,178,133394,5,0,0:0:0:0:
158,220,133564,1,4,0:0:0:0:
105,330,133735,2,0,L|107:354,1,17.2499994735718,4|0,0:0|0:0,0:0:0:0:
82,47,133905,1,8,0:0:0:0:
138,106,134063,6,0,L|135:149,1,34.4999989471436,6|0,0:0|0:0,0:0:0:0:
135,140,134390,1,4,0:0:0:0:
264,149,134554,2,0,L|266:114,1,34.4999989471436,8|4,0:0|0:0,0:0:0:0:
266,114,134887,1,0,0:0:0:0:
266,114,135055,1,4,0:0:0:0:
391,123,135233,2,0,L|388:166,1,34.4999989471436,8|0,0:0|0:0,0:0:0:0:
373,376,135577,5,6,0:0:0:0:
373,376,135751,1,0,0:0:0:0:
423,159,135925,2,0,L|380:156,1,34.4999989471436,10|0,0:0|0:0,0:0:0:0:
388,156,136267,1,4,0:0:0:0:
388,156,136435,1,4,0:0:0:0:
388,156,136603,1,8,0:0:0:0:
367,0,136771,2,0,L|410:3,1,34.4999989471436,6|0,0:0|0:0,0:0:0:0:
401,2,137091,1,4,0:0:0:0:
507,159,137261,6,0,L|497:187,1,17.2499994735718,8|0,0:0|0:0,0:0:0:0:
446,316,137425,1,8,0:0:0:0:
512,250,137576,5,4,0:0:0:0:
438,225,137741,1,4,0:0:0:0:
259,186,137907,1,4,0:0:0:0:
258,189,137993,1,4,0:0:0:0:
257,192,138080,1,4,0:0:0:0:
256,196,138167,1,4,0:0:0:0:
255,200,138253,6,0,L|299:207,1,34.4999989471436,6|0,0:0|0:0,0:0:0:0:
143,180,138610,2,0,L|187:187,1,34.4999989471436,8|0,0:0|0:0,0:0:0:0:
177,185,138937,1,4,0:0:0:0:
337,273,139103,2,0,L|382:269,1,34.4999989471436,4|8,0:0|0:0,0:0:0:0:
362,372,139444,6,0,L|344:136,1,206.999993682861,6|0,0:0|0:0,0:0:0:0:
346,165,139778,1,4,0:0:0:0:
148,145,139944,6,0,L|142:183,1,34.4999989471436,8|0,0:0|0:0,0:0:0:0:
142,179,140278,1,4,0:0:0:0:
142,179,140444,1,4,0:0:0:0:
154,29,140603,6,0,P|140:143|122:362,1,275.999991577149,8|6,0:0|0:0,0:0:0:0:
64,32,141088,5,8,0:0:0:0:
116,10,141173,1,8,0:0:0:0:
173,12,141259,1,8,0:0:0:0:
225,37,141345,1,8,0:0:0:0:
261,81,141430,1,8,0:0:0:0:
276,136,141516,1,8,0:0:0:0:
259,191,141602,5,6,0:0:0:0:
180,209,141772,1,6,0:0:0:0:
135,383,141954,1,8,0:0:0:0:
16,147,142112,6,0,P|185:126|374:115,1,345.000013160706,6|4,0:0|0:0,0:0:0:0:
104,220,142606,5,8,0:0:0:0:
102,205,142688,1,8,0:0:0:0:
100,191,142771,1,8,0:0:0:0:
98,177,142854,1,8,0:0:0:0:
96,163,142937,1,4,0:0:0:0:
177,274,143117,5,8,0:0:0:0:
180,245,143200,1,8,0:0:0:0:
183,216,143283,1,4,0:0:0:0:
246,361,143450,5,8,0:0:0:0:
258,275,143529,1,8,0:0:0:0:
279,192,143609,2,0,B|294:143|320:133|320:133|312:60|267:12|267:12|287:51|296:95,1,275.999991577149,6|8,0:0|0:0,0:0:0:0:
330,250,144116,5,4,0:0:0:0:
228,117,144278,1,0,0:0:0:0:
228,117,144440,1,4,0:0:0:0:
495,54,144633,1,8,0:0:0:0:
420,13,144796,6,0,P|411:143|403:322,1,275.999991577149,6|4,0:0|0:0,0:0:0:0:
512,384,145300,1,8,0:0:0:0:
15,102,145620,5,8,0:0:0:0:
91,106,145702,1,8,0:0:0:0:
167,111,145784,1,8,0:0:0:0:
244,117,145865,1,8,0:0:0:0:
259,104,145947,5,8,0:0:0:0:
182,112,146032,1,8,0:0:0:0:
106,120,146117,1,8,0:0:0:0:
30,129,146202,1,8,0:0:0:0:
6,206,146287,6,0,P|116:224|243:250,1,206.999993682861,6|0,0:0|0:0,0:0:0:0:
253,252,146639,1,8,0:0:0:0:
104,321,146806,2,0,P|118:240|133:166,1,137.999995788574,4|0,0:0|0:0,0:0:0:0:
174,366,147158,1,4,0:0:0:0:
55,158,147333,2,0,P|75:81|97:15,1,137.999995788574,8|0,0:0|0:0,0:0:0:0:
0,56,147673,5,6,0:0:0:0:
145,124,147846,1,4,0:0:0:0:
183,372,148019,1,8,0:0:0:0:
263,357,148186,2,0,P|271:226|276:47,1,282.900004316711,4|4,0:0|0:0,0:0:0:0:
338,381,148701,1,8,0:0:0:0:
395,246,149030,6,0,P|217:217|165:213,1,206.999993682861,6|0,0:0|0:0,0:0:0:0:
149,211,149370,2,0,B|127:297|127:297|185:320,1,137.999995788574,8|0,0:0|0:0,0:0:0:0:
45,284,149711,5,6,0:0:0:0:
251,330,149888,1,6,0:0:0:0:
500,384,150061,1,8,0:0:0:0:
431,341,150213,6,0,P|431:261|436:120,1,206.999993682861,6|0,0:0|0:0,0:0:0:0:
441,97,150546,1,4,0:0:0:0:
360,381,150721,5,8,0:0:0:0:
391,31,150867,1,4,0:0:0:0:
352,11,151054,5,8,0:0:0:0:
275,362,151205,1,4,0:0:0:0:
236,348,151376,5,8,0:0:0:0:
333,7,151522,1,4,0:0:0:0:
426,108,151699,6,0,P|324:120|197:139,1,206.999993682861,6|0,0:0|0:0,0:0:0:0:
179,143,152058,1,8,0:0:0:0:
80,31,152226,2,0,P|163:23|198:76,2,137.999995788574,0|4|4,0:0|0:0|0:0,0:0:0:0:
167,233,152732,2,0,P|259:196|272:49,1,206.999993682861,8|0,0:0|0:0,0:0:0:0:
284,64,153069,6,0,P|271:187|263:373,1,275.999991577149,6|8,0:0|0:0,0:0:0:0:
197,120,153581,6,0,P|274:188|343:265,1,206.999993682861,4|0,0:0|0:0,0:0:0:0:
359,298,153921,1,4,0:0:0:0:
474,205,154092,5,8,0:0:0:0:
121,149,154262,1,0,0:0:0:0:
29,37,154433,6,0,L|51:280,1,206.999993682861,6|0,0:0|0:0,0:0:0:0:
55,283,154770,1,8,0:0:0:0:
134,298,154932,1,0,0:0:0:0:
38,29,155094,5,6,0:0:0:0:
145,300,155268,1,6,0:0:0:0:
426,362,155442,1,8,0:0:0:0:
330,33,155598,6,0,P|275:93|190:211,1,206.999993682861,6|0,0:0|0:0,0:0:0:0:
181,225,155931,1,4,0:0:0:0:
196,60,156099,5,8,0:0:0:0:
333,171,156263,1,8,0:0:0:0:
333,171,156338,1,8,0:0:0:0:
333,171,156413,1,8,0:0:0:0:
176,72,156570,5,8,0:0:0:0:
340,213,156722,1,8,0:0:0:0:
340,213,156807,1,8,0:0:0:0:
340,213,156892,1,4,0:0:0:0:
340,213,156977,1,4,0:0:0:0:
340,213,157062,6,0,P|231:231|110:254,1,206.999993682861,6|0,0:0|0:0,0:0:0:0:
91,261,157415,1,8,0:0:0:0:
269,380,157588,6,0,P|297:319|270:258,1,137.999995788574,4|0,0:0|0:0,0:0:0:0:
195,216,157925,1,4,0:0:0:0:
168,16,158105,2,0,P|75:72|118:178,1,206.999993682861,8|0,0:0|0:0,0:0:0:0:
120,177,158438,5,6,0:0:0:0:
278,197,158605,1,4,0:0:0:0:
55,230,158777,5,8,0:0:0:0:
190,221,158933,2,0,L|403:209,1,206.999993682861,4|0,0:0|0:0,0:0:0:0:
437,206,159271,5,4,0:0:0:0:
41,233,159455,1,8,0:0:0:0:
48,312,159626,1,0,0:0:0:0:
0,66,159797,6,0,P|86:64|124:192,1,206.999993682861,6|0,0:0|0:0,0:0:0:0:
110,197,160140,1,8,0:0:0:0:
44,144,160305,1,0,0:0:0:0:
257,32,160471,5,6,0:0:0:0:
36,145,160642,1,6,0:0:0:0:
89,355,160823,1,8,0:0:0:0:
342,244,160981,6,0,P|249:200|139:161,1,206.999993682861,6|0,0:0|0:0,0:0:0:0:
117,157,161321,1,4,0:0:0:0:
353,323,161496,5,8,0:0:0:0:
97,77,161642,1,4,0:0:0:0:
117,42,161827,5,8,0:0:0:0:
365,322,161984,1,4,0:0:0:0:
407,338,162149,5,8,0:0:0:0:
153,22,162282,1,4,0:0:0:0:
286,70,162488,6,0,P|274:175|260:337,1,206.999993682861,6|0,0:0|0:0,0:0:0:0:
263,317,162828,1,8,0:0:0:0:
352,150,162996,2,0,P|279:141|198:133,1,149.499993156433,0|4,0:0|0:0,0:0:0:0:
203,133,163345,1,4,0:0:0:0:
191,213,163517,1,8,0:0:0:0:
427,84,163668,6,0,P|266:141|84:229,1,345.000013160706,6|4,0:0|0:0,0:0:0:0:
3,366,164213,1,8,0:0:0:0:
93,291,164363,2,0,P|99:202|105:18,1,206.999993682861,4|0,0:0|0:0,0:0:0:0:
104,38,164698,5,4,0:0:0:0:
83,367,164880,1,8,0:0:0:0:
60,191,165049,5,0,0:0:0:0:
289,203,165218,2,0,L|32:189,1,230,6|8,0:0|0:0,0:0:0:0:
289,203,165896,6,0,B|327:166|327:166|306:96|306:96|219:108|219:108|218:132,1,230,6|8,0:0|0:0,0:0:0:0:
289,203,166402,6,0,B|314:213|314:213|409:173|409:173|369:25,1,230,6|0,0:0|0:0,0:0:0:0:
139,117,166951,5,2,0:2:0:0:
139,117,167308,1,2,0:2:0:0:
139,117,167643,1,2,0:2:0:0:
76,14,167970,6,0,B|106:19|106:19|128:269,1,230,6|8,0:0|0:0,0:0:0:0:
76,14,168697,6,0,B|58:22|58:22|76:89|76:89|158:111|158:111|150:176,1,230,6|0,0:0|0:0,0:0:0:0:
122,380,169273,5,6,0:0:0:0:
256,192,169370,12,0,176581,0:0:0:0:
