osu file format v14

[General]
AudioFilename: audio.mp3
AudioLeadIn: 0
PreviewTime: 55
Countdown: 0
SampleSet: Drum
StackLeniency: 0.4
Mode: 0
LetterboxInBreaks: 0
WidescreenStoryboard: 1

[Editor]
Bookmarks: 105565,127483,146287
DistanceSpacing: 0.8
BeatDivisor: 4
GridSize: 32
TimelineZoom: 7.400001

[Metadata]
Title:Basket Case
TitleUnicode:Basket Case
Artist:Green Day
ArtistUnicode:Green Day
Creator:Hectic
Version:Advanced
Source:
Tags:h4d0uk3n1 kuyusu fergas schoolboy komore xbopost tokiko time freeze ksardas smozit adioni frakturehawkens themefisto fcl senseabel rock english punk-rock punk pop-punk alternative dookie
BeatmapID:3202196
BeatmapSetID:1142364

[Difficulty]
HPDrainRate:4
CircleSize:4
OverallDifficulty:4.5
ApproachRate:6
SliderMultiplier:1.3
SliderTickRate:1

[Events]
//Background and Video events
0,0,"l;;;;;;;.jpg",0,0
//Break Periods
2,42637,45381
//Storyboard Layer 0 (Background)
//Storyboard Layer 1 (Fail)
//Storyboard Layer 2 (Pass)
//Storyboard Layer 3 (Foreground)
//Storyboard Layer 4 (Overlay)
//Storyboard Sound Samples

[TimingPoints]
36863,392.156862745098,4,3,1,65,1,0
36863,-95.6937799043062,4,3,1,65,0,0
37059,358.208955223881,4,3,1,65,1,0
37596,344.827586206897,4,3,1,65,1,0
37768,336.134453781513,4,3,1,65,1,0
38104,350.877192982456,4,3,1,65,1,0
38367,-100,4,3,1,5,0,0
38454,338.983050847458,4,3,1,65,1,0
38623,330.578512396694,4,3,1,65,1,0
38953,382.165605095541,4,3,1,65,1,0
39144,338.983050847458,4,3,1,65,1,0
39313,363.636363636364,4,3,1,65,1,0
39494,344.827586206897,4,3,1,65,1,0
39666,357.142857142857,4,3,1,65,1,0
40023,300,4,3,1,65,1,0
40173,348.837209302326,4,3,1,65,1,0
40347,389.61038961039,4,3,1,65,1,0
40541,376.175548589342,4,3,1,65,1,0
40729,338.983050847458,4,3,1,65,1,0
40898,341.880341880342,4,3,1,65,1,0
41239,365.853658536585,4,3,1,65,1,0
41421,349.854227405248,4,3,1,65,1,0
41770,340.909090909091,4,3,1,65,1,0
42110,322.58064516129,4,3,1,65,1,0
42271,333.333333333333,4,3,1,65,1,0
42437,368.098159509203,4,3,1,65,1,0
46486,346.820809248555,4,3,1,65,1,0
46832,350.877192982456,4,3,1,65,1,0
47884,294.117647058824,4,3,1,65,1,0
48031,408.163265306122,4,3,1,65,1,0
48235,342.857142857143,4,3,1,65,1,0
48920,348.837209302326,4,3,1,65,1,0
49268,331.491712707183,4,3,1,65,1,0
49433,357.142857142857,4,3,1,65,1,0
49790,372.670807453416,4,3,1,65,1,0
49976,340.909090909091,4,3,1,65,1,0
50316,352.941176470589,4,3,1,65,1,0
50492,329.67032967033,4,3,1,65,1,0
50492,-102.040816326531,4,3,1,65,0,0
50656,345.821325648415,4,3,1,65,1,0
51001,344.827586206897,4,3,1,65,1,0
51863,361.44578313253,4,3,1,65,1,0
52043,327.868852459016,4,3,1,65,1,0
52206,335.195530726257,4,3,1,65,1,0
52541,375,4,3,1,65,1,0
52728,335.195530726257,4,3,1,65,1,0
53063,344.827586206897,4,3,1,65,1,0
53235,-98.0392156862745,4,3,1,65,0,0
53407,333.333333333333,4,3,1,65,1,0
53740,355.029585798817,4,3,1,65,1,0
54095,342.857142857143,4,3,1,65,1,0
54437,333.333333333333,4,3,1,65,1,0
54770,329.67032967033,4,3,1,65,1,0
55264,368.098159509202,4,3,1,65,1,0
55448,316.122233930453,4,3,1,65,1,0
55606,344.827586206897,4,3,1,65,1,0
55864,-100,4,3,1,5,0,0
55950,363.636363636364,4,3,1,65,1,0
56131,340.909090909091,4,3,1,65,1,0
56301,-101.522842639594,4,3,1,65,0,0
56471,352.941176470588,4,3,1,65,1,0
56823,339.943342776204,4,3,1,65,1,0
57672,344.827586206897,4,3,1,65,1,0
58016,352.941176470588,4,3,1,65,1,0
58192,340.909090909091,4,3,1,65,1,0
58532,333.333333333333,4,3,1,65,1,0
59198,355.029585798817,4,3,1,65,1,0
59464,-100,4,3,1,65,0,0
59553,342.857142857143,4,3,1,65,1,0
60238,329.67032967033,4,3,1,65,1,0
60402,344.332855093257,4,3,1,65,1,0
60660,-100,4,3,1,5,0,0
60746,350.877192982456,4,3,1,65,1,0
60921,342.857142857143,4,3,1,65,1,0
61263,333.333333333333,4,3,1,65,1,0
61429,355.029585798817,4,3,1,65,1,0
61429,-97.0873786407767,4,3,1,65,0,0
61606,337.078651685393,4,3,1,65,1,0
61943,349.854227405248,4,3,1,65,1,0
62817,327.868852459016,4,3,1,65,1,0
62980,338.983050847458,4,3,1,65,1,0
63149,344.827586206897,4,3,1,65,1,0
63407,-100,4,3,1,5,0,0
63493,340.909090909091,4,3,1,65,1,0
63663,337.078651685393,4,3,1,65,1,0
64168,-99.009900990099,4,3,1,65,0,0
64337,331.491712707182,4,3,1,65,1,0
64668,338.983050847458,4,3,1,65,1,0
65345,348.837209302326,4,3,1,65,1,0
65693,329.67032967033,4,3,1,65,1,0
65857,342.857142857143,4,3,1,65,1,0
66371,337.078651685393,4,3,1,65,1,0
66539,341.880341880342,4,3,1,65,1,0
66795,-100,4,3,1,65,0,0
66880,-100,4,3,1,65,0,0
67051,338.028169014084,4,3,1,65,1,0
67220,-101.010101010101,4,3,1,65,0,0
67389,344.827586206897,4,3,1,65,1,0
67733,340.909090909091,4,3,1,65,1,0
68073,320.855614973262,4,3,1,65,1,0
68233,342.857142857143,4,3,1,65,1,0
68575,327.868852459016,4,3,1,65,1,0
69066,332.409972299169,4,3,1,65,1,0
69564,-100,4,3,2,65,0,0
69730,-100,4,3,1,65,0,0
69813,-100,4,3,2,65,0,0
70063,358.208955223881,4,3,1,65,1,0
70421,352.422907488987,4,3,1,65,1,0
70773,350.877192982456,4,3,1,65,1,0
70948,338.983050847458,4,3,1,65,1,0
71117,333.333333333333,4,3,1,65,1,0
71283,337.078651685393,4,3,1,65,1,0
71957,346.820809248555,4,3,1,65,1,0
72303,363.636363636364,4,3,1,65,1,0
72303,-94.3396226415094,4,3,1,65,0,0
72484,333.333333333333,4,3,1,65,1,0
72817,344.827586206897,4,3,1,65,1,0
72817,-101.010101010101,4,3,1,65,0,0
72989,352.941176470588,4,3,1,65,1,0
73165,349.854227405248,4,3,1,65,1,0
73514,335.195530726257,4,3,1,65,1,0
73849,327.868852459016,4,3,1,65,1,0
74012,344.827586206897,4,3,1,65,1,0
74529,338.983050847458,4,3,1,65,1,0
74698,322.58064516129,4,3,1,65,1,0
75181,-100,4,3,2,65,0,0
75343,344.827586206897,4,3,2,65,1,0
75343,-100,4,3,2,65,0,0
75515,350.877192982456,4,3,1,65,1,0
75865,346.820809248555,4,3,1,65,1,0
76211,352.941176470588,4,3,1,65,1,0
76387,333.333333333333,4,3,1,65,1,0
76553,338.983050847458,4,3,1,65,1,0
77061,384.615384615385,4,3,1,65,1,0
77253,348.837209302326,4,3,1,65,1,0
77427,350.877192982456,4,3,1,65,1,0
77777,-98.8142292490118,4,3,1,65,0,0
77953,343.839541547278,4,3,1,65,1,0
78555,-100,4,3,1,5,0,0
78640,338.983050847458,4,3,1,65,1,0
78978,331.491712707182,4,3,1,65,1,0
79475,344.827586206897,4,3,1,65,1,0
79733,-100,4,3,1,5,0,0
79819,350.877192982456,4,3,1,65,1,0
79994,346.820809248555,4,3,1,65,1,0
80514,338.983050847458,4,3,1,65,1,0
80683,333.333333333333,4,3,1,65,1,0
81016,348.837209302326,4,3,1,65,1,0
81364,343.839541547278,4,3,1,65,1,0
81707,356.083086053412,4,3,1,65,1,0
81885,337.078651685393,4,3,1,65,1,0
82053,344.827586206897,4,3,1,65,1,0
82225,352.941176470588,4,3,1,65,1,0
82489,-100,4,3,1,5,0,0
82577,335.195530726257,4,3,1,65,1,0
82744,344.827586206897,4,3,1,65,1,0
83261,357.142857142857,4,3,1,65,1,0
83439,320.855614973262,4,3,1,65,1,0
83759,346.820809248555,4,3,1,65,1,0
83759,-99.304865938431,4,3,1,65,0,0
83932,342.857142857143,4,3,1,65,1,0
84446,338.983050847458,4,3,1,65,1,0
84954,322.58064516129,4,3,1,65,1,0
85276,348.837209302326,4,3,1,65,1,0
85450,344.827586206897,4,3,1,65,1,0
85794,357.142857142857,4,3,1,65,1,0
85972,344.827586206897,4,3,1,65,1,0
86144,394.736842105263,4,3,1,65,1,0
86341,340.909090909091,4,3,1,65,1,0
86767,-100,4,3,1,65,0,0
86852,300,4,3,1,65,1,0
87002,359.281437125748,4,3,1,65,1,0
87361,357.142857142857,4,3,1,65,1,0
87539,329.67032967033,4,3,1,65,1,0
87703,337.078651685393,4,3,1,65,1,0
87955,-100,4,3,1,5,0,0
88040,382.165605095541,4,3,1,65,1,0
88231,329.67032967033,4,3,1,65,1,0
88560,340.909090909091,4,3,1,65,1,0
88730,363.636363636364,4,3,1,65,1,0
88911,324.324324324324,4,3,1,65,1,0
89073,342.857142857143,4,3,1,65,1,0
89244,355.029585798817,4,3,1,65,1,0
89510,-100,4,3,1,5,0,0
89599,327.868852459016,4,3,1,65,1,0
89762,384.615384615385,4,3,1,65,1,0
89954,333.333333333333,4,3,1,65,1,0
90204,-100,4,3,1,5,0,0
90287,269.058295964126,4,3,1,65,1,0
90421,392.156862745098,4,3,1,65,1,0
90617,352.941176470588,4,3,1,65,1,0
90881,-100,4,3,1,5,0,0
90969,292.682926829268,4,3,1,65,1,0
91115,382.165605095541,4,3,1,65,1,0
91306,344.827586206897,4,3,1,65,1,0
91564,-100,4,3,1,5,0,0
91650,285.714285714286,4,3,1,65,1,0
91792,352.941176470588,4,3,1,65,1,0
92233,-100,4,3,1,5,0,0
92321,315.789473684211,4,3,1,65,1,0
92478,387.096774193548,4,3,1,65,1,0
92671,335.195530726257,4,3,1,65,1,0
92922,-100,4,3,1,5,0,0
93006,319.148936170213,4,3,1,65,1,0
93165,352.941176470588,4,3,1,65,1,0
93341,344.827586206897,4,3,1,65,1,0
93599,-100,4,3,1,5,0,0
93685,260.869565217391,4,3,1,65,1,0
93815,352.941176470588,4,3,1,65,1,0
93991,350.877192982456,4,3,1,65,1,0
94341,346.820809248555,4,3,1,65,1,0
94687,340.909090909091,4,3,1,65,1,0
94942,-100,4,3,1,5,0,0
95027,294.117647058824,4,3,1,65,1,0
95174,359.281437125748,4,3,1,65,1,0
95353,338.983050847458,4,3,1,65,1,0
95607,-100,4,3,1,5,0,0
95691,295.566502463054,4,3,1,65,1,0
95838,373.831775700935,4,3,1,65,1,0
96024,357.142857142857,4,3,1,65,1,0
96291,-100,4,3,1,5,0,0
96381,281.69014084507,4,3,1,65,1,0
96521,387.096774193548,4,3,1,65,1,0
96714,329.67032967033,4,3,1,65,1,0
96961,-100,4,3,1,5,0,0
97043,326.086956521739,4,3,1,65,1,0
97369,340.909090909091,4,3,1,65,1,0
97624,-100,4,3,1,5,0,0
97709,-100,4,3,1,65,0,0
97880,384.615384615385,4,3,1,65,1,0
98072,334.261838440111,4,3,1,65,1,0
98322,-100,4,3,1,5,0,0
98406,331.491712707182,4,3,1,65,1,0
98571,346.820809248555,4,3,1,65,1,0
98744,342.857142857143,4,3,1,65,1,0
99001,-100,4,3,1,5,0,0
99086,247.933884297521,4,3,1,65,1,0
99209,406.779661016949,4,3,1,65,1,0
99412,348.837209302326,4,3,1,65,1,0
99586,355.029585798817,4,3,1,65,1,0
100118,347.826086956522,4,3,1,65,1,0
100465,312.5,4,3,1,65,1,0
100621,342.857142857143,4,3,1,65,1,0
100792,361.44578313253,4,3,1,65,1,0
100972,340.909090909091,4,3,1,65,1,0
101142,294.117647058824,4,3,1,65,1,0
101289,344.827586206897,4,3,1,65,1,0
101633,375,4,3,1,65,1,0
101820,333.333333333333,4,3,1,65,1,0
101986,344.827586206897,4,3,1,65,1,0
102158,338.983050847458,4,3,1,65,1,0
102327,329.67032967033,4,3,1,65,1,0
102491,329.67032967033,4,3,1,65,1,0
102655,342.857142857143,4,3,1,65,1,0
103169,337.078651685393,4,3,1,65,1,0
103337,344.827586206897,4,3,1,65,1,0
103509,329.67032967033,4,3,1,65,1,0
103673,346.820809248555,4,3,1,65,1,0
103846,324.324324324324,4,3,1,65,1,0
104008,357.142857142857,4,3,1,65,1,0
104186,340.909090909091,4,3,1,65,1,0
105038,340.909090909091,4,3,1,65,1,0
105208,359.281437125748,4,3,1,65,1,0
105387,357.142857142857,4,3,1,65,1,0
105565,349.854227405248,4,3,1,65,1,0
105914,346.820809248555,4,3,1,65,1,0
106260,312.5,4,3,1,65,1,0
106416,361.44578313253,4,3,1,65,1,0
106596,345.821325648415,4,3,1,65,1,0
106768,337.078651685393,4,3,1,65,1,0
107020,-100,4,3,1,5,0,0
107105,352.941176470588,4,3,1,65,1,0
107281,350.877192982456,4,3,1,65,1,0
107631,322.58064516129,4,3,1,65,1,0
107792,340.909090909091,4,3,1,65,1,0
108303,358.208955223881,4,3,1,65,1,0
108571,-100,4,3,1,65,0,0
108661,352.941176470588,4,3,1,65,1,0
109013,309.278350515464,4,3,1,65,1,0
109167,333.333333333333,4,3,1,65,1,0
109833,379.746835443038,4,3,1,65,1,0
110022,355.029585798817,4,3,1,65,1,0
110377,306.90537084399,4,3,1,65,1,0
110530,324.324324324324,4,3,1,65,1,0
110692,344.827586206897,4,3,1,65,1,0
111036,350.877192982456,4,3,1,65,1,0
111299,-100,4,3,1,5,0,0
111386,346.820809248555,4,3,1,65,1,0
111732,333.333333333333,4,3,1,65,1,0
112065,315.789473684211,4,3,1,65,1,0
112222,344.827586206897,4,3,1,65,1,0
112480,-100,4,3,1,5,0,0
112566,382.165605095541,4,3,1,65,1,0
112757,322.58064516129,4,3,1,65,1,0
112918,331.491712707182,4,3,1,65,1,0
113249,375,4,3,1,65,1,0
113436,355.029585798817,4,3,1,65,1,0
114501,329.67032967033,4,3,1,65,1,0
114830,322.58064516129,4,3,1,65,1,0
114991,335.195530726257,4,3,1,65,1,0
115326,340.909090909091,4,3,1,65,1,0
115496,349.854227405248,4,3,1,65,1,0
115845,326.086956521739,4,3,1,65,1,0
116008,361.44578313253,4,3,1,65,1,0
116188,355.029585798817,4,3,1,65,1,0
116543,358.208955223881,4,3,1,65,1,0
117259,322.58064516129,4,3,1,65,1,0
117420,359.281437125748,4,3,1,65,1,0
117599,345.821325648415,4,3,1,65,1,0
117771,338.028169014084,4,3,1,65,1,0
118109,361.44578313253,4,3,1,65,1,0
118289,348.837209302326,4,3,1,65,1,0
118637,329.67032967033,4,3,1,65,1,0
118801,348.837209302326,4,3,1,65,1,0
118975,333.333333333333,4,3,1,65,1,0
119308,357.142857142857,4,3,1,65,1,0
119575,-100,4,3,1,5,0,0
119665,-100,4,3,1,65,0,0
120022,338.983050847458,4,3,1,65,1,0
120191,324.324324324324,4,3,1,65,1,0
120515,315.789473684211,4,3,1,65,1,0
120751,-100,4,3,1,5,0,0
120830,400,4,3,1,65,1,0
121030,340.909090909091,4,3,1,65,1,0
121370,283.018867924528,4,3,1,65,1,0
121511,375,4,3,1,65,1,0
121698,344.827586206897,4,3,1,65,1,0
122042,357.142857142857,4,3,1,65,1,0
122309,-100,4,3,1,5,0,0
122399,346.820809248555,4,3,1,65,1,0
122745,338.983050847458,4,3,1,65,1,0
122914,333.333333333333,4,3,1,65,1,0
123247,326.086956521739,4,3,1,65,1,0
123491,-100,4,3,1,5,0,0
123573,375,4,3,1,65,1,0
123760,324.324324324324,4,3,1,65,1,0
123922,361.44578313253,4,3,1,65,1,0
124464,337.078651685393,5,3,1,65,1,0
125980,327.868852459016,4,3,1,65,1,0
126307,344.827586206897,4,3,1,65,1,0
126479,338.028169014084,4,3,1,65,1,0
126817,333.333333333333,4,3,2,65,1,0
126817,-100,4,3,2,65,0,0
127150,-100,4,3,1,65,0,0
127483,348.837209302326,4,3,1,65,1,0
127831,331.491712707182,4,3,1,65,1,0
128991,359.281437125748,4,3,1,65,1,0
129170,329.67032967033,4,3,1,65,1,0
129334,339.943342776204,4,3,1,65,1,0
129673,335.195530726257,4,3,1,65,1,0
129673,-95.2380952380952,4,3,1,65,0,0
129840,304.568527918782,4,3,1,65,1,0
129992,372.670807453416,4,3,1,65,1,0
130178,348.837209302326,4,3,1,65,1,0
130526,344.827586206897,4,3,1,65,1,0
130870,337.078651685393,4,3,1,65,1,0
131038,342.857142857143,4,3,1,65,1,0
131209,319.148936170213,4,3,1,65,1,0
131687,352.941176470588,4,3,1,65,1,0
132039,335.195530726257,4,3,1,65,1,0
132374,327.868852459016,4,3,1,65,1,0
132537,319.148936170213,4,3,2,65,1,0
132537,-100,4,3,2,65,0,0
132696,350.877192982456,4,3,2,65,1,0
132696,-100,4,3,2,65,0,0
132871,353.982300884956,4,3,1,65,1,0
133224,340.909090909091,4,3,1,65,1,0
133905,317.460317460317,4,3,1,65,1,0
134063,327.868852459016,4,3,1,65,1,0
134554,333.333333333333,4,3,1,65,1,0
134720,335.195530726257,4,3,1,65,1,0
135055,357.142857142857,4,3,1,65,1,0
135055,-98.0392156862745,4,3,1,65,0,0
135233,344.827586206897,4,3,1,65,1,0
135577,348.837209302326,4,3,1,65,1,0
135925,342.857142857143,4,3,1,65,1,0
136267,336.134453781513,4,3,1,65,1,0
136771,320.855614973262,4,3,1,65,1,0
137091,340.909090909091,4,3,1,65,1,0
137261,329.67032967033,4,3,1,65,1,0
137425,303.030303030303,4,3,1,65,1,0
137576,331.491712707182,4,3,1,65,1,0
137907,346.820809248555,4,3,2,65,1,0
137907,-100,4,3,2,65,0,0
138253,357.142857142857,4,3,1,65,1,0
138610,327.868852459016,4,3,1,65,1,0
138937,333.333333333333,4,3,1,65,1,0
139103,350.877192982456,4,3,1,65,1,0
139278,333.333333333333,4,3,1,65,1,0
140444,319.148936170213,4,3,1,65,1,0
140842,-100,4,3,1,65,0,0
140922,333.333333333333,4,3,1,65,1,0
140922,-101.010101010101,4,3,1,65,0,0
141088,342.857142857143,4,3,1,65,1,0
141602,340.909090909091,4,3,1,65,1,0
141772,365.853658536585,4,3,1,65,1,0
141954,317.460317460317,4,3,1,65,1,0
142430,352.941176470588,4,3,1,65,1,0
142606,331.491712707182,4,3,1,65,1,0
142937,361.44578313253,4,3,1,65,1,0
143117,333.333333333333,4,3,1,65,1,0
143450,319.148936170213,4,3,1,65,1,0
143609,352.941176470588,5,3,1,65,1,0
143961,310.880829015544,4,3,1,65,1,0
144116,324.324324324324,4,3,1,65,1,0
144440,387.096774193548,4,3,1,65,1,0
144633,326.086956521739,4,3,1,65,1,0
145122,357.142857142857,4,3,1,65,1,0
145300,320.855614973262,4,3,1,65,1,0
145620,327.868852459016,4,3,1,65,1,0
145947,340.909090909091,4,3,1,65,1,0
146287,352.941176470588,4,3,1,65,1,0
146551,-100,4,3,1,5,0,0
146639,335.195530726257,4,3,1,65,1,0
146806,352.941176470588,4,3,1,65,1,0
147158,350.877192982456,4,3,1,65,1,0
147333,340.909090909091,4,3,1,65,1,0
147673,346.820809248555,4,3,1,65,1,0
148019,335.195530726257,4,3,1,65,1,0
148186,340.909090909091,4,3,1,65,1,0
148526,350.877192982456,4,3,1,65,1,0
148701,329.67032967033,4,3,1,65,1,0
149030,340.909090909091,4,3,1,65,1,0
149285,-100,4,3,1,5,0,0
149370,-100,4,3,1,65,0,0
149711,355.029585798817,4,3,1,65,1,0
149888,346.820809248555,4,3,1,65,1,0
150061,304.568527918782,4,3,1,65,1,0
150213,333.333333333333,4,3,1,65,1,0
150463,-100,4,3,1,5,0,0
150546,350.877192982456,4,3,1,65,1,0
150721,292.682926829268,4,3,1,65,1,0
150867,375,4,3,1,65,1,0
151054,303.030303030303,4,3,1,65,1,0
151205,342.857142857143,4,3,1,65,1,0
151376,295.566502463054,4,3,1,65,1,0
151523,352.941176470588,4,3,1,65,1,0
151699,359.281437125748,4,3,1,65,1,0
151968,-100,4,3,1,5,0,0
152058,337.078651685393,4,3,1,65,1,0
152984,-100,4,3,1,5,0,0
153069,346.820809248555,4,3,1,65,1,0
153415,333.333333333333,4,3,1,65,1,0
153581,340.909090909091,4,3,1,65,1,0
153836,-100,4,3,1,5,0,0
153921,-100,4,3,1,65,0,0
154433,337.078651685393,4,3,1,65,1,0
154685,-100,4,3,1,5,0,0
154770,324.324324324324,4,3,1,65,1,0
155094,348.837209302326,4,3,1,65,1,0
155442,312.5,4,3,1,65,1,0
155598,333.333333333333,4,3,1,65,1,0
155848,-100,4,3,1,5,0,0
155931,337.078651685393,4,3,1,65,1,0
156099,329.67032967033,4,3,1,65,1,0
156263,300,4,3,2,65,1,0
156263,-100,4,3,2,65,0,0
156413,315.789473684211,4,3,2,65,1,0
156413,-100,4,3,2,65,0,0
156570,304.568527918782,4,3,2,65,1,0
156570,-100,4,3,2,65,0,0
156722,340.909090909091,4,3,2,65,1,0
156722,-100,4,3,2,65,0,0
157062,353.982300884956,4,3,1,65,1,0
157327,-100,4,3,1,5,0,0
157415,346.820809248555,4,3,1,65,1,0
157588,337.078651685393,4,3,1,65,1,0
157925,361.44578313253,4,3,1,65,1,0
158105,333.333333333333,4,3,1,65,1,0
158355,-100,4,3,1,5,0,0
158438,-100,4,3,1,65,0,0
158605,344.827586206897,4,3,1,65,1,0
158777,312.5,4,3,1,65,1,0
158933,338.983050847458,4,3,1,65,1,0
159187,-100,4,3,1,5,0,0
159271,368.098159509202,4,3,1,65,1,0
159455,342.857142857143,4,3,1,65,1,0
160055,-100,4,3,1,5,0,0
160140,331.491712707182,4,3,1,65,1,0
160471,342.857142857143,4,3,1,65,1,0
160642,363.636363636364,4,3,1,65,1,0
160823,317.460317460317,4,3,1,65,1,0
160981,340.909090909091,4,3,1,65,1,0
161236,-100,4,3,1,5,0,0
161321,350.877192982456,4,3,1,65,1,0
161496,292.682926829268,4,3,1,65,1,0
161642,370.37037037037,4,3,1,65,1,0
161827,315.789473684211,4,3,1,65,1,0
161984,331.491712707182,4,3,1,65,1,0
162149,266.666666666667,4,3,1,65,1,0
162282,413.793103448276,4,3,1,65,1,0
162488,340.909090909091,4,3,1,65,1,0
162743,-100,4,3,1,5,0,0
162828,337.078651685393,4,3,1,65,1,0
163165,361.44578313253,4,3,1,65,1,0
163345,344.827586206897,4,3,1,65,1,0
163517,303.030303030303,4,3,1,65,1,0
163668,363.636363636364,4,3,1,65,1,0
164213,300,4,3,1,65,1,0
164363,335.195530726257,4,3,1,65,1,0
164614,-100,4,3,1,5,0,0
164698,365.853658536585,4,3,1,65,1,0
164880,338.983050847458,4,3,1,65,1,0
165896,324.324324324324,4,3,1,65,1,0
166220,365.853658536585,4,3,1,65,1,0
166951,357.142857142857,4,3,1,65,1,0
167308,335.195530726257,4,3,1,65,1,0
167643,327.868852459016,4,3,1,65,1,0
167970,379.746835443038,4,3,1,65,1,0
168349,348.837209302326,4,3,1,65,1,0
168697,384.615384615385,4,3,1,65,1,0
176581,-100,4,3,1,5,0,0

[Colours]
Combo1 : 60,96,164
Combo2 : 150,41,90
Combo3 : 136,87,166
Combo4 : 94,71,184

[HitObjects]
0,65,36863,6,0,P|65:64|126:129,1,130,6|8,0:0|0:0,0:0:0:0:
136,197,37596,1,6,0:0:0:0:
121,249,37768,2,0,L|196:276,1,65,6|8,0:0|0:0,0:0:0:0:
225,284,38104,2,0,P|241:240|258:140,1,130,6|4,0:0|0:0,0:0:0:0:
226,69,38623,5,8,0:0:0:0:
296,9,38953,1,4,0:0:0:0:
386,40,39313,1,4,0:0:0:0:
413,124,39666,6,0,P|357:144|273:201,1,130,6|8,0:0|0:0,0:0:0:0:
269,273,40347,1,4,0:0:0:0:
219,295,40541,2,0,L|210:366,1,65,4|8,0:0|0:0,0:0:0:0:
162,368,40898,6,0,B|116:328|116:328|147:245,1,130,6|4,0:0|0:0,0:0:0:0:
164,218,41421,1,8,0:0:0:0:
210,132,41770,1,4,0:0:0:0:
173,90,41940,2,0,L|103:108,1,65,4|8,0:0|0:0,0:0:0:0:
50,39,42437,5,6,0:0:0:0:
3,16,46832,6,0,L|117:37,1,97.5,4|8,0:0|0:0,0:0:0:0:
121,105,47358,2,0,L|205:175,1,97.5,8|8,0:0|0:0,0:0:0:0:
166,238,47884,2,0,L|171:313,1,65,8|4,0:0|0:0,0:0:0:0:
201,345,48235,6,0,P|264:335|266:268,1,130,6|8,0:0|0:0,0:0:0:0:
277,177,48920,1,4,0:0:0:0:
327,193,49094,2,0,P|348:218|369:268,1,65,4|8,0:0|0:0,0:0:0:0:
409,276,49433,6,0,L|423:135,1,130,4|4,0:0|0:0,0:0:0:0:
423,93,49976,1,8,0:0:0:0:
338,33,50316,1,4,0:0:0:0:
289,40,50492,1,4,0:0:0:0:
263,83,50656,1,0,0:0:0:0:
290,181,51001,6,0,P|243:188|169:125,1,130,6|8,0:0|0:0,0:0:0:0:
124,42,51690,1,4,0:0:0:0:
75,47,51863,2,0,P|57:94|49:130,1,65,4|8,0:0|0:0,0:0:0:0:
44,157,52206,6,0,B|106:199|106:199|133:252,1,130,4|4,0:0|0:0,0:0:0:0:
149,295,52728,1,8,0:0:0:0:
234,328,53063,1,4,0:0:0:0:
255,282,53235,1,4,0:0:0:0:
254,232,53407,1,0,0:0:0:0:
309,164,53740,6,0,L|460:146,1,130,6|8,0:0|0:0,0:0:0:0:
501,238,54437,1,4,0:0:0:0:
471,278,54603,2,0,L|399:289,1,65,4|8,0:0|0:0,0:0:0:0:
360,290,54934,6,0,P|334:344|327:373,1,65,4|0,0:0|0:0,0:0:0:0:
288,337,55264,2,0,P|251:348|205:366,1,65,4|8,0:0|0:0,0:0:0:0:
193,319,55606,2,0,P|156:298|61:266,1,130,4|4,0:0|0:0,0:0:0:0:
41,226,56131,1,8,0:0:0:0:
132,187,56471,6,0,B|169:163|169:163|151:55,1,130,6|8,0:0|0:0,0:0:0:0:
243,10,57162,1,4,0:0:0:0:
287,36,57332,1,4,0:0:0:0:
266,86,57502,1,8,0:0:0:0:
289,131,57672,6,0,P|291:186|295:288,1,130,6|4,0:0|0:0,0:0:0:0:
295,311,58192,1,8,0:0:0:0:
216,368,58532,1,4,0:0:0:0:
182,330,58698,1,4,0:0:0:0:
193,280,58865,1,8,0:0:0:0:
150,192,59198,6,0,P|91:197|33:248,1,130,6|8,0:0|0:0,0:0:0:0:
5,143,59895,1,4,0:0:0:0:
50,117,60067,2,0,L|22:56,1,65,4|8,0:0|0:0,0:0:0:0:
60,21,60402,6,0,B|199:37,1,130,4|4,0:0|0:0,0:0:0:0:
243,43,60921,1,8,0:0:0:0:
308,129,61263,1,4,0:0:0:0:
357,117,61429,1,4,0:0:0:0:
409,106,61606,1,0,0:0:0:0:
488,176,61943,6,0,P|422:221|378:267,1,130,6|8,0:0|0:0,0:0:0:0:
326,326,62642,1,4,0:0:0:0:
277,314,62817,2,0,L|258:386,1,65,4|8,0:0|0:0,0:0:0:0:
209,373,63149,6,0,B|171:353|171:353|150:243,1,130,4|4,0:0|0:0,0:0:0:0:
141,218,63663,1,8,0:0:0:0:
230,185,64000,1,4,0:0:0:0:
243,133,64168,1,4,0:0:0:0:
271,89,64337,1,0,0:0:0:0:
214,6,64668,6,0,L|71:27,1,130,6|8,0:0|0:0,0:0:0:0:
11,102,65345,1,4,0:0:0:0:
54,129,65519,2,0,L|75:198,1,65,4|8,0:0|0:0,0:0:0:0:
45,223,65857,6,0,P|33:251|28:291,1,65,4|0,0:0|0:0,0:0:0:0:
46,330,66199,2,0,P|80:348|122:351,1,65,4|8,0:0|0:0,0:0:0:0:
149,335,66539,2,0,P|171:283|171:200,1,130,4|4,0:0|0:0,0:0:0:0:
155,165,67051,6,0,B|177:142|177:142|284:108,1,130,8|6,0:0|0:0,0:0:0:0:
372,107,67733,1,8,0:0:0:0:
348,196,68073,1,4,0:0:0:0:
399,206,68233,1,4,0:0:0:0:
430,244,68404,1,8,0:0:0:0:
483,238,68575,6,0,L|476:99,1,130,6|4,0:0|0:0,0:0:0:0:
475,52,69066,1,8,0:0:0:0:
387,29,69398,1,4,0:0:0:0:
387,29,69564,1,8,0:0:0:0:
344,49,69730,1,4,0:0:0:0:
344,49,69897,1,4,0:0:0:0:
317,85,70063,6,0,P|257:94|205:26,1,130,6|8,0:0|0:0,0:0:0:0:
118,15,70773,1,4,0:0:0:0:
100,66,70948,1,4,0:0:0:0:
133,109,71117,1,8,0:0:0:0:
114,160,71283,6,0,L|117:230,1,65,6|0,0:0|0:0,0:0:0:0:
122,278,71620,2,0,L|35:286,1,65,4|8,0:0|0:0,0:0:0:0:
4,288,71957,2,0,B|5:300|1:224,1,65,4|0,0:0|0:0,0:0:0:0:
0,174,72303,2,0,L|207:188,1,195,4|4,0:0|0:0,0:0:0:0:
298,196,73165,1,8,0:0:0:0:
349,274,73514,1,4,0:0:0:0:
301,294,73681,1,4,0:0:0:0:
317,343,73849,1,8,0:0:0:0:
273,368,74012,6,0,P|228:357|198:272,1,130,6|4,0:0|0:0,0:0:0:0:
212,236,74529,1,8,0:0:0:0:
294,156,74859,6,0,L|246:106,1,65,4|4,0:0|0:0,0:0:0:0:
253,57,75181,2,0,L|169:31,1,65,4|4,0:0|0:0,0:0:0:0:
159,2,75515,6,0,B|121:16|121:16|87:131,1,130,6|8,0:0|0:0,0:0:0:0:
73,200,76211,1,4,0:0:0:0:
121,211,76387,1,4,0:0:0:0:
138,256,76553,1,8,0:0:0:0:
188,250,76722,6,0,L|269:240,1,65,6|0,0:0|0:0,0:0:0:0:
297,268,77061,2,0,L|367:284,1,65,4|8,0:0|0:0,0:0:0:0:
395,319,77427,2,0,L|449:372,1,65,4|0,0:0|0:0,0:0:0:0:
489,360,77777,2,0,B|508:313|508:313|407:197,1,195,4|6,0:0|0:0,0:0:0:0:
355,127,78640,1,8,0:0:0:0:
410,47,78978,1,4,0:0:0:0:
363,17,79143,1,4,0:0:0:0:
309,31,79309,1,8,0:0:0:0:
272,70,79475,6,0,P|235:79|136:78,1,130,6|4,0:0|0:0,0:0:0:0:
105,42,79994,1,8,0:0:0:0:
52,131,80340,6,0,P|37:180|36:215,1,65,4|4,0:0|0:0,0:0:0:0:
74,224,80683,2,0,P|87:264|97:301,1,65,8|0,0:0|0:0,0:0:0:0:
96,336,81016,5,6,0:0:0:0:
199,363,81364,1,8,0:0:0:0:
276,292,81707,1,4,0:0:0:0:
258,247,81885,2,0,L|343:231,1,65,4|8,0:0|0:0,0:0:0:0:
372,223,82225,5,6,0:0:0:0:
466,248,82577,1,4,0:0:0:0:
476,196,82744,1,8,0:0:0:0:
429,103,83088,1,4,0:0:0:0:
376,108,83261,1,4,0:0:0:0:
344,67,83439,1,8,0:0:0:0:
256,24,83759,6,0,L|117:38,1,130,6|8,0:0|0:0,0:0:0:0:
65,125,84446,1,6,0:0:0:0:
115,138,84615,2,0,P|114:174|94:215,1,65,6|8,0:0|0:0,0:0:0:0:
78,244,84954,2,0,L|220:296,1,130,6|4,0:0|0:0,0:0:0:0:
249,306,85450,5,8,0:0:0:0:
303,226,85794,1,4,0:0:0:0:
397,209,86144,1,4,0:0:0:0:
388,121,86511,6,0,L|238:145,1,130,6|8,0:0|0:0,0:0:0:0:
180,69,87181,1,0,0:0:0:0:
133,61,87361,2,0,P|121:106|116:143,1,65,4|8,0:0|0:0,0:0:0:0:
117,174,87703,6,0,P|173:181|181:263,1,130,6|4,0:0|0:0,0:0:0:0:
154,279,88231,1,8,0:0:0:0:
234,349,88560,1,4,0:0:0:0:
266,313,88730,1,4,0:0:0:0:
316,330,88911,2,0,P|332:277|334:246,1,65,8|4,0:0|0:0,0:0:0:0:
330,221,89244,6,0,L|482:236,1,130,6|8,0:0|0:0,0:0:0:0:
477,142,89954,2,0,L|334:132,1,130,4|8,0:0|0:0,0:0:0:0:
286,71,90617,6,0,P|259:97|205:186,1,130,4|8,0:0|0:0,0:0:0:0:
125,220,91306,2,0,P|117:168|113:70,1,130,4|8,0:0|0:0,0:0:0:0:
117,44,91792,1,4,0:0:0:0:
73,14,91968,6,0,B|29:37|29:37|8:135,1,130,6|8,0:0|0:0,0:0:0:0:
0,205,92671,2,0,B|29:230|29:230|55:343,1,130,4|8,0:0|0:0,0:0:0:0:
141,371,93341,6,0,P|195:342|184:264,1,130,4|8,0:0|0:0,0:0:0:0:
133,208,93991,2,0,P|114:165|147:79,1,130,4|8,0:0|0:0,0:0:0:0:
186,71,94514,1,4,0:0:0:0:
236,75,94687,6,0,L|269:204,1,130,6|8,0:0|0:0,0:0:0:0:
350,158,95353,2,0,L|339:25,1,130,4|8,0:0|0:0,0:0:0:0:
426,0,96024,6,0,P|489:60|472:104,1,130,4|8,0:0|0:0,0:0:0:0:
441,179,96714,2,0,P|430:226|416:324,1,130,4|8,0:0|0:0,0:0:0:0:
408,360,97206,1,4,0:0:0:0:
359,373,97369,6,0,B|316:352|316:352|286:244,1,130,6|8,0:0|0:0,0:0:0:0:
249,188,98072,2,0,B|204:206|204:206|163:309,1,130,4|8,0:0|0:0,0:0:0:0:
97,328,98744,6,0,P|61:308|46:217,1,130,4|8,0:0|0:0,0:0:0:0:
110,163,99412,1,4,0:0:0:0:
97,115,99586,1,8,0:0:0:0:
97,115,99763,1,8,0:0:0:0:
97,115,99941,1,8,0:0:0:0:
110,65,100118,6,0,L|189:74,1,65,4|4,0:0|0:0,0:0:0:0:
224,79,100465,1,8,0:0:0:0:
254,166,100792,2,0,L|316:192,1,65,4|4,0:0|0:0,0:0:0:0:
359,215,101142,1,8,0:0:0:0:
359,307,101461,6,0,L|275:285,1,65,0|4,0:0|0:0,0:0:0:0:
246,278,101820,1,8,0:0:0:0:
180,342,102158,2,0,L|114:333,1,65,4|4,0:0|0:0,0:0:0:0:
65,326,102491,1,8,0:0:0:0:
25,244,102826,5,8,0:0:0:0:
25,244,102997,1,4,0:0:0:0:
25,244,103169,2,0,L|104:235,1,65,8|4,0:0|0:0,0:0:0:0:
127,204,103509,5,8,0:0:0:0:
127,204,103673,1,4,0:0:0:0:
127,204,103846,2,0,L|85:132,1,65,8|4,0:0|0:0,0:0:0:0:
44,146,104186,5,8,0:0:0:0:
44,146,105038,1,4,0:0:0:0:
0,120,105208,2,0,L|14:48,1,65,8|4,0:0|0:0,0:0:0:0:
48,17,105565,6,0,L|187:36,1,130,6|8,0:0|0:0,0:0:0:0:
269,60,106260,1,4,0:0:0:0:
279,109,106416,1,4,0:0:0:0:
330,119,106596,1,8,0:0:0:0:
380,100,106768,6,0,P|431:115|450:200,1,130,6|4,0:0|0:0,0:0:0:0:
419,219,107281,1,8,0:0:0:0:
411,308,107631,1,4,0:0:0:0:
360,289,107792,1,4,0:0:0:0:
306,284,107962,1,8,0:0:0:0:
245,207,108303,6,0,P|200:217|148:152,1,130,6|8,0:0|0:0,0:0:0:0:
195,64,109013,1,4,0:0:0:0:
162,20,109167,1,4,0:0:0:0:
113,36,109333,1,8,0:0:0:0:
64,17,109500,6,0,L|49:165,1,130,6|4,0:0|0:0,0:0:0:0:
46,197,110022,1,8,0:0:0:0:
86,284,110377,1,4,0:0:0:0:
137,269,110530,1,4,0:0:0:0:
167,310,110692,2,0,L|228:355,1,65,8|0,0:0|0:0,0:0:0:0:
266,332,111036,6,0,B|292:308|292:308|277:189,1,130,6|8,0:0|0:0,0:0:0:0:
252,129,111732,1,4,0:0:0:0:
293,97,111898,1,4,0:0:0:0:
335,137,112065,1,8,0:0:0:0:
384,118,112222,6,0,P|400:178|417:266,1,130,6|4,0:0|0:0,0:0:0:0:
466,256,112757,1,8,0:0:0:0:
499,213,112918,2,0,P|502:134|502:62,1,130,4|4,0:0|0:0,0:0:0:0:
499,33,113436,1,8,0:0:0:0:
404,8,113791,6,0,L|267:27,1,130,6|8,0:0|0:0,0:0:0:0:
183,45,114501,1,4,0:0:0:0:
175,96,114665,1,4,0:0:0:0:
125,109,114830,1,8,0:0:0:0:
90,153,114991,6,0,P|84:216|76:295,1,130,6|4,0:0|0:0,0:0:0:0:
69,336,115496,1,8,0:0:0:0:
161,352,115845,1,4,0:0:0:0:
199,311,116008,1,4,0:0:0:0:
169,264,116188,2,0,P|173:222|180:187,1,65,10|0,0:0|0:0,0:0:0:0:
196,152,116543,6,0,P|241:158|252:240,1,130,6|8,0:0|0:0,0:0:0:0:
291,323,117259,1,4,0:0:0:0:
344,330,117420,1,4,0:0:0:0:
381,288,117599,1,8,0:0:0:0:
367,236,117771,6,0,P|360:176|355:82,1,130,6|4,0:0|0:0,0:0:0:0:
382,62,118289,1,8,0:0:0:0:
299,5,118637,1,4,0:0:0:0:
247,15,118801,1,4,0:0:0:0:
258,67,118975,2,0,P|264:100|269:148,1,65,8|0,0:0|0:0,0:0:0:0:
227,160,119308,6,0,B|191:173|191:173|92:136,1,130,6|8,0:0|0:0,0:0:0:0:
14,196,120022,1,4,0:0:0:0:
2,251,120191,1,4,0:0:0:0:
55,263,120353,1,8,0:0:0:0:
95,297,120515,6,0,L|248:295,1,130,6|4,0:0|0:0,0:0:0:0:
269,324,121030,1,8,0:0:0:0:
370,283,121370,1,4,0:0:0:0:
421,283,121511,1,4,0:0:0:0:
471,302,121698,2,0,L|477:232,1,65,8|0,0:0|0:0,0:0:0:0:
481,186,122042,6,0,P|422:169|429:91,1,130,6|8,0:0|0:0,0:0:0:0:
499,66,122745,1,4,0:0:0:0:
477,17,122914,1,4,0:0:0:0:
429,22,123080,1,8,0:0:0:0:
379,2,123247,6,0,P|271:22|232:32,1,130,6|4,0:0|0:0,0:0:0:0:
236,75,123760,1,8,0:0:0:0:
189,98,123922,2,0,P|131:84|38:66,1,130,6|4,0:0|0:0,0:0:0:0:
11,64,124464,1,8,0:0:0:0:
45,157,124801,6,0,L|60:234,1,65,6|0,0:0|0:0,0:0:0:0:
101,240,125138,2,0,L|94:311,1,65,10|0,0:0|0:0,0:0:0:0:
126,343,125475,1,4,0:0:0:0:
173,356,125643,1,4,0:0:0:0:
202,318,125812,1,8,0:0:0:0:
253,334,125980,6,0,L|241:197,1,130,6|4,0:0|0:0,0:0:0:0:
237,157,126479,5,8,0:0:0:0:
237,157,126648,1,8,0:0:0:0:
237,157,126817,2,0,L|306:154,1,65,4|4,0:0|0:0,0:0:0:0:
330,112,127150,1,8,0:0:0:0:
330,112,127317,1,8,0:0:0:0:
378,100,127483,5,6,0:0:0:0:
436,175,127831,1,8,0:0:0:0:
397,261,128162,1,4,0:0:0:0:
348,264,128328,2,0,L|357:335,1,65,4|8,0:0|0:0,0:0:0:0:
326,365,128659,5,4,0:0:0:0:
234,316,128991,1,4,0:0:0:0:
257,220,129334,1,4,0:0:0:0:
203,133,129673,2,0,P|145:118|71:89,1,130,4|4,0:0|0:0,0:0:0:0:
37,60,130178,5,6,0:0:0:0:
128,4,130526,1,8,0:0:0:0:
211,51,130870,1,4,0:0:0:0:
264,63,131038,1,4,0:0:0:0:
308,38,131209,1,8,0:0:0:0:
350,66,131368,5,6,0:0:0:0:
337,166,131687,1,4,0:0:0:0:
286,177,131863,2,0,L|283:246,1,65,8|8,0:0|0:0,0:0:0:0:
283,287,132206,6,0,P|234:295|208:318,1,65,4|4,0:0|0:0,0:0:0:0:
188,338,132537,2,0,P|156:317|135:291,1,65,4|4,0:0|0:0,0:0:0:0:
126,246,132871,5,6,0:0:0:0:
169,160,133224,1,8,0:0:0:0:
73,129,133564,1,4,0:0:0:0:
24,139,133735,2,0,L|15:59,1,65,4|8,0:0|0:0,0:0:0:0:
48,37,134063,5,6,0:0:0:0:
148,8,134390,1,4,0:0:0:0:
219,80,134720,1,4,0:0:0:0:
174,171,135055,2,0,P|255:207|301:237,1,130,4|0,0:0|0:0,0:0:0:0:
322,268,135577,5,6,0:0:0:0:
427,236,135925,1,10,0:0:0:0:
459,130,136267,1,4,0:0:0:0:
406,117,136435,1,4,0:0:0:0:
354,101,136603,1,8,0:0:0:0:
335,47,136771,5,6,0:0:0:0:
228,58,137091,1,4,0:0:0:0:
182,70,137261,2,0,P|178:105|176:138,1,65,8|8,0:0|0:0,0:0:0:0:
178,182,137576,6,0,L|258:173,1,65,4|4,0:0|0:0,0:0:0:0:
293,170,137907,1,4,0:0:0:0:
293,170,138080,1,4,0:0:0:0:
332,200,138253,5,6,0:0:0:0:
303,292,138610,1,8,0:0:0:0:
204,272,138937,1,4,0:0:0:0:
156,287,139103,2,0,L|145:354,1,65,4|8,0:0|0:0,0:0:0:0:
98,366,139444,5,6,0:0:0:0:
32,286,139778,1,4,0:0:0:0:
64,247,139944,1,8,0:0:0:0:
115,152,140278,1,4,0:0:0:0:
69,134,140444,1,4,0:0:0:0:
47,87,140603,2,0,L|57:20,1,65,8|0,0:0|0:0,0:0:0:0:
105,0,140922,6,0,B|148:11|148:11|192:106,1,130,6|8,0:0|0:0,0:0:0:0:
215,183,141602,1,6,0:0:0:0:
178,216,141772,2,0,L|160:289,1,65,6|8,0:0|0:0,0:0:0:0:
153,327,142112,2,0,B|293:363,1,130,6|4,0:0|0:0,0:0:0:0:
328,342,142606,5,8,0:0:0:0:
308,252,142937,1,4,0:0:0:0:
404,231,143283,1,4,0:0:0:0:
462,151,143609,6,0,P|433:122|328:111,1,130,6|8,0:0|0:0,0:0:0:0:
256,147,144278,1,0,0:0:0:0:
209,172,144440,2,0,P|195:142|191:106,1,65,4|8,0:0|0:0,0:0:0:0:
209,62,144796,6,0,L|75:36,1,130,6|4,0:0|0:0,0:0:0:0:
31,24,145300,1,8,0:0:0:0:
10,118,145620,5,8,0:0:0:0:
10,118,145783,1,8,0:0:0:0:
53,142,145947,5,8,0:0:0:0:
53,142,146117,1,8,0:0:0:0:
73,184,146287,6,0,P|121:192|230:217,1,130,6|8,0:0|0:0,0:0:0:0:
248,226,146806,1,4,0:0:0:0:
318,307,147158,1,4,0:0:0:0:
369,315,147333,1,8,0:0:0:0:
452,234,147673,5,6,0:0:0:0:
483,193,147846,1,4,0:0:0:0:
456,151,148019,1,8,0:0:0:0:
474,107,148186,2,0,P|426:98|331:85,1,130,4|4,0:0|0:0,0:0:0:0:
297,79,148701,1,8,0:0:0:0:
235,148,149030,6,0,L|266:299,1,130,6|8,0:0|0:0,0:0:0:0:
186,352,149711,1,6,0:0:0:0:
136,341,149888,1,6,0:0:0:0:
146,292,150061,1,8,0:0:0:0:
109,256,150213,6,0,L|129:124,1,130,6|4,0:0|0:0,0:0:0:0:
140,77,150721,5,8,0:0:0:0:
140,77,150867,1,4,0:0:0:0:
185,55,151054,5,8,0:0:0:0:
185,55,151205,1,4,0:0:0:0:
236,65,151376,5,8,0:0:0:0:
236,65,151523,1,4,0:0:0:0:
266,106,151699,6,0,P|305:120|380:65,1,130,6|8,0:0|0:0,0:0:0:0:
452,11,152395,1,4,0:0:0:0:
474,60,152563,1,4,0:0:0:0:
483,113,152732,1,8,0:0:0:0:
452,206,153069,6,0,P|406:204|339:267,1,130,6|8,0:0|0:0,0:0:0:0:
348,304,153581,1,4,0:0:0:0:
251,357,153921,1,4,0:0:0:0:
221,315,154092,1,8,0:0:0:0:
123,311,154433,6,0,B|87:291|87:291|72:197,1,130,6|8,0:0|0:0,0:0:0:0:
61,106,155094,1,6,0:0:0:0:
113,95,155268,1,6,0:0:0:0:
145,137,155442,1,8,0:0:0:0:
199,128,155598,6,0,P|242:136|335:156,1,130,6|4,0:0|0:0,0:0:0:0:
355,162,156099,2,0,P|343:203|338:238,1,65,8|8,0:0|0:0,0:0:0:0:
375,263,156413,2,0,P|371:300|366:335,1,65,8|8,0:0|0:0,0:0:0:0:
318,344,156722,1,8,0:0:0:0:
318,344,156892,1,4,0:0:0:0:
286,378,157062,6,0,P|239:361|213:285,1,130,6|8,0:0|0:0,0:0:0:0:
242,255,157588,1,4,0:0:0:0:
261,160,157925,1,4,0:0:0:0:
211,137,158105,1,8,0:0:0:0:
188,41,158438,6,0,L|277:31,1,65,6|4,0:0|0:0,0:0:0:0:
304,30,158777,1,8,0:0:0:0:
334,71,158933,2,0,L|473:113,1,130,4|4,0:0|0:0,0:0:0:0:
486,152,159455,1,8,0:0:0:0:
449,246,159797,6,0,P|408:240|351:311,1,130,6|8,0:0|0:0,0:0:0:0:
275,354,160471,1,6,0:0:0:0:
242,311,160642,1,6,0:0:0:0:
250,260,160823,1,8,0:0:0:0:
218,219,160981,6,0,L|80:192,1,130,6|4,0:0|0:0,0:0:0:0:
62,152,161496,5,8,0:0:0:0:
62,152,161642,1,4,0:0:0:0:
94,109,161827,5,8,0:0:0:0:
94,109,161984,1,4,0:0:0:0:
72,63,162149,5,8,0:0:0:0:
72,63,162282,1,4,0:0:0:0:
103,21,162488,6,0,L|249:38,1,130,6|8,0:0|0:0,0:0:0:0:
337,52,163165,1,4,0:0:0:0:
338,107,163345,1,4,0:0:0:0:
388,127,163517,1,8,0:0:0:0:
436,108,163668,6,0,P|466:132|451:240,1,130,6|4,0:0|0:0,0:0:0:0:
430,246,164213,1,8,0:0:0:0:
412,292,164363,2,0,P|354:270|270:251,1,130,4|4,0:0|0:0,0:0:0:0:
238,249,164880,1,8,0:0:0:0:
166,309,165218,6,0,B|125:288|125:288|102:200,1,130,6|8,0:0|0:0,0:0:0:0:
64,118,165896,2,0,B|27:130|27:130|-3:230,1,130,6|8,0:0|0:0,0:0:0:0:
20,259,166402,5,6,0:0:0:0:
157,340,166951,5,2,0:2:0:0:
247,328,167308,1,2,0:2:0:0:
232,238,167643,1,2,0:2:0:0:
332,249,167970,6,0,P|360:210|360:129,1,130,6|8,0:0|0:0,0:0:0:0:
351,31,168697,2,0,P|394:54|490:64,1,130,6|0,0:0|0:0,0:0:0:0:
512,24,169273,5,6,0:0:0:0:
256,192,169370,12,0,176581,0:0:0:0:
