osu file format v14

[General]
AudioFilename: audio.mp3
AudioLeadIn: 0
PreviewTime: 75777
Countdown: 0
SampleSet: Soft
StackLeniency: 0.7
Mode: 0
LetterboxInBreaks: 0
WidescreenStoryboard: 0

[Editor]
DistanceSpacing: 0.6
BeatDivisor: 8
GridSize: 32
TimelineZoom: 1

[Metadata]
Title:Basket Case
TitleUnicode:Basket Case
Artist:Green Day
ArtistUnicode:Green Day
Creator:Alvieee
Version:Extra
Source:
Tags:
BeatmapID:2116059
BeatmapSetID:1010920

[Difficulty]
HPDrainRate:6
CircleSize:4.3
OverallDifficulty:8.5
ApproachRate:9.2
SliderMultiplier:1.5
SliderTickRate:1

[Events]
//Background and Video events
0,0,"bggbgbhg.jpg",0,0
//Break Periods
//Storyboard Layer 0 (Background)
//Storyboard Layer 1 (Fail)
//Storyboard Layer 2 (Pass)
//Storyboard Layer 3 (Foreground)
//Storyboard Layer 4 (Overlay)
//Storyboard Sound Samples

[TimingPoints]
370,353.541176470588,4,2,1,18,1,0
370,-125,4,2,1,18,0,0
3109,-125,4,2,1,5,0,0
3198,-125,4,2,1,18,0,0
5938,-125,4,2,1,5,0,0
6026,-125,4,2,1,18,0,0
8236,-125,4,2,1,5,0,0
8324,-125,4,2,1,18,0,0
10887,-125,4,2,1,5,0,0
10976,-125,4,2,1,18,0,0
14423,-125,4,2,1,5,0,0
14511,-125,4,2,1,18,0,0
17251,-125,4,2,1,5,0,0
17339,-125,4,2,1,18,0,0
19549,-125,4,2,1,5,0,0
19637,-125,4,2,1,18,0,0
23000,353.641176470588,4,2,1,25,1,0
23000,-125,4,2,1,25,0,0
35465,-125,4,2,1,5,0,0
35554,-125,4,2,1,25,0,0
37109,351.441176470588,4,2,1,50,1,1
37109,-83.3333333333333,4,2,1,50,0,1
37310,355.441176470588,4,2,1,50,1,1
38020,351.441176470588,4,2,1,50,1,1
38358,347.441176470588,4,2,1,50,1,1
38358,-83.3333333333333,4,2,1,50,0,1
38874,324.441176470588,4,2,1,50,1,1
39383,364.441176470588,4,2,1,50,1,1
39383,-83.3333333333333,4,2,1,50,0,1
39943,340.441176470588,4,2,1,50,1,1
39943,-83.3333333333333,4,2,1,50,0,1
40431,363.441176470588,4,2,1,50,1,1
41141,355.441176470588,4,2,1,50,1,1
41141,-83.3333333333333,4,2,1,50,0,1
41675,340.441176470587,4,2,1,50,1,1
42700,366.241176470588,4,2,1,50,1,0
47094,341.841176470589,4,2,1,40,1,0
47521,-100,4,2,1,5,0,0
47606,-100,4,2,1,40,0,0
47777,-100,4,2,1,5,0,0
47863,-100,4,2,1,40,0,0
48034,-100,4,2,1,5,0,0
48119,-100,4,2,1,40,0,0
48479,350.641176470588,4,2,1,50,1,0
48479,-83.3333333333333,4,2,1,50,0,0
49172,350.641176470588,4,2,1,50,1,0
49172,-83.3333333333333,4,2,1,50,0,0
49949,-83.3333333333333,4,2,1,5,0,0
50036,-83.3333333333333,4,2,1,50,0,0
50900,347.441176470588,4,2,1,50,1,0
50900,-83.3333333333333,4,2,1,50,0,0
51159,-83.3333333333333,4,2,1,5,0,0
51246,-83.3333333333333,4,2,1,50,0,0
52715,-83.3333333333333,4,2,1,5,0,0
52801,-83.3333333333333,4,2,1,50,0,0
52979,338.641176470588,4,2,1,50,1,0
52979,-83.3333333333333,4,2,1,50,0,0
53926,-83.3333333333333,4,2,1,5,0,0
54011,339.941176470587,4,2,1,50,1,0
54011,-83.3333333333333,4,2,1,50,0,0
55190,338.541176470588,4,2,1,50,1,0
55190,-83.3333333333333,4,2,1,50,0,0
56733,341.541176470587,4,2,1,50,1,0
56733,-83.3333333333333,4,2,1,50,0,0
56989,-83.3333333333333,4,2,1,5,0,0
57074,-83.3333333333333,4,2,1,50,0,0
59379,-83.3333333333333,4,2,1,5,0,0
59465,-83.3333333333333,4,2,1,50,0,0
60916,-83.3333333333333,4,2,1,5,0,0
61002,-83.3333333333333,4,2,1,50,0,0
61677,341.541176470587,4,2,1,50,1,0
61856,341.541176470587,4,2,1,50,1,0
61856,-83.3333333333333,4,2,1,50,0,0
62112,-83.3333333333333,4,2,1,5,0,0
62189,345.541176470587,4,2,1,50,1,0
62189,-83.3333333333333,4,2,1,50,0,0
63392,341.541176470587,4,2,1,50,1,0
63392,-83.3333333333333,4,2,1,50,0,0
63649,-83.3333333333333,4,2,1,5,0,0
63734,-83.3333333333333,4,2,1,50,0,0
64844,-83.3333333333333,4,2,1,5,0,0
64929,339.141176470589,4,2,1,50,1,0
64929,-83.3333333333333,4,2,1,50,0,0
67654,336.141176470589,4,2,1,50,1,0
67654,-83.3333333333333,4,2,1,50,0,0
67906,-83.3333333333333,4,2,1,5,0,0
67990,-83.3333333333333,4,2,1,50,0,0
69159,323.941176470588,4,2,1,50,1,0
70131,367.541176470588,4,2,1,50,1,0
70330,342.941176470588,4,2,1,50,1,1
70330,-83.3333333333333,4,2,1,50,0,1
71520,342.941176470588,4,2,1,50,1,1
71520,-83.3333333333333,4,2,1,50,0,1
74520,-83.3333333333333,4,2,1,5,0,1
74597,336.941176470588,4,2,1,50,1,1
74597,-83.3333333333333,4,2,1,50,0,1
75777,343.441176470588,4,2,1,50,1,1
75777,-83.3333333333333,4,2,1,50,0,1
78536,344.941176470588,4,2,1,50,1,1
78536,-83.3333333333333,4,2,1,50,0,1
80595,344.941176470588,4,2,1,50,1,1
81281,338.741176470588,4,2,1,50,1,1
81281,-83.3333333333333,4,2,1,50,0,1
81535,-83.3333333333333,4,2,1,5,0,1
81619,-83.3333333333333,4,2,1,50,0,1
82720,-83.3333333333333,4,2,1,5,0,1
82826,343.341176470588,4,2,1,50,1,1
82826,-83.3333333333333,4,2,1,50,0,1
84011,341.941176470588,4,2,1,50,1,1
84011,-83.3333333333333,4,2,1,50,0,1
84096,-83.3333333333333,4,2,1,5,0,1
84177,346.541176470588,4,2,1,50,1,1
84177,-83.3333333333333,4,2,1,50,0,1
85531,346.941176470588,4,2,1,50,1,1
85531,-83.3333333333333,4,2,1,50,0,1
85616,-83.3333333333333,4,2,1,5,0,1
85701,-83.3333333333333,4,2,1,50,0,1
86583,346.941176470588,4,2,1,50,1,1
86583,-83.3333333333333,4,2,1,50,0,1
86754,344.741176470589,4,2,1,50,1,1
86754,-83.3333333333333,4,2,1,50,0,1
87003,-83.3333333333333,4,2,1,5,0,1
87091,-83.3333333333333,4,2,1,50,0,1
87257,346.741176470589,4,2,1,50,1,1
87257,-83.3333333333333,4,2,1,50,0,1
88484,346.741176470589,4,2,1,50,1,1
88484,-83.3333333333333,4,2,1,50,0,1
88811,344.741176470589,4,2,1,50,1,1
88811,-83.3333333333333,4,2,1,50,0,1
89502,342.741176470588,4,2,1,50,1,0
89502,-83.3333333333333,4,2,1,50,0,0
89835,-100,4,2,1,50,0,0
90095,-100,4,2,1,5,0,0
90181,-100,4,2,1,50,0,0
90677,339.541176470588,4,2,1,50,1,0
90761,-100,4,2,1,5,0,0
90868,339.541176470588,4,2,1,50,1,0
91466,-100,4,2,1,5,0,0
91551,-100,4,2,1,50,0,0
92226,338.341176470589,4,2,1,50,1,0
92818,-100,4,2,1,5,0,0
92902,-100,4,2,1,50,0,0
93494,-100,4,2,1,5,0,0
93579,-100,4,2,1,50,0,0
94171,-100,4,2,1,5,0,0
94256,-100,4,2,1,50,0,0
95524,-100,4,2,1,5,0,0
95609,-100,4,2,1,50,0,0
96201,-100,4,2,1,5,0,0
96286,-100,4,2,1,50,0,0
96878,-100,4,2,1,5,0,0
96962,-100,4,2,1,50,0,0
97615,343.941176470588,4,2,1,50,1,0
98210,-100,4,2,1,5,0,0
98296,-100,4,2,1,50,0,0
98904,-100,4,2,1,5,0,0
98990,-100,4,2,1,50,0,0
99592,-100,4,2,1,5,0,0
99678,-100,4,2,1,40,0,0
100360,341.241176470588,4,2,1,40,1,0
100445,-100,4,2,1,5,0,0
100530,-100,4,2,1,40,0,0
100615,-100,4,2,1,5,0,0
100701,-100,4,2,1,40,0,0
100786,-100,4,2,1,5,0,0
100871,-100,4,2,1,40,0,0
100957,-100,4,2,1,5,0,0
101042,-100,4,2,1,40,0,0
101127,-100,4,2,1,5,0,0
101213,-100,4,2,1,40,0,0
101298,-100,4,2,1,5,0,0
101383,-100,4,2,1,40,0,0
101469,-100,4,2,1,5,0,0
101554,-100,4,2,1,40,0,0
101639,-100,4,2,1,5,0,0
101724,-100,4,2,1,40,0,0
101810,-100,4,2,1,5,0,0
101895,-100,4,2,1,40,0,0
101980,-100,4,2,1,5,0,0
102066,-100,4,2,1,40,0,0
102151,-100,4,2,1,5,0,0
102236,-100,4,2,1,40,0,0
102322,-100,4,2,1,5,0,0
102407,-100,4,2,1,40,0,0
102492,-100,4,2,1,5,0,0
102578,-100,4,2,1,40,0,0
102663,-100,4,2,1,5,0,0
102748,-100,4,2,1,40,0,0
102833,-100,4,2,1,5,0,0
102919,-100,4,2,1,40,0,0
103004,-100,4,2,1,5,0,0
103077,341.441176470588,4,2,1,50,1,0
105824,342.041176470588,4,2,1,50,1,0
106512,323.041176470588,4,2,1,50,1,0
106659,326.041176470588,4,2,1,50,1,0
106850,339.041176470588,4,2,1,50,1,0
107540,342.041176470588,4,2,1,50,1,0
108035,342.041176470588,4,2,1,50,1,0
108224,342.041176470588,4,2,1,50,1,0
108480,-100,4,2,1,5,0,0
108566,-100,4,2,1,50,0,0
111131,-100,4,2,1,5,0,0
111302,-100,4,2,1,50,0,0
111986,331.241176470588,4,2,1,50,1,0
113003,333.041176470588,4,2,1,50,1,0
113183,342.041176470588,4,2,1,50,1,0
113952,-100,4,2,1,5,0,0
114032,343.841176470588,4,2,1,50,1,0
114393,339.741176470587,4,2,1,50,1,0
116685,-100,4,2,1,5,0,0
116772,347.241176470588,4,2,1,50,1,0
117032,-100,4,2,1,5,0,0
117153,343.441176470589,4,2,1,50,1,0
118539,343.741176470589,4,2,1,50,1,0
119562,342.541176470588,4,2,1,50,1,0
121278,338.841176470588,4,2,1,50,1,0
122305,343.941176470588,4,2,1,50,1,0
123498,338.841176470588,4,2,1,50,1,0
124709,343.941176470588,4,2,1,50,1,0
125048,336.941176470588,4,2,1,50,1,0
127404,324.941176470588,4,2,1,50,1,0
127743,336.941176470588,4,2,1,50,1,1
127743,-83.3333333333333,4,2,1,50,0,1
128232,336.541176470588,4,2,1,50,1,1
128232,-83.3333333333333,4,2,1,50,0,1
130575,336.541176470588,4,2,1,50,1,1
130772,336.541176470588,4,2,1,50,1,1
130772,-83.3333333333333,4,2,1,50,0,1
131865,-83.3333333333333,4,2,1,5,0,1
131949,-83.3333333333333,4,2,1,50,0,1
132118,336.541176470588,4,2,1,50,1,1
132118,-83.3333333333333,4,2,1,50,0,1
133127,336.541176470588,4,2,1,50,1,1
133127,-83.3333333333333,4,2,1,50,0,1
137350,327.541176470588,4,2,1,50,1,1
137350,-83.3333333333333,4,2,1,50,0,1
138157,328.541176470588,4,2,1,50,1,1
138514,336.241176470588,4,2,1,50,1,1
138514,-83.3333333333333,4,2,1,50,0,1
138766,-83.3333333333333,4,2,1,5,0,1
138850,-83.3333333333333,4,2,1,50,0,1
139943,-83.3333333333333,4,2,1,5,0,1
140027,330.241176470588,4,2,1,50,1,1
140027,-83.3333333333333,4,2,1,50,0,1
141165,340.241176470587,4,2,1,50,1,1
141165,-83.3333333333333,4,2,1,50,0,1
141250,-83.3333333333333,4,2,1,5,0,1
141335,-83.3333333333333,4,2,1,50,0,1
142195,338.741176470587,4,2,1,50,1,1
142195,-83.3333333333333,4,2,1,50,0,1
142678,329.541176470588,4,2,1,50,1,1
142678,-83.3333333333333,4,2,1,50,0,1
142760,-83.3333333333333,4,2,1,5,0,1
142866,329.541176470588,4,2,1,50,1,1
142867,-83.3333333333333,4,2,1,50,0,1
143864,340.941176470588,4,2,1,50,1,1
143864,-83.3333333333333,4,2,1,50,0,1
144119,-83.3333333333333,4,2,1,5,0,1
144204,-83.3333333333333,4,2,1,50,0,1
144700,340.941176470588,4,2,1,50,1,1
144700,-83.3333333333333,4,2,1,50,0,1
145211,-83.3333333333333,4,2,1,50,0,1
145300,-83.3333333333333,4,2,1,5,0,1
145383,329.441176470588,4,2,1,50,1,1
145383,-83.3333333333333,4,2,1,50,0,1
145869,329.241176470588,4,2,1,50,1,1
146544,344.641176470589,4,2,1,50,1,0
146544,-100,4,2,1,50,0,0
149214,-100,4,2,1,5,0,0
149273,341.141176470588,4,2,1,50,1,0
149443,-100,4,2,1,5,0,0
149614,-100,4,2,1,50,0,0
150312,341.141176470588,4,2,1,50,1,0
150468,341.141176470588,4,2,1,50,1,0
150718,-100,4,2,1,5,0,0
150799,324.941176470588,4,2,1,50,1,0
150977,316.941176470588,4,2,1,50,1,0
151960,341.441176470588,4,2,1,50,1,0
154606,-100,4,2,1,5,0,0
154685,335.141176470588,4,2,1,50,1,0
154854,-100,4,2,1,5,0,0
155020,-100,4,2,1,50,0,0
156358,316.611176470587,4,2,1,50,1,0
156510,316.611176470587,4,2,1,50,1,0
156747,-100,4,2,1,5,0,0
156826,-100,4,2,1,50,0,0
156905,-100,4,2,1,5,0,0
156984,-100,4,2,1,50,0,0
157313,351.941176470588,4,2,1,50,1,0
157829,341.941176470588,4,2,1,50,1,0
158357,333.341176470588,4,2,1,50,1,0
158593,-100,4,2,1,5,0,0
158678,-100,4,2,1,50,0,0
159712,338.941176470588,4,2,1,50,1,0
159966,-100,4,2,1,5,0,0
160050,-100,4,2,1,50,0,0
161491,-100,4,2,1,5,0,0
161578,329.441176470589,4,2,1,50,1,0
161750,321.441176470589,4,2,1,50,1,0
162739,342.541176470588,4,2,1,50,1,0
164606,342.541176470588,4,2,1,50,1,0
165136,342.541176470588,4,2,1,50,1,0
165388,-100,4,2,1,5,0,0
165471,327.241176470589,4,2,1,50,1,0
165808,327.241176470589,4,2,1,50,1,0
166145,337.741176470589,4,2,1,50,1,0
166833,355.041176470588,4,2,1,50,1,0
168231,370.741176470589,4,2,1,50,1,0
168595,355.141176470589,4,2,1,50,1,0
169528,370.741176470589,4,2,1,50,1,0

[Colours]
Combo1 : 255,155,106
Combo2 : 128,128,128
Combo3 : 255,128,128
Combo4 : 128,128,128

[HitObjects]
219,242,370,6,0,L|96:231,1,120
7,276,900,1,0,0:0:0:0:
7,276,1077,2,0,L|1:335,2,60
20,175,1607,2,0,L|31:36,1,120
115,0,2137,6,0,L|178:7,1,60
101,14,2491,2,0,L|161:20,1,60
325,80,2844,6,0,L|316:193,1,90
316,191,3198,2,0,L|443:177,2,120
214,203,4082,2,0,L|221:278,1,60
304,320,4435,2,0,L|318:189,1,120
289,97,4966,6,0,L|364:106,1,60
276,82,5319,2,0,L|336:89,1,60
485,82,5673,6,0,L|495:171,1,90
500,192,6026,2,0,L|373:178,2,120
511,293,6910,2,0,L|443:302,1,60
375,369,7264,6,0,L|434:376,1,60
512,274,7617,2,0,L|444:283,1,60
346,298,7971,2,0,L|358:183,1,90
357,186,8324,1,0,0:0:0:0:
200,125,8501,2,0,L|209:206,1,60
337,104,8854,6,0,L|343:44,1,60
285,188,9208,2,0,L|407:202,1,120
396,97,9738,6,0,L|326:105,1,60
409,81,10092,2,0,L|349:88,2,60
423,63,10622,2,0,L|312:75,1,90
314,76,10976,2,0,L|320:16,1,60
294,87,11329,2,0,L|300:27,1,60
161,0,11683,6,0,L|146:128,1,120
55,164,12213,1,0,0:0:0:0:
55,164,12390,2,0,L|49:99,2,60
73,264,12920,2,0,L|193:245,1,120
262,333,13451,6,0,L|197:327,1,60
273,348,13804,2,0,L|213:342,1,60
390,357,14158,6,0,L|376:246,1,90
376,248,14511,2,0,L|254:264,2,120
483,142,15395,2,0,L|474:75,1,60
379,23,15749,2,0,L|367:148,1,120
253,211,16279,6,0,L|321:203,1,60
237,200,16632,2,0,L|305:192,1,60
380,47,16986,6,0,L|265:34,1,90
268,33,17339,2,0,L|285:165,2,120
165,29,18223,2,0,L|155:101,1,60
138,189,18577,6,0,L|66:181,1,60
13,103,18930,2,0,L|85:95,1,60
147,210,19284,2,0,L|31:196,1,90
36,197,19637,1,0,0:0:0:0:
171,128,19814,1,0,0:0:0:0:
171,128,19991,2,0,L|182:256,1,120
195,348,20521,6,0,L|128:340,1,60
212,336,20875,2,0,L|145:328,1,60
229,324,21228,2,0,L|162:316,1,60
190,234,21582,6,0,L|257:226,1,60
173,222,21935,2,0,L|240:214,1,60
156,210,22289,2,0,L|223:202,1,60
139,198,22643,2,0,L|206:190,1,60
272,121,23000,6,0,L|280:193,2,60
258,19,23530,5,0,0:0:0:0:
139,88,23707,1,0,0:0:0:0:
356,133,23884,1,0,0:0:0:0:
356,133,24060,1,0,0:0:0:0:
139,88,24237,2,0,L|126:228,2,120
139,88,25121,1,0,0:0:0:0:
11,119,25298,2,0,L|0:0,2,120
29,219,26182,6,0,L|99:211,1,60
16,235,26536,2,0,L|76:228,2,60
2,252,27066,2,0,L|123:238,1,120
183,340,27597,6,0,L|116:332,1,60
200,328,27951,2,0,L|133:320,1,60
217,316,28304,2,0,L|150:308,1,60
297,262,28658,6,0,L|291:325,2,60
309,160,29188,5,0,0:0:0:0:
395,275,29365,1,0,0:0:0:0:
366,87,29542,1,0,0:0:0:0:
366,87,29719,1,0,0:0:0:0:
395,275,29896,2,0,L|269:258,2,120
512,235,30780,1,0,0:0:0:0:
440,355,30956,2,0,L|312:337,2,120
423,246,31841,6,0,L|353:254,1,60
436,230,32195,2,0,L|376:237,2,60
450,213,32725,2,0,L|329:227,1,120
269,125,33256,6,0,L|336:133,1,60
252,137,33610,2,0,L|319:145,1,60
388,125,33963,2,0,L|321:133,1,60
148,153,34316,6,0,L|160:283,1,120
159,272,34846,1,0,0:0:0:0:
185,72,35023,1,0,0:0:0:0:
185,72,35200,2,0,L|173:180,1,90
173,183,35554,2,0,L|46:170,1,120
51,272,36084,6,0,L|118:280,1,60
34,284,36438,2,0,L|101:292,1,60
17,297,36792,2,0,L|84:305,1,60
387,235,37109,6,0,L|380:169,1,44.999998626709,6|0,0:0|0:0,0:0:0:0:
243,0,37310,1,8,0:0:0:0:
238,44,37398,1,8,0:0:0:0:
233,88,37487,1,8,0:0:0:0:
228,132,37576,1,8,0:0:0:0:
223,176,37665,1,8,0:0:0:0:
218,220,37754,1,8,0:0:0:0:
213,264,37843,5,6,0:0:0:0:
512,195,38020,1,2,0:0:0:0:
87,145,38195,1,8,0:0:0:0:
498,280,38358,2,0,L|479:99,1,179.999994506836,6|2,0:0|0:0,0:0:0:0:
125,274,38874,5,8,0:0:0:0:
169,268,38955,1,8,0:0:0:0:
213,264,39036,1,8,0:0:0:0:
257,259,39117,1,8,0:0:0:0:
301,254,39198,1,10,0:0:0:0:
47,94,39383,6,8,L|-14:87,1,44.999998626709
19,364,39565,1,2,0:0:0:0:
66,5,39747,6,8,L|127:-2,1,44.999998626709
78,280,39943,2,0,L|259:258,1,179.999994506836,6|8,0:0|0:0,0:0:0:0:
424,235,40431,1,2,0:0:0:0:
301,67,40612,1,0,0:0:0:0:
301,67,40794,1,2,0:0:0:0:
396,91,40976,1,8,0:0:0:0:
376,373,41141,6,0,L|388:192,1,179.999994506836,6|0,0:0|0:0,0:0:0:0:
91,0,41675,2,0,L|106:107,1,75,8|0,0:0|0:0,0:0:0:0:
301,67,42015,5,2,0:0:0:0:
290,177,42186,1,2,0:0:0:0:
281,292,42356,1,8,0:0:0:0:
304,43,42526,1,2,0:0:0:0:
273,375,42700,1,6,0:0:0:0:
256,352,47094,5,8,0:0:0:0:
252,119,47350,5,8,0:0:0:0:
252,119,47435,2,0,L|242:165,1,37.5,2|0,0:0|0:0,0:0:0:0:
324,166,47606,5,8,0:0:0:0:
324,166,47692,2,0,L|314:212,1,37.5,2|0,0:0|0:0,0:0:0:0:
397,217,47863,5,8,0:0:0:0:
397,217,47948,2,0,L|387:263,1,37.5,2|0,0:0|0:0,0:0:0:0:
460,153,48119,5,8,0:0:0:0:
225,266,48290,1,2,0:0:0:0:
408,56,48479,6,0,L|426:237,1,179.999994506836,4|8,0:0|0:0,0:0:0:0:
243,27,49172,1,2,0:0:0:0:
243,27,49347,1,2,0:0:0:0:
199,114,49522,1,8,0:0:0:0:
0,181,49697,6,0,L|166:198,1,134.999995880127,2|0,0:0|0:0,0:0:0:0:
155,196,50048,1,2,0:0:0:0:
95,0,50223,2,0,L|75:183,1,179.999994506836,8|2,0:0|0:0,0:0:0:0:
246,157,50749,1,2,0:0:0:0:
0,245,50900,2,0,L|154:261,1,134.999995880127,8|0,0:0|0:0,0:0:0:0:
155,261,51247,6,0,L|137:69,1,179.999994506836,6|8,0:0|0:0,0:0:0:0:
138,81,51768,1,0,0:0:0:0:
1,219,51942,1,2,0:0:0:0:
1,219,52116,1,2,0:0:0:0:
21,119,52289,1,8,0:0:0:0:
268,146,52463,6,0,L|254:300,1,134.999995880127,2|0,0:0|0:0,0:0:0:0:
254,301,52810,1,2,0:0:0:0:
441,232,52979,2,0,L|262:212,1,179.999994506836,8|2,0:0|0:0,0:0:0:0:
356,356,53486,1,2,0:0:0:0:
491,161,53656,2,0,L|339:143,1,134.999995880127,8|0,0:0|0:0,0:0:0:0:
333,141,54011,6,0,L|350:325,1,179.999994506836,6|8,0:0|0:0,0:0:0:0:
350,321,54520,1,0,0:0:0:0:
482,76,54690,1,2,0:0:0:0:
405,249,54860,1,2,0:0:0:0:
318,233,55030,1,8,0:0:0:0:
291,51,55190,6,0,L|303:149,1,89.9999972534181
350,321,55528,2,0,L|361:215,1,89.9999972534181,2|8,0:0|0:0,0:0:0:0:
207,31,55867,2,0,L|217:130,1,89.9999972534181,2|0,0:0|0:0,0:0:0:0:
433,301,56205,1,2,0:0:0:0:
286,26,56374,1,8,0:0:0:0:
288,140,56544,1,0,0:0:0:0:
76,230,56733,6,0,L|90:370,1,134.999995880127,6|0,0:0|0:0,0:0:0:0:
93,384,57074,2,0,L|280:357,1,179.999994506836,8|2,0:0|0:0,0:0:0:0:
64,157,57586,1,2,0:0:0:0:
220,292,57757,1,8,0:0:0:0:
7,99,57928,6,0,L|21:11,1,89.9999972534181,6|0,0:0|0:0,0:0:0:0:
220,292,58269,1,2,0:0:0:0:
7,99,58440,2,0,L|23:7,1,89.9999972534181,8|0,0:0|0:0,0:0:0:0:
92,320,58782,1,2,0:0:0:0:
70,224,58953,1,2,0:0:0:0:
319,149,59123,2,0,L|337:297,1,134.999995880127,8|0,0:0|0:0,0:0:0:0:
339,303,59465,6,0,L|151:281,1,179.999994506836,6|8,0:0|0:0,0:0:0:0:
512,211,60148,1,2,0:0:0:0:
512,211,60319,1,2,0:0:0:0:
415,207,60489,1,8,0:0:0:0:
359,19,60660,6,0,L|500:1,1,134.999995880127,2|0,0:0|0:0,0:0:0:0:
512,0,61002,1,0,0:0:0:0:
276,31,61173,2,0,L|301:215,1,179.999994506836,8|2,0:0|0:0,0:0:0:0:
432,52,61677,1,2,0:0:0:0:
191,17,61856,2,0,L|213:166,1,134.999995880127,8|0,0:0|0:0,0:0:0:0:
216,170,62189,6,0,L|403:141,1,179.999994506836,6|8,0:0|0:0,0:0:0:0:
393,142,62707,1,0,0:0:0:0:
108,38,62880,1,2,0:0:0:0:
108,38,63052,1,2,0:0:0:0:
207,53,63225,1,0,0:0:0:0:
217,270,63393,6,0,L|57:253,1,134.999995880127,2|0,0:0|0:0,0:0:0:0:
61,253,63734,1,0,0:0:0:0:
184,0,63905,2,0,L|206:182,1,179.999994506836,8|2,0:0|0:0,0:0:0:0:
61,253,64417,1,0,0:0:0:0:
265,33,64588,2,0,L|280:172,1,134.999995880127,8|0,0:0|0:0,0:0:0:0:
282,188,64929,6,0,L|101:165,1,179.999994506836,6|8,0:0|0:0,0:0:0:0:
103,165,65437,1,0,0:0:0:0:
288,384,65607,1,2,0:0:0:0:
363,193,65776,1,2,0:0:0:0:
356,283,65946,1,8,0:0:0:0:
102,384,66115,6,0,L|114:293,1,89.9999972534181,2|0,0:0|0:0,0:0:0:0:
5,139,66455,2,0,L|81:199,1,89.9999972534181,2|8,0:0|0:0,0:0:0:0:
265,173,66794,2,0,L|174:214,1,89.9999972534181,2|0,0:0|0:0,0:0:0:0:
0,291,67133,1,2,0:0:0:0:
280,262,67302,1,8,0:0:0:0:
183,278,67472,1,0,0:0:0:0:
68,0,67654,6,0,L|83:139,1,134.999995880127,6|0,0:0|0:0,0:0:0:0:
86,157,67990,2,0,L|269:135,1,179.999994506836,8|2,0:0|0:0,0:0:0:0:
0,69,68494,1,2,0:0:0:0:
82,280,68662,1,8,0:0:0:0:
198,0,68830,6,0,L|89:15,1,89.9999972534181,6|0,0:0|0:0,0:0:0:0:
0,190,69159,1,2,0:0:0:0:
299,131,69321,5,8,0:0:0:0:
294,175,69402,1,8,0:0:0:0:
289,219,69483,1,8,0:0:0:0:
285,263,69564,1,8,0:0:0:0:
281,307,69645,2,0,L|293:366,1,37.5,2|0,0:0|0:0,0:0:0:0:
158,167,69807,5,2,0:0:0:0:
140,147,69888,1,2,0:0:0:0:
122,127,69969,2,0,L|79:110,1,37.5
368,272,70131,5,2,0:0:0:0:
381,265,70222,1,2,0:0:0:0:
394,258,70330,2,0,L|470:87,1,179.999994506836,6|8,0:0|0:0,0:0:0:0:
445,333,70844,5,0,0:0:0:0:
397,163,71015,1,2,0:0:0:0:
91,102,71187,1,2,0:0:0:0:
489,57,71358,1,8,0:0:0:0:
353,379,71520,6,0,L|233:367,1,89.9999972534181,2|0,0:0|0:0,0:0:0:0:
0,256,71863,2,0,L|120:244,1,89.9999972534181,2|8,0:0|0:0,0:0:0:0:
331,187,72206,2,0,L|211:175,1,89.9999972534181,2|0,0:0|0:0,0:0:0:0:
16,275,72549,2,0,L|198:256,1,179.999994506836,2|0,0:0|0:0,0:0:0:0:
262,29,73063,5,2,0:0:0:0:
262,29,73235,1,2,0:0:0:0:
70,57,73406,2,0,L|89:252,1,179.999994506836,8|2,0:0|0:0,0:0:0:0:
324,121,73920,1,2,0:0:0:0:
155,78,74092,1,8,0:0:0:0:
409,142,74263,6,0,L|398:278,1,134.999995880127,6|0,0:0|0:0,0:0:0:0:
396,298,74597,1,2,0:0:0:0:
419,32,74765,1,8,0:0:0:0:
487,365,74934,1,8,0:0:0:0:
504,102,75102,1,2,0:0:0:0:
332,249,75271,1,2,0:0:0:0:
259,206,75439,1,2,0:0:0:0:
353,245,75608,1,2,0:0:0:0:
497,14,75777,6,0,L|485:198,1,179.999994506836,4|8,0:0|0:0,0:0:0:0:
76,203,76292,1,0,0:0:0:0:
282,117,76463,1,2,0:0:0:0:
461,284,76635,1,2,0:0:0:0:
295,16,76807,1,8,0:0:0:0:
18,358,76979,6,0,L|4:253,1,89.9999972534181,2|0,0:0|0:0,0:0:0:0:
214,330,77322,2,0,L|109:316,1,89.9999972534181,0|8,0:0|0:0,0:0:0:0:
87,89,77665,2,0,L|73:194,1,89.9999972534181,2|0,0:0|0:0,0:0:0:0:
210,306,78009,2,0,L|17:282,1,179.999994506836,2|0,0:0|0:0,0:0:0:0:
311,225,78536,6,0,L|301:334,1,89.9999972534181,2|0,0:0|0:0,0:0:0:0:
31,283,78880,2,0,L|12:85,1,179.999994506836,8|2,0:0|0:0,0:0:0:0:
171,160,79398,1,2,0:0:0:0:
42,368,79570,1,8,0:0:0:0:
160,70,79743,6,0,L|173:185,1,89.9999972534181,6|0,0:0|0:0,0:0:0:0:
90,295,80088,1,2,0:0:0:0:
240,29,80260,2,0,L|253:144,1,89.9999972534181,8|0,0:0|0:0,0:0:0:0:
72,213,80595,1,2,0:0:0:0:
314,175,80767,1,2,0:0:0:0:
179,288,80939,1,8,0:0:0:0:
163,199,81112,1,0,0:0:0:0:
35,47,81281,6,0,L|174:31,1,134.999995880127,6|0,0:0|0:0,0:0:0:0:
197,41,81619,2,0,L|91:54,1,89.9999972534181,8|0,0:0|0:0,0:0:0:0:
333,25,81958,1,2,0:0:0:0:
183,196,82127,1,2,0:0:0:0:
171,296,82297,1,8,0:0:0:0:
15,0,82466,6,0,L|29:160,1,134.999995880127,6|0,0:0|0:0,0:0:0:0:
29,155,82826,1,2,0:0:0:0:
338,155,82997,2,0,L|348:64,1,89.9999972534181,8|0,0:0|0:0,0:0:0:0:
325,280,83341,1,2,0:0:0:0:
256,0,83512,1,2,0:0:0:0:
333,301,83684,1,8,0:0:0:0:
44,33,84011,6,0,L|-17:41,1,44.999998626709,6|0,0:0|0:0,0:0:0:0:
157,281,84177,1,8,0:0:0:0:
201,286,84263,1,8,0:0:0:0:
245,291,84350,1,8,0:0:0:0:
289,296,84436,1,8,0:0:0:0:
333,301,84523,1,8,0:0:0:0:
377,306,84610,1,8,0:0:0:0:
421,311,84696,5,6,0:0:0:0:
226,20,84870,1,2,0:0:0:0:
303,384,85043,1,8,0:0:0:0:
340,6,85216,6,0,L|219:-3,1,89.9999972534181,6|0,0:0|0:0,0:0:0:0:
421,311,85531,2,0,L|472:303,1,44.999998626709,2|0,0:0|0:0,0:0:0:0:
172,149,85704,5,8,0:0:0:0:
167,193,85791,1,8,0:0:0:0:
162,237,85877,1,8,0:0:0:0:
157,281,85964,1,8,0:0:0:0:
152,325,86051,1,2,0:0:0:0:
405,187,86224,6,8,L|413:238,1,44.999998626709
84,128,86398,1,2,0:0:0:0:
493,92,86583,6,8,L|486:136,1,44.999998626709
172,149,86754,2,0,L|190:306,1,134.999995880127,6|0,0:0|0:0,0:0:0:0:
191,304,87098,1,8,0:0:0:0:
157,43,87257,1,2,0:0:0:0:
371,292,87430,1,0,0:0:0:0:
371,292,87603,1,2,0:0:0:0:
362,183,87777,1,8,0:0:0:0:
34,160,87950,6,0,L|18:304,1,134.999995880127,6|0,0:0|0:0,0:0:0:0:
17,316,88297,1,2,0:0:0:0:
136,86,88484,2,0,L|23:73,1,89.9999972534181,8|0,0:0|0:0,0:0:0:0:
277,328,88811,1,2,0:0:0:0:
255,109,88983,1,2,0:0:0:0:
222,242,89155,1,8,0:0:0:0:
186,373,89328,1,2,0:0:0:0:
189,0,89502,6,0,L|375:17,1,179.999994506836,6|8,0:0|0:0,0:0:0:0:
268,129,90016,2,0,L|220:135,1,37.5,2|0,0:0|0:0,0:0:0:0:
332,187,90187,6,0,L|490:202,1,150,2|8,0:0|0:0,0:0:0:0:
397,326,90677,2,0,L|391:374,1,37.5
339,262,90868,6,0,L|324:104,1,150,2|8,0:0|0:0,0:0:0:0:
314,0,91377,2,0,L|362:6,1,37.5,2|0,0:0|0:0,0:0:0:0:
250,58,91547,6,0,L|92:73,1,150,2|8,0:0|0:0,0:0:0:0:
0,185,92056,1,2,0:0:0:0:
202,296,92226,6,0,L|187:138,1,150,6|8,0:0|0:0,0:0:0:0:
324,126,92733,2,0,L|372:120,1,37.5,2|0,0:0|0:0,0:0:0:0:
260,68,92902,6,0,L|102:53,1,150,2|8,0:0|0:0,0:0:0:0:
37,225,93410,2,0,L|-11:219,1,37.5,2|0,0:0|0:0,0:0:0:0:
101,167,93579,6,0,L|259:152,1,150,2|8,0:0|0:0,0:0:0:0:
320,329,94086,2,0,L|368:323,1,37.5,2|0,0:0|0:0,0:0:0:0:
256,271,94256,6,0,L|151:259,1,75,2|0,0:0|0:0,0:0:0:0:
163,263,94509,1,2,0:0:0:0:
163,263,94594,1,8,0:0:0:0:
424,241,94763,1,2,0:0:0:0:
187,28,94932,6,0,L|172:184,1,150,6|8,0:0|0:0,0:0:0:0:
227,321,95440,2,0,L|275:315,1,37.5,2|0,0:0|0:0,0:0:0:0:
163,263,95609,6,0,L|5:248,1,150,2|8,0:0|0:0,0:0:0:0:
98,123,96116,2,0,L|104:75,1,37.5,2|0,0:0|0:0,0:0:0:0:
156,187,96286,6,0,L|171:345,1,150,2|8,0:0|0:0,0:0:0:0:
55,319,96793,2,0,L|7:313,1,37.5,2|0,0:0|0:0,0:0:0:0:
119,261,96962,6,0,L|277:246,1,150,2|8,0:0|0:0,0:0:0:0:
98,123,97470,1,2,0:0:0:0:
343,87,97615,6,0,L|358:245,1,150,6|8,0:0|0:0,0:0:0:0:
188,258,98130,2,0,L|140:264,1,37.5,2|0,0:0|0:0,0:0:0:0:
252,316,98302,6,0,L|410:331,1,150,2|8,0:0|0:0,0:0:0:0:
475,159,98818,2,0,L|523:164,1,37.5,2|0,0:0|0:0,0:0:0:0:
411,217,98990,6,0,L|253:232,1,150,2|8,0:0|0:0,0:0:0:0:
192,55,99506,2,0,L|144:61,1,37.5,2|0,0:0|0:0,0:0:0:0:
256,113,99678,5,2,0:0:0:0:
448,0,99850,1,8,0:0:0:0:
445,41,99936,1,8,0:0:0:0:
442,82,100022,1,8,0:0:0:0:
440,123,100108,1,8,0:0:0:0:
438,164,100194,1,8,0:0:0:0:
436,205,100280,1,8,0:0:0:0:
434,246,100360,6,0,L|443:294,1,37.5,2|0,0:0|0:0,0:0:0:0:
407,164,100530,2,0,L|416:116,1,37.5,2|0,0:0|0:0,0:0:0:0:
425,247,100701,2,0,L|434:295,1,37.5,8|0,0:0|0:0,0:0:0:0:
397,167,100871,2,0,L|406:119,1,37.5,2|0,0:0|0:0,0:0:0:0:
272,212,101042,6,0,L|282:269,1,37.5,2|0,0:0|0:0,0:0:0:0:
297,122,101212,2,0,L|308:65,1,37.5,2|0,0:0|0:0,0:0:0:0:
281,213,101383,2,0,L|292:271,1,37.5,8|0,0:0|0:0,0:0:0:0:
305,123,101553,2,0,L|316:66,1,37.5,2|0,0:0|0:0,0:0:0:0:
406,153,101724,6,0,L|418:222,1,37.5
375,36,101894,2,0,L|387:-33,1,37.5,2|0,0:0|0:0,0:0:0:0:
397,155,102065,2,0,L|409:224,1,37.5,8|0,0:0|0:0,0:0:0:0:
287,99,102236,2,0,L|299:30,1,37.5,2|0,0:0|0:0,0:0:0:0:
180,240,102407,6,0,L|189:288,1,37.5,2|0,0:0|0:0,0:0:0:0:
197,115,102577,2,0,L|206:67,1,37.5,2|0,0:0|0:0,0:0:0:0:
263,187,102748,2,0,L|254:235,1,37.5,8|0,0:0|0:0,0:0:0:0:
204,119,102918,2,0,L|213:71,1,37.5,2|0,0:0|0:0,0:0:0:0:
325,271,103077,5,8,0:0:0:0:
265,30,103247,1,2,0:0:0:0:
123,69,103418,5,8,0:0:0:0:
325,271,103589,1,2,0:0:0:0:
123,69,103759,5,8,0:0:0:0:
171,310,103930,1,2,0:0:0:0:
325,271,104101,5,8,0:0:0:0:
265,30,104272,1,2,0:0:0:0:
136,384,104442,5,8,0:0:0:0:
477,68,105296,5,2,0:0:0:0:
240,218,105467,1,8,0:0:0:0:
315,165,105637,1,2,0:0:0:0:
286,4,105824,6,0,L|299:156,1,150,6|8,0:0|0:0,0:0:0:0:
0,384,106512,1,2,0:0:0:0:
0,384,106659,1,2,0:0:0:0:
91,337,106850,1,8,0:0:0:0:
23,82,107019,6,0,L|10:234,1,150,6|2,0:0|0:0,0:0:0:0:
149,59,107540,2,0,L|-3:46,1,150,8|2,0:0|0:0,0:0:0:0:
25,249,108035,1,2,0:0:0:0:
237,175,108224,2,0,L|226:44,1,112.5,8|0,0:0|0:0,0:0:0:0:
225,42,108566,6,0,L|381:56,1,150,6|8,0:0|0:0,0:0:0:0:
374,55,109079,1,0,0:0:0:0:
133,31,109250,1,2,0:0:0:0:
133,31,109421,1,2,0:0:0:0:
128,121,109592,1,8,0:0:0:0:
329,301,109763,6,0,L|478:288,1,150,6|2,0:0|0:0,0:0:0:0:
345,76,110276,2,0,L|334:229,1,150,8|2,0:0|0:0,0:0:0:0:
485,142,110789,1,2,0:0:0:0:
271,39,110960,2,0,L|264:116,1,75,8|0,0:0|0:0,0:0:0:0:
431,371,111302,6,0,L|420:218,1,150,6|8,0:0|0:0,0:0:0:0:
420,221,111815,1,0,0:0:0:0:
271,39,111986,1,2,0:0:0:0:
271,39,112151,1,2,0:0:0:0:
315,130,112317,1,8,0:0:0:0:
102,305,112482,6,0,L|113:152,1,150,6|2,0:0|0:0,0:0:0:0:
349,202,113003,1,8,0:0:0:0:
127,69,113183,2,0,L|138:222,1,150,2|2,0:0|0:0,0:0:0:0:
290,10,113696,2,0,L|153:1,1,112.5,8|8,0:0|0:0,0:0:0:0:
154,0,114032,6,0,L|165:153,1,150,6|8,0:0|0:0,0:0:0:0:
164,149,114562,1,0,0:0:0:0:
38,5,114732,1,2,0:0:0:0:
67,213,114902,1,2,0:0:0:0:
54,110,115072,1,8,0:0:0:0:
324,93,115242,6,0,L|313:246,1,150,6|2,0:0|0:0,0:0:0:0:
176,384,115751,2,0,L|165:234,1,150,8|2,0:0|0:0,0:0:0:0:
352,261,116261,1,2,0:0:0:0:
158,151,116431,2,0,L|293:141,1,112.5,12|0,0:0|0:0,0:0:0:0:
290,142,116772,6,0,L|279:282,1,112.5,6|0,0:0|0:0,0:0:0:0:
280,274,117153,2,0,L|436:289,1,150,8|2,0:0|0:0,0:0:0:0:
290,142,117668,1,2,0:0:0:0:
302,46,117839,1,8,0:0:0:0:
512,69,118011,6,0,L|501:219,1,150,6|2,0:0|0:0,0:0:0:0:
364,384,118539,2,0,L|353:234,1,150,8|2,0:0|0:0,0:0:0:0:
456,281,119054,1,2,0:0:0:0:
231,178,119226,2,0,L|310:173,1,75,8|0,0:0|0:0,0:0:0:0:
512,61,119562,6,0,L|349:47,1,150,6|8,0:0|0:0,0:0:0:0:
440,227,120075,1,0,0:0:0:0:
362,48,120247,1,2,0:0:0:0:
362,48,120418,1,2,0:0:0:0:
453,92,120589,1,8,0:0:0:0:
428,315,120760,6,0,L|272:299,1,150,6|2,0:0|0:0,0:0:0:0:
81,190,121278,2,0,L|232:177,1,150,8|2,0:0|0:0,0:0:0:0:
170,265,121787,1,2,0:0:0:0:
151,77,121956,1,8,0:0:0:0:
151,77,122125,1,0,0:0:0:0:
205,372,122305,6,0,L|55:384,1,150,6|8,0:0|0:0,0:0:0:0:
55,384,122820,1,0,0:0:0:0:
23,150,122992,1,2,0:0:0:0:
23,150,123164,1,2,0:0:0:0:
32,250,123336,1,8,0:0:0:0:
340,323,123498,6,0,L|329:173,1,150,6|2,0:0|0:0,0:0:0:0:
116,270,124006,1,8,0:0:0:0:
424,347,124175,2,0,L|413:197,1,150,6|2,0:0|0:0,0:0:0:0:
275,0,124709,2,0,L|268:93,1,75,8|0,0:0|0:0,0:0:0:0:
340,323,125048,5,6,0:0:0:0:
312,157,125216,1,0,0:0:0:0:
340,323,125384,1,12,0:0:0:0:
154,124,125553,1,0,0:0:0:0:
180,279,125721,5,2,0:0:0:0:
340,323,125890,1,2,0:0:0:0:
154,124,126058,1,8,0:0:0:0:
180,279,126227,1,6,0:0:0:0:
312,157,126395,5,0,0:0:0:0:
157,41,126564,1,2,0:0:0:0:
41,203,126732,1,8,0:0:0:0:
81,198,126816,1,8,0:0:0:0:
122,193,126901,1,8,0:0:0:0:
162,188,126985,1,8,0:0:0:0:
202,183,127069,2,0,L|260:189,1,37.5,2|0,0:0|0:0,0:0:0:0:
368,45,127238,1,2,0:0:0:0:
349,43,127322,1,2,0:0:0:0:
330,41,127404,5,10,0:0:0:0:
335,81,127485,1,8,0:0:0:0:
340,122,127566,1,8,0:0:0:0:
345,162,127647,1,8,0:0:0:0:
350,202,127743,2,0,L|336:383,1,179.999994506836,6|8,0:0|0:0,0:0:0:0:
51,41,128232,5,0,0:0:0:0:
75,168,128400,1,2,0:0:0:0:
234,235,128568,1,2,0:0:0:0:
0,246,128736,1,8,0:0:0:0:
145,31,128905,6,0,L|265:43,1,89.9999972534181,2|0,0:0|0:0,0:0:0:0:
512,128,129241,2,0,L|392:140,1,89.9999972534181,2|8,0:0|0:0,0:0:0:0:
236,204,129578,2,0,L|356:216,1,89.9999972534181,2|0,0:0|0:0,0:0:0:0:
496,109,129914,2,0,L|314:128,1,179.999994506836,2|2,0:0|0:0,0:0:0:0:
173,149,130419,5,6,0:0:0:0:
173,149,130575,1,0,0:0:0:0:
334,306,130772,2,0,L|315:111,1,179.999994506836,8|2,0:0|0:0,0:0:0:0:
219,267,131276,1,2,0:0:0:0:
363,217,131445,1,8,0:0:0:0:
104,232,131613,6,0,L|116:88,1,134.999995880127,6|0,0:0|0:0,0:0:0:0:
117,76,131949,1,2,0:0:0:0:
95,322,132118,1,8,0:0:0:0:
28,82,132286,1,8,0:0:0:0:
95,322,132454,1,2,0:0:0:0:
180,135,132622,1,2,0:0:0:0:
117,76,132791,1,8,0:0:0:0:
179,221,132959,1,0,0:0:0:0:
15,370,133127,6,0,L|29:186,1,179.999994506836,6|8,0:0|0:0,0:0:0:0:
288,82,133632,1,0,0:0:0:0:
239,187,133800,1,2,0:0:0:0:
333,310,133968,1,2,0:0:0:0:
137,182,134137,1,8,0:0:0:0:
355,314,134305,6,0,L|369:209,1,89.9999972534181,6|0,0:0|0:0,0:0:0:0:
209,120,134642,2,0,L|314:134,1,89.9999972534181,2|8,0:0|0:0,0:0:0:0:
456,212,134978,2,0,L|351:226,1,89.9999972534181,2|0,0:0|0:0,0:0:0:0:
307,55,135315,2,0,L|500:79,1,179.999994506836,2|0,0:0|0:0,0:0:0:0:
214,136,135819,6,0,L|224:27,1,89.9999972534181,6|0,0:0|0:0,0:0:0:0:
485,77,136156,2,0,L|504:275,1,179.999994506836,8|2,0:0|0:0,0:0:0:0:
341,224,136661,1,2,0:0:0:0:
401,91,136829,1,8,0:0:0:0:
352,314,136997,6,0,L|339:199,1,89.9999972534181,6|0,0:0|0:0,0:0:0:0:
469,164,137350,1,2,0:0:0:0:
303,380,137514,1,8,0:0:0:0:
225,128,137678,1,8,0:0:0:0:
290,58,137842,1,2,0:0:0:0:
329,148,138005,1,0,0:0:0:0:
461,253,138157,1,2,0:0:0:0:
461,271,138239,1,2,0:0:0:0:
461,288,138321,1,2,0:0:0:0:
461,306,138403,1,2,0:0:0:0:
460,350,138514,6,0,L|320:369,1,134.999995880127,6|0,0:0|0:0,0:0:0:0:
299,356,138850,2,0,L|404:342,1,89.9999972534181,8|0,0:0|0:0,0:0:0:0:
210,367,139186,1,2,0:0:0:0:
298,239,139354,1,2,0:0:0:0:
232,155,139522,1,8,0:0:0:0:
468,384,139690,6,0,L|454:224,1,134.999995880127,6|0,0:0|0:0,0:0:0:0:
454,229,140027,1,2,0:0:0:0:
174,229,140192,2,0,L|164:320,1,89.9999972534181,8|0,0:0|0:0,0:0:0:0:
187,104,140522,1,2,0:0:0:0:
256,384,140687,1,2,0:0:0:0:
179,83,140852,1,8,0:0:0:0:
468,358,141165,6,0,L|529:350,1,44.999998626709,6|0,0:0|0:0,0:0:0:0:
355,103,141335,1,8,0:0:0:0:
311,98,141420,1,8,0:0:0:0:
267,93,141505,1,8,0:0:0:0:
223,88,141590,1,8,0:0:0:0:
179,83,141675,1,8,0:0:0:0:
135,78,141760,1,8,0:0:0:0:
91,73,141845,5,6,0:0:0:0:
282,363,142015,1,2,0:0:0:0:
210,0,142195,1,8,0:0:0:0:
168,377,142364,6,0,L|272:385,1,89.9999972534181,6|0,0:0|0:0,0:0:0:0:
91,73,142678,2,0,L|40:81,1,44.999998626709,2|0,0:0|0:0,0:0:0:0:
340,235,142867,5,8,0:0:0:0:
345,191,142948,1,8,0:0:0:0:
350,147,143030,1,8,0:0:0:0:
355,103,143113,1,8,0:0:0:0:
360,59,143195,1,2,0:0:0:0:
96,196,143361,6,8,L|88:145,1,44.999998626709
428,256,143526,1,2,0:0:0:0:
8,291,143689,6,8,L|15:247,1,44.999998626709
340,235,143864,2,0,L|322:78,1,134.999995880127,6|0,0:0|0:0,0:0:0:0:
321,80,144204,1,8,0:0:0:0:
355,341,144375,1,2,0:0:0:0:
129,129,144545,1,0,0:0:0:0:
129,129,144700,1,2,0:0:0:0:
152,223,144870,1,8,0:0:0:0:
478,224,145040,6,0,L|496:75,1,134.999995880127,6|0,0:0|0:0,0:0:0:0:
496,70,145383,1,2,0:0:0:0:
376,294,145548,2,0,L|489:311,1,89.9999972534181,8|0,0:0|0:0,0:0:0:0:
170,0,145869,5,8,0:0:0:0:
175,44,145951,1,8,0:0:0:0:
180,88,146033,1,8,0:0:0:0:
185,132,146115,1,8,0:0:0:0:
190,176,146198,1,8,0:0:0:0:
195,220,146280,1,8,0:0:0:0:
200,264,146362,1,8,0:0:0:0:
205,308,146445,1,8,0:0:0:0:
210,352,146544,6,0,L|49:337,1,150,6|8,0:0|0:0,0:0:0:0:
190,176,147060,2,0,L|351:161,1,150,2|2,0:0|0:0,0:0:0:0:
60,188,147577,2,0,L|73:49,1,112.5,8|0,0:0|0:0,0:0:0:0:
76,57,147922,5,6,0:0:0:0:
76,57,148094,1,2,0:0:0:0:
174,90,148267,1,8,0:0:0:0:
151,317,148439,2,0,L|166:154,1,150,2|2,0:0|0:0,0:0:0:0:
438,290,148956,2,0,L|319:303,1,112.5,8|0,0:0|0:0,0:0:0:0:
304,306,149273,6,0,L|311:216,1,75,6|0,0:0|0:0,0:0:0:0:
332,5,149614,1,8,0:0:0:0:
332,5,149784,1,0,0:0:0:0:
512,278,149955,1,6,0:0:0:0:
472,55,150125,1,2,0:0:0:0:
375,71,150312,1,8,0:0:0:0:
431,384,150468,6,0,L|415:249,1,112.5,6|0,0:0|0:0,0:0:0:0:
415,252,150799,1,2,0:0:0:0:
117,150,150961,5,8,0:0:0:0:
245,66,151135,1,2,0:0:0:0:
250,367,151293,5,8,0:0:0:0:
117,150,151452,1,2,0:0:0:0:
331,13,151610,5,8,0:0:0:0:
389,117,151769,1,2,0:0:0:0:
195,340,151960,6,0,L|184:184,1,150,6|8,0:0|0:0,0:0:0:0:
184,190,152472,1,0,0:0:0:0:
430,152,152642,1,2,0:0:0:0:
430,152,152813,1,2,0:0:0:0:
77,86,152984,2,0,L|69:174,1,75,8|0,0:0|0:0,0:0:0:0:
314,142,153325,6,0,L|154:129,1,150,6|8,0:0|0:0,0:0:0:0:
54,292,153837,2,0,L|214:279,1,150,2|2,0:0|0:0,0:0:0:0:
213,30,154350,2,0,L|96:21,1,112.5,8|0,0:0|0:0,0:0:0:0:
78,20,154685,6,0,L|83:109,1,75,6|0,0:0|0:0,0:0:0:0:
139,325,155020,1,8,0:0:0:0:
139,325,155187,1,0,0:0:0:0:
393,118,155355,1,6,0:0:0:0:
223,343,155522,1,2,0:0:0:0:
311,355,155690,1,8,0:0:0:0:
306,46,155857,6,0,L|292:203,1,150,6|2,0:0|0:0,0:0:0:0:
411,384,156358,1,8,0:0:0:0:
210,130,156510,5,2,0:0:0:0:
179,133,156590,1,2,0:0:0:0:
149,136,156669,2,0,L|102:130,1,37.5,2|0,0:0|0:0,0:0:0:0:
372,184,156827,2,0,L|419:178,1,37.5,2|0,0:0|0:0,0:0:0:0:
159,222,156985,1,2,0:0:0:0:
161,244,157064,1,2,0:0:0:0:
163,266,157144,1,2,0:0:0:0:
165,288,157223,1,2,0:0:0:0:
167,310,157313,6,0,L|327:323,1,150,6|8,0:0|0:0,0:0:0:0:
310,138,157829,2,0,L|149:153,1,150,2|2,0:0|0:0,0:0:0:0:
465,215,158357,2,0,L|452:76,1,112.5,8|0,0:0|0:0,0:0:0:0:
455,77,158690,5,6,0:0:0:0:
455,77,158857,1,2,0:0:0:0:
360,37,159023,1,8,0:0:0:0:
266,217,159190,2,0,L|281:380,1,150,2|2,0:0|0:0,0:0:0:0:
65,132,159712,2,0,L|198:118,1,112.5,8|0,0:0|0:0,0:0:0:0:
199,116,160050,6,0,L|192:206,1,75,6|0,0:0|0:0,0:0:0:0:
180,379,160389,1,8,0:0:0:0:
180,379,160559,1,2,0:0:0:0:
0,104,160728,1,6,0:0:0:0:
210,265,160898,1,2,0:0:0:0:
118,282,161067,1,8,0:0:0:0:
81,0,161237,6,0,L|97:141,1,112.5,6|0,0:0|0:0,0:0:0:0:
97,132,161578,1,2,0:0:0:0:
437,169,161742,5,8,0:0:0:0:
185,283,161910,1,2,0:0:0:0:
217,140,162071,5,8,0:0:0:0:
437,169,162232,1,2,0:0:0:0:
441,314,162392,5,8,0:0:0:0:
151,74,162553,1,2,0:0:0:0:
426,19,162739,6,0,L|437:175,1,150,6|8,0:0|0:0,0:0:0:0:
436,168,163252,1,0,0:0:0:0:
184,307,163424,1,2,0:0:0:0:
184,307,163595,1,2,0:0:0:0:
271,262,163766,1,8,0:0:0:0:
205,15,163937,6,0,L|192:175,1,150,6|2,0:0|0:0,0:0:0:0:
425,342,164451,1,8,0:0:0:0:
458,92,164606,2,0,L|298:105,1,150,2|2,0:0|0:0,0:0:0:0:
159,324,165136,2,0,L|276:333,1,112.5,8|0,0:0|0:0,0:0:0:0:
293,335,165471,5,6,0:0:0:0:
252,0,165808,1,8,0:0:0:0:
52,356,166145,1,6,0:0:0:0:
141,57,166482,1,8,0:0:0:0:
139,272,166651,1,6,0:0:0:0:
141,57,168231,5,6,0:0:0:0:
139,272,168595,1,0,0:0:0:0:
143,286,168639,1,0,0:0:0:0:
259,0,168950,1,6,0:0:0:0:
0,313,169528,5,6,0:0:0:0:
