osu file format v14

[General]
AudioFilename: audio.mp3
AudioLeadIn: 0
PreviewTime: 57800
Countdown: 0
SampleSet: Soft
StackLeniency: 0.7
Mode: 0
LetterboxInBreaks: 0
WidescreenStoryboard: 1

[Editor]
Bookmarks: 20374,35315,58963,73080,80845,96610,110727,125786,156744,170861,174626,200979,204863
DistanceSpacing: 1
BeatDivisor: 4
GridSize: 8
TimelineZoom: 2.1

[Metadata]
Title:Bang Bang
TitleUnicode:Bang Bang
Artist:Green Day
ArtistUnicode:Green Day
Creator:MrKosiej
Version:Extra
Source:
Tags:revolution radio punk rock
BeatmapID:2070364
BeatmapSetID:989744

[Difficulty]
HPDrainRate:6
CircleSize:3.8
OverallDifficulty:8
ApproachRate:9.4
SliderMultiplier:1.6
SliderTickRate:1

[Events]
//Background and Video events
0,0,"bg.jpg",0,0
//Break Periods
//Storyboard Layer 0 (Background)
//Storyboard Layer 1 (Fail)
//Storyboard Layer 2 (Pass)
//Storyboard Layer 3 (Foreground)
//Storyboard Sound Samples

[TimingPoints]
610,235.294117647059,4,2,1,20,1,0
962,-100,4,2,1,5,0,0
1551,-100,4,2,1,10,0,0
2492,-100,4,2,1,15,0,0
3433,-100,4,2,1,20,0,0
4374,-100,4,2,1,15,0,0
5080,-100,4,2,1,10,0,0
5198,-100,4,2,1,5,0,0
5316,-200,4,2,1,20,0,0
6257,-200,4,2,1,5,0,0
6374,-200,4,2,1,20,0,0
6963,-200,4,2,1,30,0,0
7198,-200,4,2,1,20,0,0
8139,-200,4,2,1,5,0,0
8257,-200,4,2,1,20,0,0
8845,-200,4,2,1,30,0,0
9080,-200,4,2,1,20,0,0
10021,-200,4,2,1,5,0,0
10139,-200,4,2,1,20,0,0
10727,-200,4,2,1,30,0,0
10963,-200,4,2,1,20,0,0
12610,-200,4,2,1,30,0,0
12845,-166.666666666667,4,2,1,30,0,0
13786,-166.666666666667,4,2,1,5,0,0
13904,-166.666666666667,4,2,1,30,0,0
14492,-166.666666666667,4,2,1,40,0,0
14727,-166.666666666667,4,2,1,30,0,0
15668,-166.666666666667,4,2,1,5,0,0
15786,-166.666666666667,4,2,1,30,0,0
16374,-166.666666666667,4,2,1,40,0,0
16610,-166.666666666667,4,2,1,30,0,0
17551,-166.666666666667,4,2,1,5,0,0
17668,-166.666666666667,4,2,1,30,0,0
18257,-166.666666666667,4,2,1,40,0,0
18727,-166.666666666667,4,2,1,30,0,0
18963,-166.666666666667,4,2,2,30,0,0
19198,-166.666666666667,4,2,1,30,0,0
19433,-166.666666666667,4,2,1,40,0,0
20374,-100,4,1,1,60,0,0
20389,235.294117647059,4,1,1,100,1,0
20566,-100,4,1,1,5,0,0
20625,-100,4,1,1,60,0,0
20801,-100,4,1,1,5,0,0
20860,-100,4,1,1,60,0,0
22213,-100,4,1,1,5,0,0
22272,-100,4,1,1,60,0,0
22448,-100,4,1,1,5,0,0
22507,-100,4,1,1,60,0,0
22683,-100,4,1,1,5,0,0
22742,-100,4,1,1,60,0,0
24330,-100,4,1,1,5,0,0
24389,-100,4,1,1,60,0,0
24566,-100,4,1,1,5,0,0
24625,-100,4,1,1,60,0,0
25977,-100,4,1,1,5,0,0
26036,-100,4,1,1,60,0,0
26213,-100,4,1,1,5,0,0
26272,-100,4,1,1,60,0,0
26448,-100,4,1,1,5,0,0
26507,-100,4,1,1,60,0,0
27860,-100,4,1,1,5,0,0
27919,-100,4,1,1,60,0,0
28095,-100,4,1,1,5,0,0
28154,-100,4,1,1,60,0,0
28330,-100,4,1,1,5,0,0
28389,-100,4,1,1,60,0,0
29742,-100,4,1,1,5,0,0
29801,-100,4,1,1,60,0,0
29977,-100,4,1,1,5,0,0
30036,-100,4,1,1,60,0,0
30213,-100,4,1,1,5,0,0
30272,-100,4,1,1,60,0,0
31860,-100,4,1,1,5,0,0
31919,-100,4,1,1,60,0,0
32095,-100,4,1,1,5,0,0
32154,-100,4,1,1,60,0,0
33507,-100,4,1,1,5,0,0
33566,-100,4,1,1,60,0,0
33742,-100,4,1,1,5,0,0
33801,-100,4,1,1,60,0,0
33977,-100,4,1,1,5,0,0
34036,-100,4,1,1,60,0,0
34389,-83.3333333333333,4,1,1,80,0,0
34741,-100,4,1,1,60,0,0
34919,-100,4,1,1,5,0,0
34977,-100,4,1,1,60,0,0
35625,-100,4,1,1,5,0,0
35683,-100,4,1,1,50,0,0
36860,-100,4,1,1,60,0,0
37507,-100,4,1,1,5,0,0
37566,-100,4,1,1,50,0,0
38742,-100,4,1,1,60,0,0
39389,-100,4,1,1,5,0,0
39448,-100,4,1,1,50,0,0
40625,-100,4,1,1,60,0,0
41272,-100,4,1,1,5,0,0
41331,-100,4,1,1,50,0,0
42213,-100,4,1,1,5,0,0
42272,-100,4,1,1,50,0,0
42448,-100,4,1,1,5,0,0
42507,-100,4,1,1,60,0,0
43154,-100,4,1,1,5,0,0
43213,-125,4,1,1,50,0,0
44389,-100,4,1,1,60,0,0
45036,-100,4,1,1,5,0,0
45095,-125,4,1,1,50,0,0
46271,-100,4,1,1,60,0,0
47154,-100,4,1,1,5,0,0
47213,-100,4,1,1,60,0,0
48095,-100,4,1,1,5,0,0
48154,-100,4,1,1,60,0,0
48801,-100,4,1,1,5,0,0
48860,-100,4,1,1,60,0,0
49036,-100,4,1,1,5,0,0
49095,-100,4,1,1,60,0,0
49977,-100,4,1,1,5,0,0
50036,-100,4,1,1,60,0,0
50683,-100,4,1,1,5,0,0
50742,-125,4,1,1,50,0,0
51918,-100,4,1,1,60,0,0
52566,-100,4,1,1,5,0,0
52625,-125,4,1,1,50,0,0
53800,-100,4,1,1,60,0,0
54683,-100,4,1,1,5,0,0
54742,-100,4,1,1,60,0,0
55389,-100,4,1,1,5,0,0
55448,-100,4,1,1,60,0,0
55625,-100,4,1,1,5,0,0
55683,-100,4,1,1,60,0,0
56330,-100,4,1,1,5,0,0
56389,-100,4,1,1,60,0,0
56566,-100,4,1,1,5,0,0
56625,-100,4,1,1,60,0,0
57507,-100,4,1,1,5,0,0
57566,-100,4,1,1,60,0,0
57977,-100,4,1,1,5,0,0
58036,-100,4,1,1,60,0,0
58272,-100,4,1,1,70,0,0
58977,-83.3333333333333,4,1,1,70,0,1
59683,-90.9090909090909,4,1,1,60,0,1
59860,-90.9090909090909,4,1,1,5,0,1
59918,-90.9090909090909,4,1,1,60,0,0
60095,-90.9090909090909,4,1,1,5,0,0
60154,-90.9090909090909,4,1,1,60,0,0
60330,-90.9090909090909,4,1,1,5,0,0
60389,-90.9090909090909,4,1,1,60,0,0
61507,-90.9090909090909,4,1,1,5,0,0
61566,-90.9090909090909,4,1,1,60,0,0
61742,-90.9090909090909,4,1,1,5,0,0
61801,-90.9090909090909,4,1,1,60,0,0
61977,-90.9090909090909,4,1,1,5,0,0
62036,-90.9090909090909,4,1,1,60,0,0
62213,-90.9090909090909,4,1,1,5,0,0
62272,-90.9090909090909,4,1,1,60,0,0
63860,-90.9090909090909,4,1,1,5,0,0
63919,-90.9090909090909,4,1,1,60,0,0
64095,-90.9090909090909,4,1,1,5,0,0
64154,-90.9090909090909,4,1,1,60,0,0
64801,-90.9090909090909,4,1,1,5,0,0
64860,-90.9090909090909,4,1,1,60,0,0
65036,-90.9090909090909,4,1,1,5,0,0
65095,-90.9090909090909,4,1,1,60,0,0
65272,-90.9090909090909,4,1,1,5,0,0
65330,-90.9090909090909,4,1,1,60,0,0
65507,-90.9090909090909,4,1,1,5,0,0
65566,-90.9090909090909,4,1,1,60,0,0
65801,-90.9090909090909,4,1,1,70,0,0
66506,-83.3333333333333,4,1,1,70,0,1
67213,-90.9090909090909,4,1,1,60,0,1
67389,-90.9090909090909,4,1,1,5,0,1
67447,-90.9090909090909,4,1,1,60,0,0
67625,-90.9090909090909,4,1,1,5,0,0
67683,-90.9090909090909,4,1,1,60,0,0
67860,-90.9090909090909,4,1,1,5,0,0
67919,-90.9090909090909,4,1,1,60,0,0
69036,-90.9090909090909,4,1,1,5,0,0
69095,-90.9090909090909,4,1,1,60,0,0
69272,-90.9090909090909,4,1,1,5,0,0
69330,-90.9090909090909,4,1,1,60,0,0
69507,-90.9090909090909,4,1,1,5,0,0
69566,-90.9090909090909,4,1,1,60,0,0
69742,-90.9090909090909,4,1,1,5,0,0
69801,-90.9090909090909,4,1,1,60,0,0
70448,-90.9090909090909,4,1,1,5,0,0
70507,-90.9090909090909,4,1,1,60,0,0
70683,-90.9090909090909,4,1,1,5,0,0
70742,-90.9090909090909,4,1,1,60,0,0
70919,-90.9090909090909,4,1,1,5,0,0
70977,-90.9090909090909,4,1,1,60,0,0
71154,-90.9090909090909,4,1,1,5,0,0
71213,-90.9090909090909,4,1,1,60,0,0
71448,-90.9090909090909,4,1,2,60,0,0
71683,-90.9090909090909,4,1,1,60,0,0
72153,-166.666666666667,4,1,1,50,0,0
72566,-166.666666666667,4,1,1,5,0,0
72625,-166.666666666667,4,1,1,50,0,0
73036,-166.666666666667,4,1,1,5,0,0
73094,-100,4,1,1,60,0,0
73272,-100,4,1,1,5,0,0
73330,-100,4,1,1,60,0,0
73507,-100,4,1,1,5,0,0
73566,-100,4,1,1,60,0,0
74448,-100,4,1,1,5,0,0
74507,-100,4,1,1,60,0,0
75154,-100,4,1,1,5,0,0
75213,-100,4,1,1,60,0,0
75389,-100,4,1,1,5,0,0
75448,-100,4,1,1,60,0,0
77036,-100,4,1,1,5,0,0
77095,-100,4,1,1,60,0,0
77272,-100,4,1,1,5,0,0
77330,-100,4,1,1,60,0,0
78213,-100,4,1,1,5,0,0
78272,-100,4,1,1,60,0,0
78919,-100,4,1,1,5,0,0
78977,-100,4,1,1,60,0,0
79154,-100,4,1,1,5,0,0
79213,-100,4,1,1,60,0,0
79860,-100,4,1,1,5,0,0
79919,-100,4,1,1,60,0,0
80095,-100,4,1,1,5,0,0
80154,-100,4,1,1,60,0,0
80330,-100,4,1,1,5,0,0
80389,-100,4,1,1,60,0,0
80801,-100,4,1,1,5,0,0
80860,-125,4,1,1,50,0,0
82036,-100,4,1,1,60,0,0
82683,-100,4,1,1,5,0,0
82742,-125,4,1,1,50,0,0
83918,-100,4,1,1,60,0,0
84801,-100,4,1,1,5,0,0
84860,-100,4,1,1,60,0,0
85036,-100,4,1,1,5,0,0
85095,-100,4,1,1,60,0,0
85272,-100,4,1,1,5,0,0
85330,-100,4,1,1,60,0,0
85742,-100,4,1,1,5,0,0
85801,-100,4,1,1,60,0,0
86213,-100,4,1,1,5,0,0
86272,-100,4,1,1,60,0,0
86448,-100,4,1,1,5,0,0
86507,-100,4,1,1,60,0,0
86683,-100,4,1,1,5,0,0
86742,-100,4,1,1,60,0,0
87389,-100,4,1,1,5,0,0
87448,-100,4,1,1,60,0,0
87625,-100,4,1,1,5,0,0
87683,-100,4,1,1,60,0,0
87860,-100,4,1,1,5,0,0
87919,-100,4,1,1,60,0,0
88330,-100,4,1,1,5,0,0
88389,-125,4,1,1,50,0,0
89565,-100,4,1,1,60,0,0
90213,-100,4,1,1,5,0,0
90272,-125,4,1,1,50,0,0
91447,-100,4,1,1,60,0,0
92330,-100,4,1,1,5,0,0
92389,-100,4,1,1,60,0,0
93036,-100,4,1,1,5,0,0
93095,-100,4,1,1,60,0,0
93507,-100,4,1,1,5,0,0
93566,-100,4,1,1,60,0,0
93742,-100,4,1,1,5,0,0
93801,-100,4,1,1,60,0,0
93977,-100,4,1,1,5,0,0
94036,-100,4,1,1,60,0,0
94213,-100,4,1,1,5,0,0
94272,-100,4,1,1,60,0,0
94448,-100,4,1,1,5,0,0
94507,-100,4,1,1,60,0,0
95154,-100,4,1,1,5,0,0
95213,-100,4,1,1,60,0,0
95625,-100,4,1,1,5,0,0
95683,-100,4,1,1,60,0,0
95919,-100,4,1,1,70,0,0
96624,-83.3333333333333,4,1,1,70,0,1
97331,-90.9090909090909,4,1,1,60,0,1
97506,-90.9090909090909,4,1,1,5,0,1
97565,-90.9090909090909,4,1,1,60,0,0
97742,-90.9090909090909,4,1,1,5,0,0
97801,-90.9090909090909,4,1,1,60,0,0
97977,-90.9090909090909,4,1,1,5,0,0
98036,-90.9090909090909,4,1,1,60,0,0
99154,-90.9090909090909,4,1,1,5,0,0
99213,-90.9090909090909,4,1,1,60,0,0
99389,-90.9090909090909,4,1,1,5,0,0
99448,-90.9090909090909,4,1,1,60,0,0
99566,-90.9090909090909,4,1,1,5,0,0
99683,-90.9090909090909,4,1,1,60,0,0
99860,-90.9090909090909,4,1,1,5,0,0
99919,-90.9090909090909,4,1,1,60,0,0
101507,-90.9090909090909,4,1,1,5,0,0
101566,-90.9090909090909,4,1,1,60,0,0
101742,-90.9090909090909,4,1,1,5,0,0
101801,-90.9090909090909,4,1,1,60,0,0
102448,-90.9090909090909,4,1,1,5,0,0
102507,-90.9090909090909,4,1,1,60,0,0
102683,-90.9090909090909,4,1,1,5,0,0
102742,-90.9090909090909,4,1,1,60,0,0
102919,-90.9090909090909,4,1,1,5,0,0
102977,-90.9090909090909,4,1,1,60,0,0
103154,-90.9090909090909,4,1,1,5,0,0
103213,-90.9090909090909,4,1,1,60,0,0
103448,-90.9090909090909,4,1,1,70,0,0
104153,-83.3333333333333,4,1,1,70,0,1
104860,-90.9090909090909,4,1,1,60,0,1
105094,-90.9090909090909,4,1,1,60,0,0
105272,-90.9090909090909,4,1,1,5,0,0
105330,-90.9090909090909,4,1,1,60,0,0
105507,-90.9090909090909,4,1,1,5,0,0
105566,-90.9090909090909,4,1,1,60,0,0
106683,-90.9090909090909,4,1,1,5,0,0
106742,-90.9090909090909,4,1,1,60,0,0
106919,-90.9090909090909,4,1,1,5,0,0
106978,-90.9090909090909,4,1,1,70,0,0
110741,-90.9090909090909,4,1,1,60,0,1
110919,-90.9090909090909,4,1,1,5,0,1
110977,-90.9090909090909,4,1,1,60,0,1
111154,-90.9090909090909,4,1,1,5,0,1
111213,-90.9090909090909,4,1,1,60,0,1
112095,-90.9090909090909,4,1,1,5,0,1
112154,-90.9090909090909,4,1,1,60,0,1
112330,-90.9090909090909,4,1,1,5,0,1
112389,-90.9090909090909,4,1,1,60,0,1
112566,-90.9090909090909,4,1,1,5,0,1
112625,-90.9090909090909,4,1,1,60,0,1
112801,-90.9090909090909,4,1,1,5,0,1
112860,-90.9090909090909,4,1,1,60,0,1
113036,-90.9090909090909,4,1,1,5,0,1
113095,-90.9090909090909,4,1,1,60,0,1
113977,-90.9090909090909,4,1,1,5,0,1
114036,-90.9090909090909,4,1,1,60,0,1
114683,-90.9090909090909,4,1,1,5,0,1
114742,-90.9090909090909,4,1,1,60,0,1
114919,-90.9090909090909,4,1,1,5,0,1
114977,-90.9090909090909,4,1,1,60,0,1
115860,-90.9090909090909,4,1,1,5,0,1
115919,-90.9090909090909,4,1,1,60,0,1
116095,-90.9090909090909,4,1,1,5,0,1
116154,-90.9090909090909,4,1,1,60,0,1
116330,-90.9090909090909,4,1,1,5,0,1
116389,-90.9090909090909,4,1,1,60,0,1
116566,-90.9090909090909,4,1,1,5,0,1
116625,-90.9090909090909,4,1,1,60,0,1
116801,-90.9090909090909,4,1,1,5,0,1
116860,-90.9090909090909,4,1,1,60,0,1
117742,-90.9090909090909,4,1,1,5,0,1
117801,-90.9090909090909,4,1,1,60,0,1
118213,-90.9090909090909,4,1,1,5,0,1
118272,-90.9090909090909,4,1,1,60,0,1
118448,-90.9090909090909,4,1,1,5,0,1
118507,-90.9090909090909,4,1,1,60,0,1
119154,-90.9090909090909,4,1,1,5,0,1
119213,-90.9090909090909,4,1,1,60,0,1
119389,-90.9090909090909,4,1,1,5,0,1
119448,-90.9090909090909,4,1,1,60,0,1
120095,-90.9090909090909,4,1,1,5,0,1
120154,-90.9090909090909,4,1,1,60,0,1
120330,-90.9090909090909,4,1,1,5,0,1
120389,-90.9090909090909,4,1,1,60,0,1
120566,-90.9090909090909,4,1,1,5,0,1
120625,-90.9090909090909,4,1,1,60,0,1
121507,-90.9090909090909,4,1,1,5,0,1
121566,-90.9090909090909,4,1,1,60,0,1
121977,-90.9090909090909,4,1,1,5,0,1
122036,-90.9090909090909,4,1,1,60,0,1
122213,-90.9090909090909,4,1,1,5,0,1
122272,-90.9090909090909,4,1,1,60,0,1
122448,-90.9090909090909,4,1,1,5,0,1
122507,-90.9090909090909,4,1,1,60,0,1
123389,-90.9090909090909,4,1,1,5,0,1
123448,-90.9090909090909,4,1,1,60,0,1
123860,-90.9090909090909,4,1,1,5,0,1
123918,-90.9090909090909,4,1,1,60,0,0
124154,-90.9090909090909,4,1,2,60,0,0
124389,-90.9090909090909,4,1,1,60,0,0
124859,-166.666666666667,4,1,1,50,0,0
125741,-166.666666666667,4,1,1,5,0,0
125800,241.935483870968,4,1,1,50,1,0
125814,-200,4,1,1,50,0,0
129429,-200,4,1,2,50,0,0
129670,-200,4,1,1,50,0,0
132574,-142.857142857143,4,1,1,60,0,0
132695,-142.857142857143,4,1,1,60,0,0
132816,-142.857142857143,4,1,1,50,0,0
132937,-142.857142857143,4,1,1,60,0,0
133179,-142.857142857143,4,1,1,50,0,0
133420,-142.857142857143,4,1,1,50,0,0
133541,-166.666666666667,4,1,1,60,0,0
133723,-166.666666666667,4,1,1,5,0,0
133783,-166.666666666667,4,1,1,60,0,0
133904,-166.666666666667,4,1,2,60,0,0
134025,-166.666666666667,4,1,1,60,0,0
134207,-166.666666666667,4,1,1,5,0,0
134267,-166.666666666667,4,1,2,60,0,0
134388,-166.666666666667,4,1,2,5,0,0
134509,-166.666666666667,4,1,1,60,0,0
134691,-166.666666666667,4,1,1,5,0,0
134751,-166.666666666667,4,1,2,60,0,0
134993,-166.666666666667,4,1,1,60,0,0
135175,-166.666666666667,4,1,1,5,0,0
135235,-166.666666666667,4,1,2,60,0,0
135356,-166.666666666667,4,1,2,5,0,0
135477,-166.666666666667,4,1,1,60,0,0
135658,-166.666666666667,4,1,1,5,0,0
135719,-166.666666666667,4,1,2,60,0,0
135961,-166.666666666667,4,1,1,60,0,0
136142,-166.666666666667,4,1,1,5,0,0
136203,-166.666666666667,4,1,1,60,0,0
136324,-166.666666666667,4,1,2,5,0,0
136445,-166.666666666667,4,1,1,60,0,0
136626,-166.666666666667,4,1,1,5,0,0
136687,-166.666666666667,4,1,2,60,0,0
136929,-166.666666666667,4,1,1,60,0,0
137110,-166.666666666667,4,1,1,5,0,0
137170,-166.666666666667,4,1,2,60,0,0
137291,-166.666666666667,4,1,2,5,0,0
137412,-166.666666666667,4,1,1,60,0,0
137594,-166.666666666667,4,1,1,5,0,0
137654,-166.666666666667,4,1,2,60,0,0
137896,-166.666666666667,4,1,1,60,0,0
138078,-166.666666666667,4,1,1,5,0,0
138138,-166.666666666667,4,1,1,60,0,0
138259,-166.666666666667,4,1,2,5,0,0
138380,-166.666666666667,4,1,1,60,0,0
138562,-166.666666666667,4,1,1,5,0,0
138622,-166.666666666667,4,1,2,60,0,0
138864,-166.666666666667,4,1,1,60,0,0
139045,-166.666666666667,4,1,1,5,0,0
139106,-166.666666666667,4,1,2,60,0,0
139227,-166.666666666667,4,1,2,5,0,0
139348,-166.666666666667,4,1,1,60,0,0
139529,-166.666666666667,4,1,1,5,0,0
139590,-166.666666666667,4,1,2,60,0,0
139771,-166.666666666667,4,1,2,5,0,0
139832,-166.666666666667,4,1,1,60,0,0
140013,-166.666666666667,4,1,1,5,0,0
140074,-166.666666666667,4,1,2,60,0,0
140255,-166.666666666667,4,1,2,5,0,0
140316,-111.111111111111,4,1,1,70,0,0
140497,-111.111111111111,4,1,1,5,0,0
140558,-111.111111111111,4,1,1,70,0,0
140739,-111.111111111111,4,1,1,5,0,0
140800,-111.111111111111,4,1,1,70,0,0
140981,-111.111111111111,4,1,1,5,0,0
141041,-111.111111111111,4,1,1,70,0,0
141223,-111.111111111111,4,1,1,5,0,0
141283,-166.666666666667,4,1,1,60,0,0
141525,-166.666666666667,4,1,2,60,0,0
141707,-166.666666666667,4,1,2,5,0,0
141767,-166.666666666667,4,1,1,60,0,0
141949,-166.666666666667,4,1,1,5,0,0
142009,-166.666666666667,4,1,2,60,0,0
142191,-166.666666666667,4,1,2,5,0,0
142251,-166.666666666667,4,1,1,60,0,0
142675,-166.666666666667,4,1,1,5,0,0
142735,-166.666666666667,4,1,1,60,0,0
142916,-166.666666666667,4,1,1,5,0,0
142977,-166.666666666667,4,1,2,60,0,0
143158,-166.666666666667,4,1,2,5,0,0
143219,-166.666666666667,4,1,1,60,0,0
143400,-166.666666666667,4,1,1,5,0,0
143461,-166.666666666667,4,1,1,60,0,0
143642,-166.666666666667,4,1,1,5,0,0
143703,-166.666666666667,4,1,1,60,0,0
143884,-166.666666666667,4,1,1,5,0,0
143945,-166.666666666667,4,1,1,60,0,0
144126,-166.666666666667,4,1,1,5,0,0
144187,-166.666666666667,4,1,1,60,0,0
145820,-166.666666666667,4,1,1,5,0,0
145880,-166.666666666667,4,1,2,60,0,0
146062,-166.666666666667,4,1,2,5,0,0
146122,-166.666666666667,4,1,1,60,0,0
146545,-166.666666666667,4,1,1,5,0,0
146606,-166.666666666667,4,1,1,60,0,0
147029,-166.666666666667,4,1,1,5,0,0
147090,-142.857142857143,4,1,1,70,0,0
147513,-142.857142857143,4,1,1,5,0,0
147574,-142.857142857143,4,1,2,60,0,0
148058,-125,4,1,1,70,0,0
148481,-125,4,1,1,5,0,0
148541,-125,4,1,2,60,0,0
149267,-166.666666666667,4,1,2,60,0,0
149449,-166.666666666667,4,1,2,5,0,0
149509,-166.666666666667,4,1,1,60,0,0
149691,-166.666666666667,4,1,1,5,0,0
149751,-166.666666666667,4,1,2,60,0,0
149933,-166.666666666667,4,1,2,5,0,0
149993,-166.666666666667,4,1,1,60,0,0
150416,-166.666666666667,4,1,1,5,0,0
150477,-166.666666666667,4,1,1,60,0,0
150658,-166.666666666667,4,1,1,5,0,0
150719,-166.666666666667,4,1,2,60,0,0
150900,-166.666666666667,4,1,2,5,0,0
150961,-166.666666666667,4,1,1,60,0,0
151142,-166.666666666667,4,1,1,5,0,0
151203,-166.666666666667,4,1,2,60,0,0
151384,-166.666666666667,4,1,2,5,0,0
151445,-166.666666666667,4,1,1,60,0,0
151626,-166.666666666667,4,1,1,5,0,0
151687,-166.666666666667,4,1,2,60,0,0
151868,-166.666666666667,4,1,2,5,0,0
151929,-166.666666666667,4,1,1,60,0,0
153138,-166.666666666667,4,1,2,60,0,0
153320,-166.666666666667,4,1,2,5,0,0
153380,-166.666666666667,4,1,1,60,0,0
153562,-166.666666666667,4,1,1,5,0,0
153622,-166.666666666667,4,1,1,60,0,0
153804,-166.666666666667,4,1,1,5,0,0
153864,-166.666666666667,4,1,1,60,0,0
154287,-166.666666666667,4,1,1,5,0,0
154348,-166.666666666667,4,1,1,60,0,0
154772,-166.666666666667,4,1,1,5,0,0
154833,240,4,1,1,70,1,0
154833,-142.857142857143,4,1,1,70,0,0
155793,472.44094488189,4,1,1,50,1,0
156759,235.294117647059,4,1,1,60,1,1
156759,-90.9090909090909,4,1,1,60,0,1
156935,-90.9090909090909,4,1,1,5,0,1
156994,-90.9090909090909,4,1,1,60,0,1
157170,-90.9090909090909,4,1,1,5,0,1
157229,-90.9090909090909,4,1,1,60,0,1
158111,-90.9090909090909,4,1,1,5,0,1
158170,-90.9090909090909,4,1,1,60,0,1
158817,-90.9090909090909,4,1,1,5,0,1
158876,-90.9090909090909,4,1,1,60,0,1
159053,-90.9090909090909,4,1,1,5,0,1
159111,-90.9090909090909,4,1,1,60,0,1
159994,-90.9090909090909,4,1,1,5,0,1
160053,-90.9090909090909,4,1,1,60,0,1
160700,-90.9090909090909,4,1,1,5,0,1
160759,-90.9090909090909,4,1,1,60,0,1
160935,-90.9090909090909,4,1,1,5,0,1
160994,-90.9090909090909,4,1,1,60,0,1
161876,-90.9090909090909,4,1,1,5,0,1
161935,-90.9090909090909,4,1,1,60,0,1
162582,-90.9090909090909,4,1,1,5,0,1
162641,-90.9090909090909,4,1,1,60,0,1
162817,-90.9090909090909,4,1,1,5,0,1
162876,-90.9090909090909,4,1,1,60,0,1
163759,-90.9090909090909,4,1,1,5,0,1
163817,-90.9090909090909,4,1,1,60,0,1
164464,-90.9090909090909,4,1,1,5,0,1
164523,-90.9090909090909,4,1,1,60,0,1
164700,-90.9090909090909,4,1,1,5,0,1
164759,-90.9090909090909,4,1,1,60,0,1
165641,-90.9090909090909,4,1,1,5,0,1
165700,-90.9090909090909,4,1,1,60,0,1
166347,-90.9090909090909,4,1,1,5,0,1
166406,-90.9090909090909,4,1,1,60,0,1
166582,-90.9090909090909,4,1,1,5,0,1
166641,-90.9090909090909,4,1,1,60,0,1
167523,-90.9090909090909,4,1,1,5,0,1
167582,-90.9090909090909,4,1,1,60,0,1
168229,-90.9090909090909,4,1,1,5,0,1
168288,-90.9090909090909,4,1,1,60,0,1
168464,-90.9090909090909,4,1,1,5,0,1
168523,-90.9090909090909,4,1,1,60,0,1
169406,-90.9090909090909,4,1,1,5,0,1
169464,-90.9090909090909,4,1,1,60,0,1
170111,-90.9090909090909,4,1,1,5,0,1
170170,-90.9090909090909,4,1,1,60,0,1
170347,-90.9090909090909,4,1,1,5,0,1
170406,-90.9090909090909,4,1,1,60,0,1
170817,-90.9090909090909,4,1,1,5,0,1
170876,-90.9090909090909,4,1,1,70,0,0
171111,-90.9090909090909,4,1,2,70,0,0
171347,-90.9090909090909,4,1,1,70,0,0
171582,-90.9090909090909,4,1,2,70,0,0
171817,-90.9090909090909,4,1,1,70,0,0
171876,-90.9090909090909,4,1,2,5,0,0
172170,-90.9090909090909,4,1,1,70,0,0
172229,-90.9090909090909,4,1,2,70,0,0
172523,-90.9090909090909,4,1,1,70,0,0
172641,-90.9090909090909,4,1,2,70,0,0
172759,-90.9090909090909,4,1,1,70,0,0
172994,-90.9090909090909,4,1,2,70,0,0
173229,-90.9090909090909,4,1,1,70,0,0
173347,-90.9090909090909,4,1,2,70,0,0
173582,-90.9090909090909,4,1,1,70,0,0
173700,-90.9090909090909,4,1,2,70,0,0
173935,-90.9090909090909,4,1,1,70,0,0
174053,-90.9090909090909,4,1,2,70,0,0
174170,-90.9090909090909,4,1,1,70,0,0
174641,-90.9090909090909,4,1,1,60,0,1
174817,-90.9090909090909,4,1,1,5,0,1
174876,-90.9090909090909,4,1,1,60,0,1
175053,-90.9090909090909,4,1,1,5,0,1
175111,-90.9090909090909,4,1,1,60,0,1
175994,-90.9090909090909,4,1,1,5,0,1
176053,-90.9090909090909,4,1,1,60,0,1
176700,-90.9090909090909,4,1,1,5,0,1
176759,-90.9090909090909,4,1,1,60,0,1
176935,-90.9090909090909,4,1,1,5,0,1
176994,-90.9090909090909,4,1,1,60,0,1
177170,-90.9090909090909,4,1,1,5,0,1
177229,-90.9090909090909,4,1,1,60,0,1
177641,-90.9090909090909,4,1,1,5,0,1
177700,-90.9090909090909,4,1,1,60,0,1
177876,-90.9090909090909,4,1,1,5,0,1
177935,-90.9090909090909,4,1,1,60,0,1
178111,-90.9090909090909,4,1,1,5,0,1
178170,-90.9090909090909,4,1,1,60,0,1
178347,-90.9090909090909,4,1,1,5,0,1
178406,-90.9090909090909,4,1,1,60,0,1
178582,-90.9090909090909,4,1,1,5,0,1
178641,-90.9090909090909,4,1,1,60,0,1
178817,-90.9090909090909,4,1,1,5,0,1
178876,-90.9090909090909,4,1,1,60,0,1
179523,-90.9090909090909,4,1,1,5,0,1
179582,-90.9090909090909,4,1,1,60,0,1
179759,-90.9090909090909,4,1,1,5,0,1
179817,-90.9090909090909,4,1,1,60,0,1
180464,-90.9090909090909,4,1,1,5,0,1
180523,-90.9090909090909,4,1,1,60,0,1
180700,-90.9090909090909,4,1,1,5,0,1
180759,-90.9090909090909,4,1,1,60,0,1
181641,-90.9090909090909,4,1,1,5,0,1
181700,-90.9090909090909,4,1,1,60,0,1
182111,-90.9090909090909,4,1,1,5,0,1
182170,-90.9090909090909,4,1,1,60,0,1
182347,-90.9090909090909,4,1,1,5,0,1
182406,-90.9090909090909,4,1,1,60,0,1
183053,-90.9090909090909,4,1,1,5,0,1
183111,-90.9090909090909,4,1,1,60,0,1
183288,-90.9090909090909,4,1,1,5,0,1
183347,-90.9090909090909,4,1,1,60,0,1
183994,-90.9090909090909,4,1,1,5,0,1
184053,-90.9090909090909,4,1,1,60,0,1
184229,-90.9090909090909,4,1,1,5,0,1
184288,-90.9090909090909,4,1,1,60,0,1
184464,-90.9090909090909,4,1,1,5,0,1
184523,-90.9090909090909,4,1,1,60,0,1
185406,-90.9090909090909,4,1,1,5,0,1
185464,-90.9090909090909,4,1,1,60,0,1
185876,-90.9090909090909,4,1,1,5,0,1
185935,-90.9090909090909,4,1,1,60,0,1
186111,-90.9090909090909,4,1,1,5,0,1
186170,-90.9090909090909,4,1,1,60,0,1
186347,-90.9090909090909,4,1,1,5,0,1
186406,-90.9090909090909,4,1,1,60,0,1
187288,-90.9090909090909,4,1,1,5,0,1
187347,-90.9090909090909,4,1,1,60,0,1
187759,-90.9090909090909,4,1,1,5,0,1
187817,-90.9090909090909,4,1,1,60,0,1
187994,-90.9090909090909,4,1,1,5,0,1
188053,-90.9090909090909,4,1,1,60,0,1
188229,-90.9090909090909,4,1,1,5,0,1
188288,-90.9090909090909,4,1,1,60,0,1
188759,-90.9090909090909,4,1,1,70,0,0
188876,-90.9090909090909,4,1,2,70,0,0
189111,-90.9090909090909,4,1,1,70,0,0
189347,-90.9090909090909,4,1,2,70,0,0
189700,-90.9090909090909,4,1,1,60,0,1
189876,-90.9090909090909,4,1,1,5,0,1
189935,-90.9090909090909,4,1,1,60,0,1
190111,-90.9090909090909,4,1,1,5,0,1
190170,-90.9090909090909,4,1,1,60,0,1
191053,-90.9090909090909,4,1,1,5,0,1
191111,-90.9090909090909,4,1,1,60,0,1
191759,-90.9090909090909,4,1,1,5,0,1
191817,-90.9090909090909,4,1,1,60,0,1
191994,-90.9090909090909,4,1,1,5,0,1
192053,-90.9090909090909,4,1,1,60,0,1
192229,-90.9090909090909,4,1,1,5,0,1
192288,-90.9090909090909,4,1,1,60,0,1
192700,-90.9090909090909,4,1,1,5,0,1
192759,-90.9090909090909,4,1,1,60,0,1
192935,-90.9090909090909,4,1,1,5,0,1
192994,-90.9090909090909,4,1,1,60,0,1
193170,-90.9090909090909,4,1,1,5,0,1
193229,-90.9090909090909,4,1,1,60,0,1
193406,-90.9090909090909,4,1,1,5,0,1
193464,-90.9090909090909,4,1,1,60,0,1
193641,-90.9090909090909,4,1,1,5,0,1
193700,-90.9090909090909,4,1,1,60,0,1
193876,-90.9090909090909,4,1,1,5,0,1
193935,-90.9090909090909,4,1,1,60,0,1
194582,-90.9090909090909,4,1,1,5,0,1
194641,-90.9090909090909,4,1,1,60,0,1
194817,-90.9090909090909,4,1,1,5,0,1
194876,-90.9090909090909,4,1,1,60,0,1
195523,-90.9090909090909,4,1,1,5,0,1
195582,-90.9090909090909,4,1,1,60,0,1
195759,-90.9090909090909,4,1,1,5,0,1
195817,-90.9090909090909,4,1,1,60,0,1
196700,-90.9090909090909,4,1,1,5,0,1
196759,-90.9090909090909,4,1,1,60,0,1
197170,-90.9090909090909,4,1,1,5,0,1
197229,-90.9090909090909,4,1,1,60,0,1
197406,-90.9090909090909,4,1,1,5,0,1
197464,-90.9090909090909,4,1,1,60,0,1
198111,-90.9090909090909,4,1,1,5,0,1
198170,-90.9090909090909,4,1,1,60,0,1
198347,-90.9090909090909,4,1,1,5,0,1
198406,-90.9090909090909,4,1,1,60,0,1
199053,-90.9090909090909,4,1,1,5,0,1
199111,-90.9090909090909,4,1,1,60,0,1
199288,-90.9090909090909,4,1,1,5,0,1
199347,-90.9090909090909,4,1,1,60,0,1
199523,-90.9090909090909,4,1,1,5,0,1
199582,-90.9090909090909,4,1,1,60,0,1
200464,-90.9090909090909,4,1,1,5,0,1
200523,-90.9090909090909,4,1,1,60,0,1
200935,-90.9090909090909,4,1,1,5,0,1
200994,-90.9090909090909,4,1,1,70,0,0
203817,265.486725663717,4,1,1,60,1,0
203817,-200,4,1,1,60,0,0
204347,-200,4,1,1,40,0,0

[Colours]
Combo1 : 255,255,128
Combo2 : 0,128,64
Combo3 : 255,126,64
Combo4 : 0,128,128

[HitObjects]
256,192,962,12,0,5198,0:0:0:0:
156,191,5315,6,0,L|255:350,1,160,2|0,0:0|0:0,0:0:0:0:
210,104,5786,1,0,0:0:0:0:
231,136,5904,1,0,0:0:0:0:
253,169,6021,1,0,0:0:0:0:
275,202,6139,2,0,L|308:250,2,40,2|0|0,0:0|0:0|0:0,0:0:0:0:
307,78,6610,5,0,0:0:0:0:
343,63,6727,1,0,0:0:0:0:
382,68,6845,1,0,0:0:0:0:
417,86,6962,2,0,L|438:43,1,40,8|0,0:0|0:0,0:0:0:0:
359,155,7198,6,0,P|405:177|449:171,1,80,2|0,0:0|0:0,0:0:0:0:
275,202,7668,1,0,0:0:0:0:
296,234,7786,1,0,0:0:0:0:
318,267,7903,1,0,0:0:0:0:
340,300,8021,2,0,L|373:348,2,40,2|0|0,0:0|0:0|0:0,0:0:0:0:
204,268,8493,5,0,0:0:0:0:
168,253,8610,1,0,0:0:0:0:
129,258,8728,1,0,0:0:0:0:
94,276,8845,2,0,L|73:233,1,40,8|0,0:0|0:0,0:0:0:0:
25,130,9080,6,0,P|63:147|111:143,1,80,2|0,0:0|0:0,0:0:0:0:
242,157,9551,1,0,0:0:0:0:
229,193,9669,1,0,0:0:0:0:
217,230,9786,1,0,0:0:0:0:
204,268,9904,2,0,L|184:322,2,40,2|0|0,0:0|0:0|0:0,0:0:0:0:
402,225,10374,5,0,0:0:0:0:
437,238,10491,1,0,0:0:0:0:
462,270,10609,1,0,0:0:0:0:
474,308,10727,2,0,L|519:292,1,40,8|0,0:0|0:0,0:0:0:0:
352,158,10962,6,0,P|331:187|320:236,2,80,2|0|0,0:0|0:0|0:0,0:0:0:0:
242,157,11668,1,0,0:0:0:0:
229,193,11786,2,0,L|213:240,1,40,2|0,0:0|0:0,0:0:0:0:
320,229,12021,2,0,L|335:276,1,40,2|0,0:0|0:0,0:0:0:0:
321,67,12257,1,0,0:0:0:0:
343,34,12374,1,0,0:0:0:0:
381,24,12492,1,0,0:0:0:0:
420,32,12610,2,0,L|450:-8,1,40,8|0,0:0|0:0,0:0:0:0:
253,11,12845,6,0,L|188:97,1,95.9999970703126,2|0,0:0|0:0,0:0:0:0:
106,80,13315,1,0,0:0:0:0:
127,112,13433,1,0,0:0:0:0:
149,145,13550,1,0,0:0:0:0:
171,178,13668,2,0,L|207:234,2,47.9999985351563,2|0|0,0:0|0:0|0:0,0:0:0:0:
117,260,14140,5,0,0:0:0:0:
82,273,14257,1,0,0:0:0:0:
57,305,14375,1,0,0:0:0:0:
45,343,14492,2,0,L|-8:326,1,47.9999985351563,8|0,0:0|0:0,0:0:0:0:
204,304,14727,6,0,P|241:291|282:242,1,95.9999970703126,2|0,0:0|0:0,0:0:0:0:
408,220,15198,1,0,0:0:0:0:
387,252,15316,1,0,0:0:0:0:
365,285,15433,1,0,0:0:0:0:
343,318,15551,2,0,L|307:374,2,47.9999985351563,2|0|0,0:0|0:0|0:0,0:0:0:0:
496,227,16022,5,0,0:0:0:0:
485,180,16139,1,0,0:0:0:0:
448,148,16257,1,0,0:0:0:0:
402,134,16374,2,0,L|421:78,1,47.9999985351563,8|0,0:0|0:0,0:0:0:0:
319,53,16610,6,0,P|264:62|216:45,1,95.9999970703126,2|0,0:0|0:0,0:0:0:0:
108,88,17080,1,0,0:0:0:0:
142,105,17198,1,0,0:0:0:0:
177,122,17315,1,0,0:0:0:0:
213,140,17433,2,0,L|272:170,2,47.9999985351563,2|0|0,0:0|0:0|0:0,0:0:0:0:
117,192,17904,5,0,0:0:0:0:
82,205,18021,1,0,0:0:0:0:
57,237,18139,1,0,0:0:0:0:
45,275,18256,2,0,L|-8:258,1,47.9999985351563,8|0,0:0|0:0,0:0:0:0:
139,275,18492,6,0,L|192:292,1,47.9999985351563,2|0,0:0|0:0,0:0:0:0:
388,282,18727,2,0,L|335:299,1,47.9999985351563
131,304,18962,6,0,L|184:321,1,47.9999985351563,2|0,0:0|0:0,0:0:0:0:
384,250,19197,2,0,L|331:267,1,47.9999985351563
123,333,19433,5,2,0:0:0:0:
123,333,20388,6,0,P|133:267|104:201,1,120,6|0,0:0|0:0,0:0:0:0:
177,96,20624,2,0,P|184:162|229:218,1,120
225,335,20859,2,0,L|281:262,1,80
369,156,21094,5,0,0:0:0:0:
369,156,21212,2,0,P|419:192|522:176,1,160,2|0,0:0|0:0,0:0:0:0:
386,47,21565,2,0,P|334:49|296:70,1,80
449,113,21800,2,0,P|473:66|474:23,1,80
369,156,22035,2,0,L|417:285,1,120
479,318,22271,6,0,P|433:300|351:309,1,120,2|0,0:0|0:0,0:0:0:0:
215,301,22506,2,0,P|261:319|343:310,1,120
478,187,22741,2,0,L|442:97,2,80
270,197,23094,6,0,P|257:130|327:52,1,160,2|0,0:0|0:0,0:0:0:0:
386,47,23447,2,0,P|334:49|296:70,1,80
142,38,23682,1,0,0:0:0:0:
91,100,23800,1,0,0:0:0:0:
168,113,23918,2,0,L|140:32,1,80
34,175,24153,6,0,L|163:197,1,120,2|0,0:0|0:0,0:0:0:0:
286,92,24388,2,0,L|157:114,1,120
0,258,24624,2,0,L|92:274,1,80
208,366,24859,5,0,0:0:0:0:
208,366,24976,2,0,P|241:308|350:276,1,160,2|0,0:0|0:0,0:0:0:0:
387,351,25329,2,0,P|413:321|424:283,1,80
284,207,25565,2,0,P|296:244|324:273,1,80
374,195,25800,2,0,P|353:146|275:113,1,120
264,14,26035,6,0,L|399:65,1,120,2|0,0:0|0:0,0:0:0:0:
486,152,26271,2,0,L|351:203,1,120
221,86,26506,2,0,L|312:120,1,80
284,207,26741,5,0,0:0:0:0:
284,207,26859,2,0,P|171:207|125:243,1,160,2|0,0:0|0:0,0:0:0:0:
32,246,27212,2,0,P|78:258|122:241,1,80
113,114,27447,2,0,P|79:147|72:194,1,80
0,323,27682,2,0,L|141:355,1,120
221,291,27918,6,0,L|362:323,1,120,6|0,0:0|0:0,0:0:0:0:
401,180,28153,2,0,L|260:212,1,120
117,349,28388,2,0,L|201:369,1,80
338,317,28624,5,0,0:0:0:0:
338,317,28741,2,0,P|371:277|360:348,1,160,2|0,0:0|0:0,0:0:0:0:
283,206,29094,2,0,L|381:185,1,80
511,129,29329,2,0,L|413:107,1,80
348,13,29565,2,0,P|305:55|233:78,1,120
189,162,29800,6,0,P|205:119|168:46,1,120,2|0,0:0|0:0,0:0:0:0:
80,173,30035,2,0,P|122:189|195:152,1,120
177,53,30271,2,0,P|127:36|86:50,2,80
283,206,30624,6,0,P|233:267|151:294,1,160,2|0,0:0|0:0,0:0:0:0:
82,270,30976,2,0,P|152:293|186:293,1,80
366,243,31212,1,0,0:0:0:0:
403,316,31330,1,0,0:0:0:0:
325,312,31448,2,0,L|370:239,1,80
437,135,31682,6,0,P|370:134|321:96,1,120,2|0,0:0|0:0,0:0:0:0:
185,148,31918,2,0,P|249:166|286:215,1,120
292,27,32153,2,0,L|207:73,1,80
50,160,32388,5,0,0:0:0:0:
50,160,32506,2,0,P|84:218|73:317,1,160,2|0,0:0|0:0,0:0:0:0:
171,369,32859,2,0,L|187:271,1,80
282,205,33094,2,0,L|294:283,1,80
185,148,33329,2,0,P|229:105|294:93,1,120
362,117,33565,6,0,L|253:42,1,120,2|0,0:0|0:0,0:0:0:0:
50,160,33800,2,0,L|135:59,1,120
399,106,34035,2,0,L|334:59,1,80
163,282,34271,5,0,0:0:0:0:
163,282,34389,2,0,P|151:229|126:303,1,191.999994140625,2|0,0:0|0:0,0:0:0:0:
282,205,34741,2,0,L|250:320,1,120
177,372,34976,2,0,P|238:348|344:368,1,160,2|0,0:0|0:0,0:0:0:0:
458,338,35329,6,0,L|407:126,1,200,6|0,0:0|0:0,0:0:0:0:
399,106,35682,1,8,0:0:0:0:
391,74,36153,1,8,0:0:0:0:
382,43,36624,1,8,0:0:0:0:
304,128,36859,6,0,L|277:222,2,80,2|0|0,0:0|0:0|0:0,0:0:0:0:
242,8,37212,2,0,L|179:214,1,200,6|0,0:0|0:0,0:0:0:0:
172,237,37565,1,8,0:0:0:0:
163,267,38035,1,8,0:0:0:0:
154,297,38506,1,8,0:0:0:0:
207,378,38741,6,0,P|268:354|374:374,1,160,2|0,0:0|0:0,0:0:0:0:
458,338,39094,2,0,P|413:249|407:126,1,200,6|0,0:0|0:0,0:0:0:0:
414,111,39447,1,8,0:0:0:0:
425,81,39918,1,8,0:0:0:0:
444,55,40389,1,8,0:0:0:0:
304,128,40624,6,0,L|277:222,2,80,2|0|0,0:0|0:0|0:0,0:0:0:0:
242,8,40977,2,0,L|179:214,1,200,6|0,0:0|0:0,0:0:0:0:
172,237,41330,1,8,0:0:0:0:
163,267,41800,1,8,0:0:0:0:
99,141,42035,6,0,B|155:107|155:107|230:125,1,120
316,98,42271,2,0,B|260:132|260:132|185:114,1,120
8,98,42506,2,0,L|150:11,1,160,6|0,0:0|0:0,0:0:0:0:
376,26,42859,6,0,P|408:83|336:196,1,200,6|0,0:0|0:0,0:0:0:0:
318,200,43212,1,8,0:0:0:0:
386,165,43682,1,8,0:0:0:0:
410,92,44153,1,8,0:0:0:0:
433,260,44388,2,0,L|501:208,2,80,2|0|0,0:0|0:0|0:0,0:0:0:0:
344,337,44741,6,0,P|307:312|154:337,1,200,6|0,0:0|0:0,0:0:0:0:
135,350,45094,1,8,0:0:0:0:
199,308,45565,1,8,0:0:0:0:
275,302,46035,1,8,0:0:0:0:
174,223,46271,2,0,L|251:186,2,80,2|0|0,0:0|0:0|0:0,0:0:0:0:
41,280,46624,6,0,P|58:212|31:118,1,160,6|0,0:0|0:0,0:0:0:0:
228,78,46976,2,0,P|170:61|112:75,1,120
18,49,47212,2,0,P|21:88|36:126,1,80
174,223,47447,5,0,0:0:0:0:
174,223,47565,2,0,P|228:246|345:207,1,160,2|0,0:0|0:0,0:0:0:0:
427,163,47918,2,0,L|308:233,1,120
393,289,48153,2,0,L|473:241,1,80,2|0,0:0|0:0,0:0:0:0:
318,117,48388,2,0,L|238:165,1,80,2|0,0:0|0:0,0:0:0:0:
33,277,48624,6,0,P|59:228|53:151,1,120,2|0,0:0|0:0,0:0:0:0:
25,27,48859,2,0,P|23:86|49:139,1,120
191,77,49094,2,0,P|138:61|102:73,1,80,2|0,0:0|0:0,0:0:0:0:
174,223,49329,1,0,0:0:0:0:
174,223,49447,2,0,P|228:246|345:207,1,160,2|0,0:0|0:0,0:0:0:0:
433,94,49800,2,0,L|426:223,1,120,8|0,0:0|0:0,0:0:0:0:
512,234,50035,6,0,P|453:241|371:333,1,160,6|0,0:0|0:0,0:0:0:0:
324,224,50388,2,0,L|335:19,1,200,6|0,0:0|0:0,0:0:0:0:
365,14,50741,1,8,0:0:0:0:
291,37,51212,1,8,0:0:0:0:
218,61,51682,1,8,0:0:0:0:
96,102,51918,2,0,L|13:58,2,80,2|0|0,0:0|0:0|0:0,0:0:0:0:
185,155,52271,6,0,P|143:183|195:295,1,200,6|0,0:0|0:0,0:0:0:0:
225,290,52624,1,8,0:0:0:0:
151,313,53094,1,8,0:0:0:0:
78,337,53565,1,8,0:0:0:0:
349,301,53800,2,0,L|427:318,2,80,2|0|0,0:0|0:0|0:0,0:0:0:0:
267,212,54153,6,0,P|319:211|407:129,1,160,6|0,0:0|0:0,0:0:0:0:
202,123,54506,2,0,P|161:173|164:239,1,120
197,294,54741,2,0,P|166:251|157:202,1,80
126,52,54976,2,0,L|74:133,1,80
86,299,55212,6,0,P|142:276|207:304,1,120,2|0,0:0|0:0,0:0:0:0:
324,303,55447,2,0,P|268:326|203:298,1,120
202,123,55682,2,0,P|249:105|306:118,1,80
312,25,55918,2,0,P|351:56|368:112,1,80
478,79,56153,6,0,P|447:122|459:213,1,120,2|0,0:0|0:0,0:0:0:0:
510,243,56388,2,0,P|470:218|388:228,1,120
291,199,56624,2,0,P|332:226|380:224,1,80,2|0,0:0|0:0,0:0:0:0:
439,316,56859,5,0,0:0:0:0:
439,316,56976,2,0,L|268:338,1,160,2|0,0:0|0:0,0:0:0:0:
126,349,57329,2,0,P|155:307|147:217,1,120
135,136,57565,2,0,P|135:190|161:228,1,80,2|0,0:0|0:0,0:0:0:0:
201,73,57800,2,0,P|120:49|66:78,1,120,2|0,0:0|0:0,0:0:0:0:
61,88,58035,1,6,0:0:0:0:
346,194,58271,5,8,0:0:0:0:
405,157,58388,1,0,0:0:0:0:
343,125,58506,1,8,0:0:0:0:
391,203,58623,1,0,0:0:0:0:
389,114,58741,1,8,0:0:0:0:
313,160,58858,1,0,0:0:0:0:
489,182,58977,6,0,L|490:288,1,95.9999970703126,2|0,0:0|0:0,0:0:0:0:
417,340,59212,1,0,0:0:0:0:
417,340,59329,2,0,P|345:283|259:314,1,191.999994140625,2|0,0:0|0:0,0:0:0:0:
166,356,59682,2,0,L|136:220,1,132.00000402832
65,190,59918,6,0,P|121:195|203:142,1,132.00000402832,2|0,0:0|0:0,0:0:0:0:
331,109,60153,2,0,P|275:104|193:157,1,132.00000402832
106,94,60388,2,0,L|115:-2,1,88.000002685547
444,49,60624,2,0,L|435:145,1,88.000002685547
208,137,60859,5,2,0:0:0:0:
208,137,60976,2,0,P|275:208|266:301,1,176.000005371094
364,252,61329,2,0,P|361:305|411:374,1,132.00000402832
484,276,61565,2,0,P|439:246|354:255,1,132.00000402832
152,249,61800,6,0,P|96:246|29:204,1,132.00000402832,2|0,0:0|0:0,0:0:0:0:
27,116,62035,2,0,L|36:273,1,132.00000402832
171,354,62271,2,0,P|225:330|247:301,1,88.000002685547
148,164,62506,2,0,P|141:222|155:256,1,88.000002685547
340,363,62741,5,2,0:0:0:0:
340,363,62859,2,0,P|359:295|481:231,1,176.000005371094
374,176,63212,2,0,L|347:83,1,88.000002685547
460,23,63447,2,0,L|436:108,1,88.000002685547
298,223,63682,6,0,L|256:78,1,132.00000402832,2|0,0:0|0:0,0:0:0:0:
36,97,63918,2,0,L|0:223,1,132.00000402832
267,231,64153,2,0,L|240:139,1,88.000002685547
68,104,64388,2,0,L|43:188,1,88.000002685547
64,327,64624,6,0,P|108:300|201:321,1,132.00000402832,2|0,0:0|0:0,0:0:0:0:
340,311,64859,2,0,P|282:341|219:329,1,132.00000402832,2|0,0:0|0:0,0:0:0:0:
170,188,65094,2,0,P|155:251|184:309,1,132.00000402832,2|0,0:0|0:0,0:0:0:0:
430,296,65329,6,0,P|398:237|324:220,1,132.00000402832,8|0,0:0|0:0,0:0:0:0:
298,223,65565,1,6,0:0:0:0:
51,254,65800,5,8,0:0:0:0:
121,252,65917,1,0,0:0:0:0:
83,191,66035,1,8,0:0:0:0:
87,285,66152,1,0,0:0:0:0:
129,205,66270,1,8,0:0:0:0:
40,207,66389,1,0,0:0:0:0:
202,296,66506,6,0,L|216:197,1,95.9999970703126,2|0,0:0|0:0,0:0:0:0:
80,47,66741,1,0,0:0:0:0:
80,47,66858,2,0,P|152:104|238:73,1,191.999994140625,2|0,0:0|0:0,0:0:0:0:
331,13,67212,2,0,L|310:162,1,132.00000402832
298,223,67447,6,0,P|341:178|424:162,1,132.00000402832,2|0,0:0|0:0,0:0:0:0:
499,48,67682,2,0,P|484:108|420:163,1,132.00000402832
202,234,67918,2,0,P|228:293|264:317,1,88.000002685547
479,229,68153,2,0,P|453:170|417:146,1,88.000002685547
312,143,68388,5,2,0:0:0:0:
312,143,68506,2,0,P|241:145|158:86,1,176.000005371094
57,14,68859,2,0,L|68:150,1,132.00000402832
81,299,69094,2,0,L|70:163,1,132.00000402832
202,234,69329,6,0,P|279:242|336:301,1,132.00000402832,2|0,0:0|0:0,0:0:0:0:
460,341,69565,2,0,P|383:333|326:274,1,132.00000402832
312,143,69800,2,0,L|342:49,1,88.000002685547
462,60,70035,2,0,L|492:154,1,88.000002685547
320,274,70271,6,0,P|247:268|194:222,1,132.00000402832,2|0,0:0|0:0,0:0:0:0:
288,20,70506,2,0,P|319:86|305:155,1,132.00000402832
91,180,70741,2,0,P|132:119|199:96,1,132.00000402832
320,274,70976,2,0,P|247:268|194:222,1,132.00000402832
234,162,71212,5,8,0:0:0:0:
311,142,71329,1,8,0:0:0:0:
201,233,71447,1,8,0:0:0:0:
185,98,71565,1,8,0:0:0:0:
371,78,71682,6,0,P|398:128|393:177,1,88.000002685547,8|0,0:0|0:0,0:0:0:0:
426,272,71918,2,0,P|399:222|404:173,1,88.000002685547,8|0,0:0|0:0,0:0:0:0:
184,97,72153,6,0,B|154:155|98:166|98:166|84:201|84:201|115:189,1,167.999994873047,2|0,0:0|0:0,0:0:0:0:
13,292,72624,2,0,B|43:234|99:223|99:223|113:188|113:188|84:204,1,167.999994873047,2|0,0:0|0:0,0:0:0:0:
254,32,73094,6,0,P|278:108|252:169,1,120,6|0,0:0|0:0,0:0:0:0:
272,279,73330,2,0,P|248:203|274:142,1,120
349,20,73565,2,0,L|375:113,1,80
400,207,73800,5,0,0:0:0:0:
400,207,73918,2,0,P|303:231|270:282,1,160,2|0,0:0|0:0,0:0:0:0:
0,313,74271,2,0,P|81:327|125:307,1,120
47,161,74506,2,0,P|43:200|57:237,1,80
185,364,74741,2,0,P|199:310|188:270,1,80
103,85,74976,6,0,P|162:90|218:71,1,120
261,175,75212,2,0,P|307:157|389:166,1,120
469,203,75447,2,0,L|518:126,2,80
222,312,75800,6,0,P|209:245|279:167,1,160,2|0,0:0|0:0,0:0:0:0:
394,83,76153,2,0,L|372:179,1,80
331,324,76388,1,0,0:0:0:0:
410,337,76506,1,0,0:0:0:0:
382,263,76624,2,0,L|325:327,1,80
111,296,76859,6,0,L|195:196,1,120,2|0,0:0|0:0,0:0:0:0:
300,220,77094,2,0,L|216:318,1,120
7,282,77330,2,0,L|67:210,1,80
132,54,77565,5,0,0:0:0:0:
132,54,77682,2,0,P|189:87|299:60,1,160,2|0,0:0|0:0,0:0:0:0:
424,56,78035,2,0,P|351:50|304:64,1,120
475,125,78271,2,0,P|501:95|512:57,1,80
385,138,78507,2,0,P|397:175|425:204,1,80
325,371,78741,6,0,L|190:320,1,120,2|0,0:0|0:0,0:0:0:0:
103,233,78977,2,0,L|238:182,1,120
368,299,79212,2,0,L|277:265,1,80
71,339,79447,5,0,0:0:0:0:
71,339,79565,2,0,P|13:286|28:160,1,200,2|0,0:0|0:0,0:0:0:0:
6,66,79918,2,0,P|61:104|121:97,1,120
225,15,80153,2,2,L|202:163,1,120,6|0,0:0|0:0,0:0:0:0:
201,173,80388,1,8,0:0:0:0:
322,68,80506,6,0,P|380:59|356:158,1,200,6|0,0:0|0:0,0:0:0:0:
327,157,80859,1,8,0:0:0:0:
380,211,81329,1,8,0:0:0:0:
434,265,81800,1,8,0:0:0:0:
478,169,82036,2,0,L|514:94,2,80,2|0|0,0:0|0:0|0:0,0:0:0:0:
389,359,82389,6,0,P|322:319|202:360,1,200,6|0,0:0|0:0,0:0:0:0:
190,375,82741,1,8,0:0:0:0:
212,301,83212,1,8,0:0:0:0:
234,227,83682,1,8,0:0:0:0:
168,156,83918,2,0,L|104:87,2,80,2|0|0,0:0|0:0|0:0,0:0:0:0:
302,299,84271,6,0,P|321:249|432:188,1,160,6|0,0:0|0:0,0:0:0:0:
512,145,84624,2,0,P|462:182|395:190,1,120
312,122,84859,2,0,P|368:146|409:200,1,120
392,304,85094,2,0,P|384:242|411:180,1,120
464,59,85329,6,0,P|414:72|378:52,1,80,2|0,0:0|0:0,0:0:0:0:
184,38,85565,2,0,L|207:182,1,120
222,259,85800,2,0,L|206:168,1,80
100,103,86035,2,0,L|123:247,1,120
53,319,86271,6,0,P|114:310|189:351,1,120,2|0,0:0|0:0,0:0:0:0:
336,270,86506,2,0,P|275:279|200:238,1,120
336,185,86741,2,0,P|388:200|408:223,1,80
485,384,86976,5,0,0:0:0:0:
485,384,87094,2,0,B|468:335|495:273|495:273|520:209|491:166,1,200,2|0,0:0|0:0,0:0:0:0:
510,105,87447,2,0,P|437:107|385:62,1,120
337,4,87683,2,0,L|255:99,1,120,12|0,0:0|0:0,0:0:0:0:
232,126,87918,1,0,0:0:0:0:
136,168,88035,6,0,P|198:130|321:167,1,200,6|0,0:0|0:0,0:0:0:0:
336,185,88388,1,8,0:0:0:0:
358,258,88859,1,8,0:0:0:0:
317,323,89329,1,8,0:0:0:0:
424,323,89565,2,0,L|515:323,2,80,2|0|0,0:0|0:0|0:0,0:0:0:0:
212,325,89918,6,0,B|150:282|98:349|41:314|7:265,1,200,6|0,0:0|0:0,0:0:0:0:
8,257,90271,1,8,0:0:0:0:
20,181,90741,1,8,0:0:0:0:
93,159,91212,1,8,0:0:0:0:
41,69,91447,2,0,L|-2:-2,2,80,2|0|0,0:0|0:0|0:0,0:0:0:0:
145,240,91800,6,0,P|198:198|291:211,1,160,6|0,0:0|0:0,0:0:0:0:
384,262,92153,2,0,L|355:131,1,120
433,28,92388,2,0,L|454:117,1,80
285,207,92624,5,0,0:0:0:0:
285,207,92741,2,0,P|261:143|340:53,1,200,2|0,0:0|0:0,0:0:0:0:
245,8,93094,2,0,L|189:83,1,80
0,111,93329,2,0,P|60:92|127:111,1,120
190,202,93565,2,0,P|130:183|63:202,1,120
190,336,93800,6,0,P|214:291|196:205,1,120,2|0,0:0|0:0,0:0:0:0:
56,210,94035,2,0,P|32:255|50:341,1,120
278,351,94271,2,0,L|317:221,1,120
325,198,94506,1,0,0:0:0:0:
391,334,94624,2,0,L|436:176,1,160,2|0,0:0|0:0,0:0:0:0:
478,28,94976,6,0,P|417:67|357:64,1,120
236,136,95212,2,0,L|262:47,1,80,2|0,0:0|0:0,0:0:0:0:
325,198,95447,2,0,P|266:241|208:241,1,120,2|0,0:0|0:0,0:0:0:0:
184,225,95682,1,6,0:0:0:0:
358,233,95918,5,8,0:0:0:0:
418,196,96035,1,0,0:0:0:0:
355,162,96153,1,8,0:0:0:0:
405,242,96270,1,0,0:0:0:0:
402,151,96388,1,8,0:0:0:0:
325,198,96505,1,0,0:0:0:0:
485,284,96624,6,0,L|500:187,1,95.9999970703126,2|0,0:0|0:0,0:0:0:0:
350,333,96859,1,0,0:0:0:0:
350,333,96976,2,0,P|256:304|145:328,1,191.999994140625,2|0,0:0|0:0,0:0:0:0:
0,280,97329,2,0,L|142:217,1,143.999995605469
41,115,97565,6,0,P|111:131|178:114,1,132.00000402832,2|0,0:0|0:0,0:0:0:0:
322,109,97800,2,0,P|252:93|185:110,1,132.00000402832
61,39,98035,2,0,P|120:57|163:32,1,88.000002685547
300,187,98271,2,0,P|241:169|198:194,1,88.000002685547
379,40,98506,5,2,0:0:0:0:
379,40,98624,2,0,P|410:96|518:136,1,176.000005371094
300,187,98976,2,0,P|317:256|378:293,1,132.00000402832
471,232,99212,2,0,P|421:283|350:284,1,132.00000402832
266,356,99447,6,0,P|197:335|126:360,1,132.00000402832,2|0,0:0|0:0,0:0:0:0:
90,250,99682,2,0,L|252:251,1,132.00000402832
51,322,99918,2,0,P|19:290|7:234,1,88.000002685547
128,178,100153,2,0,P|160:210|172:266,1,88.000002685547
19,173,100388,5,2,0:0:0:0:
19,173,100505,2,0,P|75:159|120:48,1,176.000005371094
243,23,100859,2,0,L|262:122,1,88.000002685547
36,86,101094,2,0,L|17:-13,1,88.000002685547
458,62,101329,6,0,L|430:208,1,132.00000402832,2|0,0:0|0:0,0:0:0:0:
284,239,101565,2,0,L|259:109,1,132.00000402832
424,67,101800,2,0,L|404:166,1,88.000002685547
314,223,102035,2,0,L|296:136,1,88.000002685547
474,286,102271,6,0,P|410:284|340:339,1,132.00000402832,2|0,0:0|0:0,0:0:0:0:
215,371,102506,2,0,P|279:373|349:318,1,132.00000402832
466,273,102741,2,0,P|402:271|332:326,1,132.00000402832
207,358,102976,2,0,P|271:360|341:305,1,132.00000402832
314,223,103212,1,6,0:0:0:0:
9,181,103447,5,8,0:0:0:0:
46,241,103564,1,0,0:0:0:0:
79,178,103682,1,8,0:0:0:0:
0,227,103799,1,0,0:0:0:0:
89,224,103917,1,8,0:0:0:0:
43,149,104036,1,0,0:0:0:0:
4,316,104153,6,0,P|57:326|110:296,1,95.9999970703126,2|0,0:0|0:0,0:0:0:0:
168,168,104388,1,0,0:0:0:0:
168,168,104506,2,0,P|227:208|315:132,1,191.999994140625,2|0,0:0|0:0,0:0:0:0:
211,1,104859,2,0,L|238:136,1,132.00000402832
365,281,105094,6,0,P|376:210|425:155,1,132.00000402832,2|0,0:0|0:0,0:0:0:0:
476,33,105329,2,0,P|465:104|416:159,1,132.00000402832
474,339,105565,2,0,L|451:229,1,88.000002685547
295,58,105800,2,0,L|318:168,1,88.000002685547
365,281,106035,5,2,0:0:0:0:
365,281,106153,2,0,P|294:269|193:323,1,176.000005371094
45,342,106506,2,0,P|88:320|123:226,1,132.00000402832
0,141,106741,2,0,P|-2:189|61:266,1,132.00000402832
206,208,106976,5,8,0:0:0:0:
275,152,107094,1,0,0:0:0:0:
261,64,107212,1,0,0:0:0:0:
178,35,107330,1,0,0:0:0:0:
104,82,107447,5,8,0:0:0:0:
179,11,107565,1,0,0:0:0:0:
278,44,107682,1,0,0:0:0:0:
294,148,107800,1,0,0:0:0:0:
214,217,107918,6,0,L|142:273,1,88.000002685547,8|0,0:0|0:0,0:0:0:0:
34,136,108153,2,0,L|106:80,1,88.000002685547
271,288,108388,6,0,L|199:344,1,88.000002685547,8|0,0:0|0:0,0:0:0:0:
91,207,108624,2,0,L|163:151,1,88.000002685547
425,352,108859,5,8,0:0:0:0:
337,352,108976,1,0,0:0:0:0:
271,288,109094,1,0,0:0:0:0:
294,202,109212,1,0,0:0:0:0:
374,168,109329,5,8,0:0:0:0:
270,187,109446,1,0,0:0:0:0:
243,289,109564,1,0,0:0:0:0:
315,365,109682,1,0,0:0:0:0:
420,367,109800,6,0,L|421:271,1,88.000002685547,8|0,0:0|0:0,0:0:0:0:
269,99,110035,2,0,L|269:186,1,88.000002685547,8|0,0:0|0:0,0:0:0:0:
409,131,110271,1,8,0:0:0:0:
374,254,110741,6,0,P|381:177|426:117,1,132.00000402832,6|0,0:0|0:0,0:0:0:0:
458,0,110976,2,0,P|451:77|406:137,1,132.00000402832
476,305,111212,2,0,L|477:217,1,88.000002685547
339,31,111447,5,0,0:0:0:0:
339,31,111565,2,0,P|248:44|190:128,1,176.000005371094
195,328,111918,2,0,L|196:178,1,132.00000402832
310,175,112153,2,0,L|179:249,1,132.00000402832
82,174,112389,2,0,L|211:249,1,132.00000402832
279,345,112624,6,0,P|311:293|379:271,1,132.00000402832,2|0,0:0|0:0,0:0:0:0:
500,195,112859,2,0,P|468:247|400:269,1,132.00000402832
310,175,113094,2,0,P|341:124|379:106,1,88.000002685547
422,49,113329,5,0,0:0:0:0:
422,49,113447,2,0,P|353:75|255:40,1,176.000005371094
69,56,113800,2,0,L|143:188,1,132.00000402832
225,170,114035,2,0,L|172:78,1,88.000002685547
0,104,114271,2,0,L|53:196,1,88.000002685547
0,334,114506,6,0,P|60:314|147:347,1,132.00000402832,2|0,0:0|0:0,0:0:0:0:
279,341,114741,2,0,P|219:361|132:328,1,132.00000402832
216,267,114976,2,0,P|264:240|303:244,1,88.000002685547
411,377,115212,5,0,0:0:0:0:
411,377,115329,2,0,P|379:306|455:288,1,176.000005371094
496,167,115682,2,0,P|459:226|456:296,1,132.00000402832
366,197,115918,2,0,L|446:74,1,132.00000402832
389,0,116153,2,0,L|317:110,1,132.00000402832
190,114,116388,6,0,P|256:96|321:113,1,132.00000402832,2|0,0:0|0:0,0:0:0:0:
258,198,116624,2,0,P|192:216|127:199,1,132.00000402832
0,100,116859,2,0,L|46:197,1,88.000002685547
16,323,117094,5,0,0:0:0:0:
16,323,117212,2,0,P|92:297|198:329,1,176.000005371094
360,192,117565,2,0,P|343:255|376:342,1,132.00000402832
426,371,117800,2,0,P|379:343|353:308,1,88.000002685547
258,198,118035,6,0,L|311:67,1,132.00000402832,2|0,0:0|0:0,0:0:0:0:
305,0,118271,2,0,L|250:135,1,132.00000402832,6|0,0:0|0:0,0:0:0:0:
141,166,118506,1,8,0:0:0:0:
134,186,118741,5,8,0:0:0:0:
213,311,118859,1,0,0:0:0:0:
290,205,118976,6,0,L|343:74,1,132.00000402832,2|0,0:0|0:0,0:0:0:0:
337,7,119212,2,0,L|282:142,1,132.00000402832,6|0,0:0|0:0,0:0:0:0:
173,173,119447,1,8,0:0:0:0:
166,193,119682,5,8,0:0:0:0:
245,318,119800,1,0,0:0:0:0:
342,240,119918,2,0,P|282:264|241:332,1,132.00000402832,2|0,0:0|0:0,0:0:0:0:
154,368,120153,6,0,P|142:311|74:251,1,132.00000402832,6|0,0:0|0:0,0:0:0:0:
7,139,120388,2,0,P|19:196|87:256,1,132.00000402832
166,193,120624,2,0,P|168:129|140:89,1,88.000002685547
73,56,120859,5,0,0:0:0:0:
73,56,120976,2,0,P|142:84|249:61,1,176.000005371094,2|0,0:0|0:0,0:0:0:0:
408,89,121329,2,0,L|274:173,1,132.00000402832
322,46,121565,2,0,L|403:-4,1,88.000002685547
491,131,121800,2,0,P|438:179|420:249,1,132.00000402832
500,367,122035,6,0,P|450:346|356:367,1,132.00000402832,6|0,0:0|0:0,0:0:0:0:
321,242,122271,2,0,P|327:295|393:366,1,132.00000402832
261,365,122506,2,0,L|226:263,1,88.000002685547
44,278,122741,2,0,L|15:361,1,88.000002685547
136,336,122976,6,0,L|137:231,1,88.000002685547,2|0,0:0|0:0,0:0:0:0:
84,112,123212,2,0,P|108:181|161:235,1,132.00000402832
232,281,123447,2,0,L|233:176,1,88.000002685547
182,68,123683,2,0,P|198:130|263:179,1,132.00000402832
342,207,123918,5,8,0:0:0:0:
392,135,124035,1,8,0:0:0:0:
344,60,124153,1,8,0:0:0:0:
259,87,124271,1,8,0:0:0:0:
248,174,124388,2,0,P|208:163|145:182,1,88.000002685547,8|0,0:0|0:0,0:0:0:0:
0,195,124624,2,0,P|40:206|103:187,1,88.000002685547,8|0,0:0|0:0,0:0:0:0:
198,265,124859,6,0,B|191:362|134:400|77:377|77:377|118:363|117:277|69:252|14:319|58:323,1,359.999989013672,2|0,0:0|0:0,0:0:0:0:
51,321,125800,6,0,P|32:284|34:238,1,80,6|0,0:0|0:0,0:0:0:0:
10,156,126162,1,0,0:0:0:0:
10,156,126283,2,0,P|61:171|95:163,1,80,2|0,0:0|0:0,0:0:0:0:
198,265,126767,6,0,P|178:227|180:181,1,80,2|0,0:0|0:0,0:0:0:0:
156,99,127129,1,0,0:0:0:0:
156,99,127251,2,0,P|207:114|241:106,1,80,2|0,0:0|0:0,0:0:0:0:
320,91,127735,6,0,P|318:130|300:165,1,80,2|0,0:0|0:0,0:0:0:0:
402,256,128098,1,0,0:0:0:0:
402,256,128219,2,0,P|387:205|395:171,1,80,2|0,0:0|0:0,0:0:0:0:
492,184,128703,6,0,P|493:144|511:109,1,80,2|0,0:0|0:0,0:0:0:0:
418,43,129066,1,0,0:0:0:0:
418,43,129187,1,8,0:0:0:0:
391,179,129429,1,8,0:0:0:0:
272,243,129670,6,0,P|224:259|198:288,1,80,2|0,0:0|0:0,0:0:0:0:
114,344,130033,1,0,0:0:0:0:
114,344,130154,2,0,P|162:328|188:299,1,80,2|0,0:0|0:0,0:0:0:0:
218,178,130638,6,0,P|170:194|144:223,1,80,2|0,0:0|0:0,0:0:0:0:
60,279,131001,1,0,0:0:0:0:
60,279,131122,2,0,P|108:263|134:234,1,80,2|0,0:0|0:0,0:0:0:0:
61,121,131606,6,0,P|50:158|61:203,1,80,2|0,0:0|0:0,0:0:0:0:
135,79,132090,2,0,P|108:50|63:38,1,80,2|0,0:0|0:0,0:0:0:0:
218,178,132574,5,2,0:0:0:0:
218,178,132695,2,0,L|247:123,1,55.9999982910157,8|0,0:0|0:0,0:0:0:0:
322,177,132937,1,2,0:0:0:0:
322,177,133058,2,0,L|374:143,1,55.9999982910157,8|0,0:0|0:0,0:0:0:0:
403,236,133300,2,0,L|465:233,1,55.9999982910157,8|0,0:0|0:0,0:0:0:0:
469,314,133541,6,0,L|378:316,1,71.9999978027344,6|0,0:0|0:0,0:0:0:0:
302,359,133783,1,0,0:0:0:0:
290,319,133904,1,0,0:0:0:0:
277,280,134025,2,0,L|251:197,1,71.9999978027344,2|0,0:0|0:0,0:0:0:0:
241,165,134267,2,0,L|259:224,1,47.9999985351563,8|0,0:0|0:0,0:0:0:0:
205,346,134509,6,0,L|180:267,1,71.9999978027344,2|0,0:0|0:0,0:0:0:0:
90,264,134751,1,0,0:0:0:0:
78,224,134872,1,0,0:0:0:0:
65,185,134993,2,0,L|39:102,1,71.9999978027344,2|0,0:0|0:0,0:0:0:0:
29,70,135235,2,0,L|47:129,1,47.9999985351563,8|0,0:0|0:0,0:0:0:0:
127,64,135477,6,0,P|177:76|209:66,1,71.9999978027344,2|0,0:0|0:0,0:0:0:0:
294,69,135719,1,0,0:0:0:0:
282,109,135840,1,0,0:0:0:0:
269,148,135961,2,0,L|247:216,1,71.9999978027344,2|0,0:0|0:0,0:0:0:0:
233,263,136203,2,0,L|247:217,1,47.9999985351563,8|0,0:0|0:0,0:0:0:0:
436,143,136445,6,0,P|386:155|354:145,1,71.9999978027344,2|0,0:0|0:0,0:0:0:0:
269,148,136687,1,0,0:0:0:0:
281,188,136808,1,0,0:0:0:0:
294,227,136929,2,0,L|315:295,1,71.9999978027344,2|0,0:0|0:0,0:0:0:0:
330,342,137170,2,0,L|315:296,1,47.9999985351563,8|0,0:0|0:0,0:0:0:0:
205,346,137412,6,0,L|180:267,1,71.9999978027344,2|0,0:0|0:0,0:0:0:0:
90,264,137654,1,0,0:0:0:0:
78,224,137775,1,0,0:0:0:0:
65,185,137896,2,0,L|39:102,1,71.9999978027344,2|0,0:0|0:0,0:0:0:0:
29,70,138138,2,0,L|47:129,1,47.9999985351563,8|0,0:0|0:0,0:0:0:0:
127,101,138380,6,0,L|152:180,1,71.9999978027344,2|0,0:0|0:0,0:0:0:0:
242,183,138622,1,0,0:0:0:0:
254,223,138743,1,0,0:0:0:0:
267,262,138864,2,0,L|293:345,1,71.9999978027344,2|0,0:0|0:0,0:0:0:0:
303,377,139106,2,0,L|285:318,1,47.9999985351563,8|0,0:0|0:0,0:0:0:0:
354,281,139348,6,0,P|385:250|424:236,1,71.9999978027344,2|0,0:0|0:0,0:0:0:0:
475,266,139590,2,0,P|432:254|401:227,1,71.9999978027344,2|0,0:0|0:0,0:0:0:0:
402,168,139832,2,0,P|413:210|405:251,1,71.9999978027344,2|0,0:0|0:0,0:0:0:0:
354,281,140074,2,0,P|385:250|424:236,1,71.9999978027344,2|0,0:0|0:0,0:0:0:0:
505,171,140316,6,0,L|467:53,1,107.999996704102,8|0,0:0|0:0,0:0:0:0:
279,92,140558,2,0,L|317:210,1,107.999996704102,8|0,0:0|0:0,0:0:0:0:
490,163,140800,6,0,L|452:45,1,107.999996704102,8|0,0:0|0:0,0:0:0:0:
264,84,141041,2,0,L|302:202,1,107.999996704102,8|0,0:0|0:0,0:0:0:0:
354,281,141283,5,6,0:0:0:0:
225,229,141525,2,0,P|201:265|200:313,1,71.9999978027344
155,237,141767,2,0,P|174:275|215:300,1,71.9999978027344
127,301,142009,2,0,P|170:303|211:280,1,71.9999978027344
35,337,142251,6,0,P|14:255|35:159,1,167.999994873047,2|0,0:0|0:0,0:0:0:0:
12,76,142735,2,0,P|57:94|96:88,1,71.9999978027344
60,25,142977,2,0,P|66:72|91:103,1,71.9999978027344
151,32,143219,6,0,L|171:109,1,71.9999978027344,2|0,0:0|0:0,0:0:0:0:
278,83,143461,2,0,L|258:160,1,71.9999978027344
169,101,143703,2,0,L|189:178,1,71.9999978027344
259,152,143945,2,0,L|239:229,1,71.9999978027344
187,170,144187,2,0,P|225:318|239:369,1,191.999994140625,2|0,0:0|0:0,0:0:0:0:
235,355,145154,5,2,0:0:0:0:
391,369,145638,2,0,P|401:332|424:303,1,71.9999978027344
351,311,145880,2,0,P|388:301|424:306,1,71.9999978027344
342,238,146122,2,0,P|370:224|395:97,1,167.999994873047,2|0,0:0|0:0,0:0:0:0:
225,148,146606,2,0,P|231:178|347:235,1,167.999994873047
319,145,147090,6,0,P|268:68|170:68,1,195.999994018555,6|0,0:0|0:0,0:0:0:0:
54,71,147574,2,0,P|112:92|164:74,1,111.999996582031,8|0,0:0|0:0,0:0:0:0:
488,205,148058,6,0,P|437:128|315:148,1,224,6|0,0:0|0:0,0:0:0:0:
187,154,148542,2,0,P|245:175|309:152,1,128,8|0,0:0|0:0,0:0:0:0:
482,57,149025,5,6,0:0:0:0:
389,212,149267,2,0,L|342:282,1,71.9999978027344
420,276,149509,2,0,L|335:270,1,71.9999978027344
379,335,149751,2,0,L|341:259,1,71.9999978027344
267,351,149993,6,0,P|217:329|102:350,1,167.999994873047,2|0,0:0|0:0,0:0:0:0:
6,301,150477,2,0,L|83:264,1,71.9999978027344
11,229,150719,2,0,L|81:277,1,71.9999978027344
105,187,150961,6,0,P|108:155|89:104,1,71.9999978027344,2|0,0:0|0:0,0:0:0:0:
161,145,151203,2,0,P|131:158|97:200,1,71.9999978027344
97,117,151445,2,0,P|123:135|176:144,1,71.9999978027344
105,187,151687,2,0,P|108:155|89:104,1,71.9999978027344
175,231,151929,2,0,P|211:217|168:254,1,191.999994140625,2|0,0:0|0:0,0:0:0:0:
169,263,152896,5,2,0:0:0:0:
341,264,153138,2,0,L|359:339,1,71.9999978027344
445,204,153380,2,0,L|427:279,1,71.9999978027344
324,193,153622,2,0,L|342:268,1,71.9999978027344
475,107,153864,6,0,P|432:113|325:50,1,167.999994873047,2|0,0:0|0:0,0:0:0:0:
195,33,154348,2,0,L|234:196,1,167.999994873047
106,358,154833,6,0,P|147:318|321:330,1,223.999993164063,6|0,0:0|0:0,0:0:0:0:
304,317,155793,6,0,P|197:297|135:327,1,160,6|0,0:0|0:0,0:0:0:0:
52,245,156759,6,0,P|95:226|140:139,1,132.00000402832,6|0,0:0|0:0,0:0:0:0:
0,17,156994,2,0,P|-5:63|43:148,1,132.00000402832
220,85,157229,2,0,P|230:36|217:-12,1,88.000002685547
141,157,157464,5,0,0:0:0:0:
141,157,157582,2,0,P|223:191|318:129,1,176.000005371094,2|0,0:0|0:0,0:0:0:0:
451,263,157935,2,0,L|319:351,1,132.00000402832
220,323,158170,2,0,L|300:267,1,88.000002685547
512,321,158406,2,0,L|432:377,1,88.000002685547
128,356,158641,6,0,P|131:288|174:241,1,132.00000402832,2|0,0:0|0:0,0:0:0:0:
253,118,158876,2,0,P|192:149|130:135,1,132.00000402832
178,47,159111,2,0,P|216:25|282:35,2,88.000002685547
171,242,159464,6,0,P|235:268|345:236,1,176.000005371094,2|0,0:0|0:0,0:0:0:0:
371,122,159817,2,0,P|368:192|322:254,1,132.00000402832
384,346,160053,1,0,0:0:0:0:
471,336,160171,1,0,0:0:0:0:
429,271,160288,2,0,L|383:349,1,88.000002685547
171,242,160523,6,0,P|235:268|322:252,1,132.00000402832,2|0,0:0|0:0,0:0:0:0:
130,121,160759,2,0,P|75:163|45:246,1,132.00000402832
252,168,160994,2,0,L|252:69,1,88.000002685547
48,43,161229,5,0,0:0:0:0:
48,43,161347,2,0,L|49:246,1,176.000005371094,2|0,0:0|0:0,0:0:0:0:
138,369,161700,2,0,L|172:236,1,132.00000402832
293,265,161935,2,0,L|266:372,1,88.000002685547
27,304,162170,2,0,L|54:197,1,88.000002685547
130,121,162406,6,0,P|195:161|270:153,1,132.00000402832,2|0,0:0|0:0,0:0:0:0:
344,47,162641,2,0,P|341:123|386:184,1,132.00000402832
452,175,162876,2,0,P|405:160|348:183,1,88.000002685547
366,384,163111,5,0,0:0:0:0:
366,384,163229,2,0,P|418:339|399:232,1,176.000005371094,2|0,0:0|0:0,0:0:0:0:
243,237,163582,2,0,P|281:289|352:297,1,132.00000402832
161,200,163817,2,0,L|168:297,1,88.000002685547
323,220,164053,2,0,L|316:123,1,88.000002685547
134,106,164288,6,0,P|195:105|267:42,1,132.00000402832,6|0,0:0|0:0,0:0:0:0:
57,25,164523,2,0,P|25:77|45:172,1,132.00000402832
167,287,164759,2,0,L|161:200,1,88.000002685547
83,345,164994,5,0,0:0:0:0:
83,345,165111,2,0,P|156:388|246:352,1,176.000005371094,2|0,0:0|0:0,0:0:0:0:
247,222,165464,2,0,P|277:271|356:298,1,132.00000402832
268,140,165700,2,0,P|244:189|248:226,1,88.000002685547
428,319,165935,2,0,P|428:275|406:237,1,88.000002685547
181,75,166170,6,0,L|145:226,1,132.00000402832,2|0,0:0|0:0,0:0:0:0:
43,208,166406,2,0,L|73:79,1,132.00000402832
268,140,166641,2,0,P|315:130|365:141,2,88.000002685547
150,203,166994,6,0,P|202:257|316:269,1,176.000005371094,2|0,0:0|0:0,0:0:0:0:
420,236,167347,2,0,P|363:238|287:284,1,132.00000402832
84,263,167582,1,0,0:0:0:0:
48,334,167700,1,0,0:0:0:0:
135,334,167817,2,0,L|74:250,1,88.000002685547
11,107,168053,6,0,P|67:122|159:101,1,132.00000402832,2|0,0:0|0:0,0:0:0:0:
289,102,168288,2,0,P|233:87|141:108,1,132.00000402832
317,182,168523,2,0,P|362:148|374:109,1,88.000002685547
227,177,168759,5,0,0:0:0:0:
227,177,168876,2,0,P|241:233|361:264,1,176.000005371094,2|0,0:0|0:0,0:0:0:0:
454,168,169229,2,0,P|433:226|435:311,1,132.00000402832
276,357,169464,2,0,L|177:307,1,88.000002685547
0,290,169700,2,0,L|78:250,1,88.000002685547
227,177,169935,6,0,P|261:108|331:92,1,132.00000402832,2|0,0:0|0:0,0:0:0:0:
374,102,170170,2,0,P|321:95|266:36,1,132.00000402832
125,145,170406,2,0,L|191:50,1,88.000002685547
317,180,170641,2,0,P|283:249|213:265,1,132.00000402832
199,261,170876,5,8,0:0:0:0:
266,280,170994,1,0,0:0:0:0:
333,298,171111,1,0,0:0:0:0:
400,319,171229,1,0,0:0:0:0:
429,349,171347,5,8,0:0:0:0:
362,328,171465,1,0,0:0:0:0:
295,310,171582,1,0,0:0:0:0:
228,291,171700,1,0,0:0:0:0:
117,233,171817,6,0,L|117:295,1,44.0000013427735,8|0,0:0|0:0,0:0:0:0:
61,322,171935,1,0,0:0:0:0:
61,322,172053,1,0,0:0:0:0:
83,161,172170,6,0,L|83:223,1,44.0000013427735,8|0,0:0|0:0,0:0:0:0:
27,250,172288,1,0,0:0:0:0:
27,250,172406,1,0,0:0:0:0:
24,99,172523,6,0,P|78:78|124:89,1,88.000002685547,2|0,0:0|0:0,0:0:0:0:
269,176,172759,1,8,0:0:0:0:
227,98,172876,1,0,0:0:0:0:
278,25,172994,1,0,0:0:0:0:
364,40,173111,1,0,0:0:0:0:
388,124,173229,5,8,0:0:0:0:
319,107,173347,1,0,0:0:0:0:
363,53,173464,1,0,0:0:0:0:
387,137,173582,5,8,0:0:0:0:
318,120,173700,1,0,0:0:0:0:
362,66,173817,1,0,0:0:0:0:
386,150,173935,5,8,0:0:0:0:
317,133,174053,1,0,0:0:0:0:
227,98,174170,5,8,0:0:0:0:
243,184,174288,1,0,0:0:0:0:
258,270,174406,1,2,0:0:0:0:
274,355,174523,1,0,0:0:0:0:
163,323,174641,6,0,L|137:179,1,132.00000402832,6|0,0:0|0:0,0:0:0:0:
50,152,174876,2,0,L|20:280,1,132.00000402832
274,355,175111,2,0,L|252:243,1,88.000002685547
125,79,175347,5,0,0:0:0:0:
125,79,175464,2,0,P|190:121|293:87,1,176.000005371094,2|0,0:0|0:0,0:0:0:0:
474,104,175817,2,0,P|414:116|376:187,1,132.00000402832
479,274,176053,2,0,L|462:187,1,88.000002685547
257,268,176288,2,0,L|274:355,1,88.000002685547
368,279,176523,6,0,L|339:136,1,132.00000402832,2|0,0:0|0:0,0:0:0:0:
315,20,176759,2,0,L|341:149,1,132.00000402832
257,268,176994,2,0,P|196:301|116:290,1,132.00000402832
109,160,177229,2,0,P|161:182|182:224,1,88.000002685547
45,233,177464,6,0,P|15:177|36:101,1,132.00000402832,2|0,0:0|0:0,0:0:0:0:
142,70,177700,2,0,P|78:69|21:124,1,132.00000402832
54,239,177935,2,0,P|24:183|45:107,1,132.00000402832
151,76,178171,2,0,P|87:75|30:130,1,132.00000402832
109,160,178406,6,0,P|181:177|251:145,1,132.00000402832,2|0,0:0|0:0,0:0:0:0:
379,139,178641,2,0,P|307:122|237:154,1,132.00000402832
309,295,178876,2,0,P|321:249|313:202,1,88.000002685547
385,53,179111,2,0,P|373:99|381:146,1,88.000002685547
432,309,179347,6,0,P|380:284|294:304,1,132.00000402832,2|0,0:0|0:0,0:0:0:0:
113,232,179582,2,0,P|165:257|251:237,1,132.00000402832
174,78,179817,2,0,L|181:174,1,88.000002685547
279,42,180053,2,0,L|260:136,1,88.000002685547
385,53,180288,6,0,P|373:99|397:180,1,132.00000402832,2|0,0:0|0:0,0:0:0:0:
484,208,180523,2,0,P|425:201|348:237,1,132.00000402832
319,310,180759,2,0,P|275:268|267:239,1,88.000002685547
196,301,180994,2,0,P|178:242|186:213,1,88.000002685547
97,228,181229,6,0,P|111:168|132:147,1,88.000002685547,2|0,0:0|0:0,0:0:0:0:
212,120,181464,2,0,P|150:127|71:87,1,132.00000402832
280,67,181700,2,0,P|297:125|289:154,1,88.000002685547
384,192,181935,6,0,L|405:61,1,132.00000402832,2|0,0:0|0:0,0:0:0:0:
442,43,182170,2,0,L|416:200,1,132.00000402832,6|0,0:0|0:0,0:0:0:0:
448,308,182406,1,8,0:0:0:0:
454,330,182641,5,8,0:0:0:0:
323,345,182759,1,0,0:0:0:0:
347,210,182876,6,0,L|368:79,1,132.00000402832,2|0,0:0|0:0,0:0:0:0:
405,61,183111,2,0,L|379:218,1,132.00000402832,6|0,0:0|0:0,0:0:0:0:
411,326,183347,1,8,0:0:0:0:
417,348,183582,5,8,0:0:0:0:
286,363,183700,1,0,0:0:0:0:
310,228,183817,2,0,L|331:97,1,132.00000402832,2|0,0:0|0:0,0:0:0:0:
379,20,184053,6,0,P|339:74|262:85,1,132.00000402832,6|0,0:0|0:0,0:0:0:0:
148,153,184288,2,0,P|188:99|265:88,1,132.00000402832
216,215,184523,2,0,P|168:243|116:241,1,88.000002685547
268,348,184759,2,0,P|267:292|295:248,1,88.000002685547
128,323,184994,6,0,P|176:350|200:396,1,88.000002685547,2|0,0:0|0:0,0:0:0:0:
354,321,185229,2,0,P|422:328|493:287,1,132.00000402832
337,190,185464,2,0,P|385:217|409:263,1,88.000002685547
216,215,185700,2,0,P|219:150|258:95,1,132.00000402832
342,68,185935,6,0,P|283:86|207:56,1,132.00000402832,6|0,0:0|0:0,0:0:0:0:
68,68,186170,2,0,P|113:110|125:190,1,132.00000402832
225,302,186406,2,0,L|213:191,1,88.000002685547
463,222,186641,2,0,L|453:309,1,88.000002685547
337,278,186876,6,0,L|337:188,1,88.000002685547,2|0,0:0|0:0,0:0:0:0:
421,93,187111,2,0,P|387:143|308:170,1,132.00000402832
322,257,187347,2,0,L|322:167,1,88.000002685547,2|0,0:0|0:0,0:0:0:0:
406,72,187582,2,0,P|372:122|293:149,1,132.00000402832
185,73,187817,6,0,P|236:44|329:71,1,132.00000402832,2|0,0:0|0:0,0:0:0:0:
159,172,188053,2,0,P|108:142|85:48,1,132.00000402832
13,148,188288,2,0,L|55:247,1,88.000002685547
258,131,188523,2,0,L|272:237,1,88.000002685547
495,166,188759,5,8,0:0:0:0:
415,202,188876,1,0,0:0:0:0:
415,290,188994,1,0,0:0:0:0:
494,327,189111,1,0,0:0:0:0:
487,254,189229,5,8,0:0:0:0:
415,202,189346,1,0,0:0:0:0:
339,246,189464,1,0,0:0:0:0:
347,333,189581,1,0,0:0:0:0:
415,290,189700,6,0,L|416:144,1,132.00000402832,6|0,0:0|0:0,0:0:0:0:
219,126,189935,2,0,L|219:263,1,132.00000402832
321,143,190170,2,0,L|322:31,1,88.000002685547
477,35,190406,5,0,0:0:0:0:
477,35,190523,2,0,P|412:77|309:43,1,176.000005371094,2|0,0:0|0:0,0:0:0:0:
122,57,190876,2,0,P|182:69|220:140,1,132.00000402832
138,230,191111,2,0,L|139:118,1,88.000002685547
321,143,191347,2,0,L|320:230,1,88.000002685547
133,347,191582,6,0,P|84:341|21:266,1,132.00000402832,2|0,0:0|0:0,0:0:0:0:
59,166,191817,2,0,P|22:219|26:284,1,132.00000402832
255,268,192053,2,0,P|316:301|396:290,1,132.00000402832
403,160,192288,2,0,P|351:182|330:224,1,88.000002685547
467,233,192523,6,0,P|497:177|476:101,1,132.00000402832,2|0,0:0|0:0,0:0:0:0:
370,70,192759,2,0,P|434:69|491:124,1,132.00000402832
458,239,192994,2,0,P|488:183|467:107,1,132.00000402832
361,76,193230,2,0,P|425:75|482:130,1,132.00000402832
403,160,193465,6,0,P|331:177|261:145,1,132.00000402832,2|0,0:0|0:0,0:0:0:0:
133,139,193700,2,0,P|205:122|275:154,1,132.00000402832
203,295,193935,2,0,P|191:249|199:202,1,88.000002685547
127,53,194170,2,0,P|139:99|131:146,1,88.000002685547
80,309,194406,6,0,P|132:284|218:304,1,132.00000402832,2|0,0:0|0:0,0:0:0:0:
399,232,194641,2,0,P|347:257|261:237,1,132.00000402832
338,78,194876,2,0,L|331:174,1,88.000002685547
233,42,195112,2,0,L|252:136,1,88.000002685547
127,53,195347,6,0,P|139:99|115:180,1,132.00000402832,2|0,0:0|0:0,0:0:0:0:
28,208,195582,2,0,P|87:201|164:237,1,132.00000402832
193,310,195818,2,0,P|237:268|245:239,1,88.000002685547
316,301,196053,2,0,P|334:242|326:213,1,88.000002685547
415,228,196288,6,0,P|401:168|380:147,1,88.000002685547,2|0,0:0|0:0,0:0:0:0:
300,120,196523,2,0,P|362:127|441:87,1,132.00000402832
232,67,196759,2,0,P|215:125|223:154,1,88.000002685547
128,192,196994,6,0,L|107:61,1,132.00000402832,2|0,0:0|0:0,0:0:0:0:
70,43,197229,2,0,L|96:200,1,132.00000402832,6|0,0:0|0:0,0:0:0:0:
64,308,197465,1,8,0:0:0:0:
58,330,197700,5,8,0:0:0:0:
189,345,197818,1,0,0:0:0:0:
165,210,197935,6,0,L|144:79,1,132.00000402832,2|0,0:0|0:0,0:0:0:0:
107,61,198170,2,0,L|133:218,1,132.00000402832,6|0,0:0|0:0,0:0:0:0:
101,326,198406,1,8,0:0:0:0:
95,348,198641,5,8,0:0:0:0:
226,363,198759,1,0,0:0:0:0:
202,228,198876,2,0,L|181:97,1,132.00000402832,2|0,0:0|0:0,0:0:0:0:
133,20,199112,6,0,P|173:74|250:85,1,132.00000402832,6|0,0:0|0:0,0:0:0:0:
364,153,199347,2,0,P|324:99|247:88,1,132.00000402832
296,215,199582,2,0,P|344:243|396:241,1,88.000002685547
244,348,199818,2,0,P|245:292|217:248,1,88.000002685547
384,323,200053,6,0,P|336:350|312:396,1,88.000002685547,2|0,0:0|0:0,0:0:0:0:
158,321,200288,2,0,P|90:328|19:287,1,132.00000402832
175,190,200523,2,0,P|127:217|103:263,1,88.000002685547
296,215,200759,2,0,P|293:150|254:95,1,132.00000402832
219,71,200994,5,8,0:0:0:0:
299,106,201111,1,0,0:0:0:0:
379,141,201229,1,0,0:0:0:0:
459,176,201347,1,0,0:0:0:0:
512,161,201464,5,8,0:0:0:0:
432,126,201582,1,0,0:0:0:0:
352,91,201700,1,0,0:0:0:0:
272,56,201817,1,0,0:0:0:0:
137,46,201935,6,0,P|140:102|173:141,1,88.000002685547,8|0,0:0|0:0,0:0:0:0:
257,239,202170,2,0,P|254:183|221:144,1,88.000002685547,8|0,0:0|0:0,0:0:0:0:
101,50,202406,6,0,P|104:106|137:145,1,88.000002685547,8|0,0:0|0:0,0:0:0:0:
291,232,202641,2,0,P|288:176|255:137,1,88.000002685547,8|0,0:0|0:0,0:0:0:0:
181,218,202876,5,8,0:0:0:0:
197,304,202994,1,0,0:0:0:0:
277,337,203111,1,0,0:0:0:0:
352,291,203229,1,0,0:0:0:0:
368,204,203347,5,8,0:0:0:0:
370,305,203465,1,0,0:0:0:0:
292,365,203582,1,0,0:0:0:0:
196,332,203700,1,0,0:0:0:0:
181,218,203817,6,0,P|197:178|188:56,2,160,8|0|0,0:0|0:0|0:0,0:0:0:0:
