osu file format v14

[General]
AudioFilename: audio.mp3
AudioLeadIn: 0
PreviewTime: 57806
Countdown: 0
SampleSet: Normal
StackLeniency: 0.7
Mode: 0
LetterboxInBreaks: 0
WidescreenStoryboard: 0

[Editor]
Bookmarks: 20394,43218,58983,80865,96630,110747,125806,156764,170881,174646,200999
DistanceSpacing: 0.1
BeatDivisor: 4
GridSize: 8
TimelineZoom: 2.1

[Metadata]
Title:Bang Bang
TitleUnicode:Bang Bang
Artist:Green Day
ArtistUnicode:Green Day
Creator:- Drummer-
Version:Mommy's Little Soldier
Source:
Tags:revolution radio punk rock
BeatmapID:1141858
BeatmapSetID:538927

[Difficulty]
HPDrainRate:5.5
CircleSize:4
OverallDifficulty:8.5
ApproachRate:10
SliderMultiplier:1.6
SliderTickRate:1

[Events]
//Background and Video events
0,0,"bg.jpg",0,0
//Break Periods
2,73300,79634
//Storyboard Layer 0 (Background)
//Storyboard Layer 1 (Fail)
//Storyboard Layer 2 (Pass)
//Storyboard Layer 3 (Foreground)
//Storyboard Sound Samples

[TimingPoints]
630,235.294117647059,4,2,1,20,1,0
982,-100,4,2,1,5,0,0
1571,-100,4,2,1,10,0,0
2512,-100,4,2,1,15,0,0
3453,-100,4,2,1,20,0,0
4394,-100,4,2,1,15,0,0
5100,-100,4,2,1,10,0,0
5218,-100,4,2,1,5,0,0
5336,-200,4,2,1,20,0,0
6983,-200,4,2,1,30,0,0
7218,-200,4,2,1,20,0,0
8865,-200,4,2,1,30,0,0
9100,-200,4,2,1,20,0,0
10747,-200,4,2,1,30,0,0
10983,-200,4,2,1,20,0,0
12630,-200,4,2,1,30,0,0
12865,-166.666666666667,4,2,1,30,0,0
14512,-166.666666666667,4,2,1,40,0,0
14747,-166.666666666667,4,2,1,30,0,0
16394,-166.666666666667,4,2,1,40,0,0
16630,-166.666666666667,4,2,1,30,0,0
18277,-166.666666666667,4,2,1,40,0,0
18747,-166.666666666667,4,2,1,30,0,0
18983,-166.666666666667,4,2,2,30,0,0
19218,-166.666666666667,4,2,1,30,0,0
19453,-166.666666666667,4,2,1,40,0,0
20394,-100,4,1,1,60,0,0
34394,-83.3333333333333,4,1,1,80,0,0
34747,-100,4,1,1,60,0,0
35688,-100,4,1,1,50,0,0
36865,-100,4,1,1,60,0,0
37571,-100,4,1,1,50,0,0
38747,-100,4,1,1,60,0,0
39453,-100,4,1,1,50,0,0
40630,-100,4,1,1,60,0,0
41336,-100,4,1,1,50,0,0
42512,-100,4,1,1,60,0,0
43218,-125,4,1,1,50,0,0
44394,-100,4,1,1,60,0,0
45100,-125,4,1,1,50,0,0
46277,-100,4,1,1,60,0,0
50747,-125,4,1,1,50,0,0
51924,-100,4,1,1,60,0,0
52630,-125,4,1,1,50,0,0
53806,-100,4,1,1,60,0,0
58277,-100,4,1,1,70,0,0
58983,-83.3333333333333,4,1,1,70,0,1
59688,-90.9090909090909,4,1,1,60,0,1
59924,-90.9090909090909,4,1,1,60,0,0
65806,-90.9090909090909,4,1,1,70,0,0
66512,-83.3333333333333,4,1,1,70,0,1
67218,-90.9090909090909,4,1,1,60,0,1
67453,-90.9090909090909,4,1,1,60,0,0
71453,-90.9090909090909,4,1,2,60,0,0
71688,-90.9090909090909,4,1,1,60,0,0
72159,-166.666666666667,4,1,1,50,0,0
73100,-100,4,1,1,60,0,0
80159,-100,4,1,1,60,0,0
80865,-125,4,1,1,50,0,0
82041,-100,4,1,1,60,0,0
82747,-125,4,1,1,50,0,0
83924,-100,4,1,1,60,0,0
88394,-125,4,1,1,50,0,0
89571,-100,4,1,1,60,0,0
90277,-125,4,1,1,50,0,0
91453,-100,4,1,1,60,0,0
95924,-100,4,1,1,70,0,0
96630,-83.3333333333333,4,1,1,70,0,1
97336,-90.9090909090909,4,1,1,60,0,1
97571,-90.9090909090909,4,1,1,60,0,0
103453,-90.9090909090909,4,1,1,70,0,0
104159,-83.3333333333333,4,1,1,70,0,1
104865,-90.9090909090909,4,1,1,60,0,1
105100,-90.9090909090909,4,1,1,60,0,0
106983,-90.9090909090909,4,1,1,70,0,0
110747,-90.9090909090909,4,1,1,60,0,1
123924,-90.9090909090909,4,1,1,60,0,0
124159,-90.9090909090909,4,1,2,60,0,0
124394,-90.9090909090909,4,1,1,60,0,0
124865,-166.666666666667,4,1,1,50,0,0
125806,241.935483870968,4,1,1,50,1,0
125806,-200,4,1,1,50,0,0
129435,-200,4,1,2,50,0,0
129676,-200,4,1,1,50,0,0
132580,-142.857142857143,4,1,1,60,0,0
132701,-142.857142857143,4,1,2,60,0,0
132822,-142.857142857143,4,1,2,50,0,0
132943,-142.857142857143,4,1,1,60,0,0
133185,-142.857142857143,4,1,2,50,0,0
133426,-142.857142857143,4,1,1,50,0,0
133547,-166.666666666667,4,1,1,60,0,0
133910,-166.666666666667,4,1,2,60,0,0
134031,-166.666666666667,4,1,1,60,0,0
134273,-166.666666666667,4,1,2,60,0,0
134515,-166.666666666667,4,1,1,60,0,0
134757,-166.666666666667,4,1,2,60,0,0
134999,-166.666666666667,4,1,1,60,0,0
135241,-166.666666666667,4,1,2,60,0,0
135483,-166.666666666667,4,1,1,60,0,0
135725,-166.666666666667,4,1,2,60,0,0
135967,-166.666666666667,4,1,1,60,0,0
136330,-166.666666666667,4,1,2,60,0,0
136451,-166.666666666667,4,1,1,60,0,0
136693,-166.666666666667,4,1,2,60,0,0
136935,-166.666666666667,4,1,1,60,0,0
137176,-166.666666666667,4,1,2,60,0,0
137418,-166.666666666667,4,1,1,60,0,0
137660,-166.666666666667,4,1,2,60,0,0
137902,-166.666666666667,4,1,1,60,0,0
138265,-166.666666666667,4,1,2,60,0,0
138386,-166.666666666667,4,1,1,60,0,0
138628,-166.666666666667,4,1,2,60,0,0
138870,-166.666666666667,4,1,1,60,0,0
139112,-166.666666666667,4,1,2,60,0,0
139354,-166.666666666667,4,1,1,60,0,0
139596,-166.666666666667,4,1,2,60,0,0
139838,-166.666666666667,4,1,1,60,0,0
140080,-166.666666666667,4,1,2,60,0,0
140322,-111.111111111111,4,1,1,70,0,0
140443,-111.111111111111,4,1,1,50,0,0
140564,-111.111111111111,4,1,1,70,0,0
140685,-111.111111111111,4,1,1,50,0,0
140806,-111.111111111111,4,1,1,70,0,0
140926,-111.111111111111,4,1,1,50,0,0
141047,-111.111111111111,4,1,1,70,0,0
141168,-111.111111111111,4,1,1,50,0,0
141289,-166.666666666667,4,1,1,60,0,0
141531,-166.666666666667,4,1,2,60,0,0
141773,-166.666666666667,4,1,1,60,0,0
142015,-166.666666666667,4,1,2,60,0,0
142257,-166.666666666667,4,1,1,60,0,0
142983,-166.666666666667,4,1,2,60,0,0
143225,-166.666666666667,4,1,1,60,0,0
144556,-166.666666666667,4,1,2,60,0,0
144676,-166.666666666667,4,1,1,60,0,0
144918,-166.666666666667,4,1,2,60,0,0
145160,-166.666666666667,4,1,1,60,0,0
145402,-166.666666666667,4,1,2,60,0,0
145644,-166.666666666667,4,1,1,60,0,0
145886,-166.666666666667,4,1,2,60,0,0
146128,-166.666666666667,4,1,1,60,0,0
146854,-166.666666666667,4,1,2,60,0,0
147096,-142.857142857143,4,1,1,70,0,0
147156,-142.857142857143,4,1,1,60,0,0
147580,-142.857142857143,4,1,2,60,0,0
148064,-125,4,1,1,70,0,0
148124,-125,4,1,1,60,0,0
148547,-125,4,1,2,60,0,0
149031,-166.666666666667,4,1,1,60,0,0
149273,-166.666666666667,4,1,2,60,0,0
149515,-166.666666666667,4,1,1,60,0,0
149636,-166.666666666667,4,1,1,40,0,0
149757,-166.666666666667,4,1,2,60,0,0
149999,-166.666666666667,4,1,1,60,0,0
150725,-166.666666666667,4,1,2,60,0,0
150967,-166.666666666667,4,1,1,60,0,0
151209,-166.666666666667,4,1,2,60,0,0
151451,-166.666666666667,4,1,1,60,0,0
151693,-166.666666666667,4,1,2,60,0,0
151935,-166.666666666667,4,1,1,60,0,0
152176,-166.666666666667,4,1,2,60,0,0
152418,-166.666666666667,4,1,1,60,0,0
152660,-166.666666666667,4,1,2,60,0,0
152902,-166.666666666667,4,1,1,60,0,0
153144,-166.666666666667,4,1,2,60,0,0
153386,-166.666666666667,4,1,1,60,0,0
154838,240,4,1,1,70,1,0
154838,-142.857142857143,4,1,1,70,0,0
154898,-142.857142857143,4,1,1,60,0,0
155318,-142.857142857143,4,1,2,60,0,0
155798,472.44094488189,4,1,1,50,1,0
155798,-200,4,1,1,50,0,0
156270,-200,4,1,1,40,0,0
156764,235.294117647059,4,1,1,60,1,1
156764,-90.9090909090909,4,1,1,60,0,1
170881,-90.9090909090909,4,1,1,70,0,0
171116,-90.9090909090909,4,1,2,70,0,0
171352,-90.9090909090909,4,1,1,70,0,0
171587,-90.9090909090909,4,1,2,70,0,0
171822,-90.9090909090909,4,1,1,70,0,0
171881,-90.9090909090909,4,1,2,70,0,0
172175,-90.9090909090909,4,1,1,70,0,0
172234,-90.9090909090909,4,1,2,70,0,0
172528,-90.9090909090909,4,1,1,70,0,0
172646,-90.9090909090909,4,1,2,70,0,0
172764,-90.9090909090909,4,1,1,70,0,0
172999,-90.9090909090909,4,1,2,70,0,0
173234,-90.9090909090909,4,1,1,70,0,0
173352,-90.9090909090909,4,1,2,70,0,0
173587,-90.9090909090909,4,1,1,70,0,0
173705,-90.9090909090909,4,1,2,70,0,0
173940,-90.9090909090909,4,1,1,70,0,0
174058,-90.9090909090909,4,1,2,70,0,0
174175,-90.9090909090909,4,1,1,70,0,0
174646,-90.9090909090909,4,1,1,60,0,1
188764,-90.9090909090909,4,1,1,70,0,0
188881,-90.9090909090909,4,1,2,70,0,0
189116,-90.9090909090909,4,1,1,70,0,0
189352,-90.9090909090909,4,1,2,70,0,0
189705,-90.9090909090909,4,1,1,60,0,1
200999,-90.9090909090909,4,1,1,70,0,0
203822,265.486725663717,4,1,1,60,1,0
203822,-200,4,1,1,60,0,0
204352,-200,4,1,1,40,0,0

[Colours]
Combo1 : 255,255,128
Combo2 : 0,128,64
Combo3 : 255,126,64
Combo4 : 0,128,128

[HitObjects]
256,192,983,12,0,5218,0:0:0:0:
304,130,5336,6,0,P|349:141|393:136,1,80,2|0,3:2|0:0,0:0:0:0:
233,78,5806,2,0,P|193:76|154:86,1,80,0|0,3:0|0:0,0:0:0:0:
130,169,6159,2,0,P|140:197|131:264,2,80,2|0|0,3:2|0:0|0:0,0:0:0:0:
54,118,6747,2,0,L|-1:123,2,40,0|0|8,3:0|3:0|0:2,0:0:0:0:
137,246,7218,6,0,P|179:255|222:244,1,80,2|0,3:2|0:0,0:0:0:0:
377,201,7688,2,0,P|335:192|292:203,1,80,0|0,3:0|0:0,0:0:0:0:
293,280,8041,2,0,P|300:318|291:357,2,80,2|0|0,3:2|0:0|0:0,0:0:0:0:
214,247,8630,2,0,L|174:255,2,40,0|0|8,3:0|3:0|0:0,0:0:0:0:
377,201,9100,6,0,P|384:156|378:118,1,80,2|0,3:2|0:0,0:0:0:0:
486,38,9571,2,0,P|481:77|488:116,1,80,0|0,3:0|0:0,0:0:0:0:
454,200,9924,2,0,P|414:209|370:197,2,80,2|0|0,3:2|0:0|0:0,0:0:0:0:
488,116,10512,2,0,L|480:64,2,40,0|0|8,3:0|3:0|0:0,0:0:0:0:
376,200,10983,6,0,P|334:190|288:193,1,80,2|0,3:2|0:0,0:0:0:0:
163,268,11453,2,0,P|202:268|241:259,1,80,0|0,3:0|0:0,0:0:0:0:
297,191,11806,2,0,P|285:150|292:110,2,80,2|0|0,3:2|0:0|0:0,0:0:0:0:
376,200,12394,2,0,L|433:193,2,40,0|0|8,3:0|3:0|0:0,0:0:0:0:
194,188,12865,6,0,L|184:92,2,95.9999970703126,2|0|0,3:2|0:0|3:0,0:0:0:0:
163,268,13453,1,0,0:0:0:0:
88,232,13571,1,0,0:0:0:0:
90,314,13688,2,0,P|122:349|184:352,2,95.9999970703126,2|0|0,3:2|0:0|0:0,0:0:0:0:
88,232,14277,2,0,P|96:203|96:181,2,47.9999985351563,0|0|8,3:0|0:0|0:0,0:0:0:0:
88,95,14747,6,0,L|201:91,2,95.9999970703126,2|0|0,3:2|0:0|3:0,0:0:0:0:
19,151,15336,1,0,0:0:0:0:
96,185,15453,1,0,0:0:0:0:
30,236,15571,2,0,P|21:283|34:334,2,95.9999970703126,2|0|0,3:2|0:0|0:0,0:0:0:0:
96,185,16159,2,0,P|126:193|147:192,2,47.9999985351563,0|0|8,3:0|0:0|0:0,0:0:0:0:
265,161,16630,6,0,L|254:278,2,95.9999970703126,2|0|0,3:2|0:0|3:0,0:0:0:0:
332,103,17218,1,0,0:0:0:0:
386,168,17336,1,0,0:0:0:0:
332,103,17453,2,0,P|319:52|328:5,2,95.9999970703126,2|0|0,3:2|0:0|0:0,0:0:0:0:
386,168,18041,2,0,P|420:169|444:162,2,47.9999985351563,0|0|8,3:0|0:0|0:0,0:0:0:0:
162,113,18512,5,8,0:0:0:0:
237,185,18630,1,8,0:0:0:0:
240,76,18747,2,0,L|234:22,1,47.9999985351563,0|0,3:0|3:0,3:0:0:0:
151,198,18982,2,0,L|145:245,1,47.9999985351563,2|2,0:3|0:3,0:0:0:0:
313,127,19218,1,0,3:0:0:0:
151,83,19336,1,0,3:0:0:0:
248,217,19453,5,8,0:0:0:0:
248,217,20394,6,0,L|345:222,1,80,4|0,3:1|0:0,0:0:0:0:
499,162,20630,2,0,L|402:167,1,80,8|0,0:0|0:0,0:0:0:0:
299,137,20865,1,0,3:2:0:0:
409,245,20983,1,0,3:0:0:0:
385,56,21100,1,8,0:0:0:0:
385,56,21218,6,0,P|303:45|222:59,1,160,2|0,3:0|3:0,3:0:0:0:
78,184,21571,2,0,P|125:184|171:171,1,80,8|0,0:0|0:0,0:0:0:0:
299,137,21806,1,0,3:2:0:0:
145,86,21924,1,0,3:0:0:0:
224,271,22041,2,0,P|236:232|233:187,1,80,8|0,0:0|0:0,0:0:0:0:
134,6,22277,6,0,L|145:90,1,80,0|0,3:0|0:0,0:0:0:0:
310,180,22512,2,0,L|320:100,1,80,8|0,0:0|0:0,0:0:0:0:
249,0,22747,1,0,3:2:0:0:
212,169,22865,1,0,3:0:0:0:
341,77,22983,1,8,0:0:0:0:
147,84,23100,6,0,P|109:149|141:248,1,160,2|0,3:0|3:0,3:0:0:0:
246,371,23453,2,0,P|255:333|251:292,1,80,8|0,0:0|0:0,0:0:0:0:
212,169,23688,1,0,3:2:0:0:
166,324,23806,1,0,3:0:0:0:
310,209,23924,2,0,P|319:169|309:127,1,80,8|0,0:0|0:0,0:0:0:0:
147,84,24159,6,0,L|63:91,1,80,4|0,3:2|0:0,0:0:0:0:
108,238,24394,2,0,L|192:245,1,80,8|0,0:0|0:0,0:0:0:0:
345,198,24630,1,0,3:2:0:0:
201,150,24747,1,0,3:0:0:0:
259,307,24865,1,8,0:0:0:0:
259,307,24983,6,0,P|338:322|431:299,1,160,2|0,3:0|3:0,3:0:0:0:
343,120,25336,2,0,P|335:158|344:197,1,80,8|0,0:0|0:0,0:0:0:0:
491,159,25571,1,0,3:2:0:0:
382,27,25688,1,0,3:0:0:0:
345,198,25806,2,0,P|302:208|260:202,1,80,8|0,0:0|0:0,0:0:0:0:
147,84,26041,6,0,L|228:88,1,80,4|0,3:2|0:0,0:0:0:0:
424,194,26277,2,0,L|343:198,1,80,8|0,0:0|0:0,0:0:0:0:
183,168,26512,1,0,3:2:0:0:
361,105,26630,1,0,3:0:0:0:
361,280,26747,1,8,0:0:0:0:
444,104,26865,6,0,P|501:141|493:257,1,160,4|0,3:1|3:0,3:0:0:0:
361,280,27218,2,0,P|318:271|265:275,1,80,8|0,0:0|0:0,0:0:0:0:
126,340,27453,1,0,3:2:0:0:
312,354,27571,1,0,3:0:0:0:
126,340,27688,2,0,P|110:296|112:255,1,80,8|0,0:0|0:0,0:0:0:0:
147,84,27924,6,0,L|228:88,1,80,4|0,3:1|0:0,0:0:0:0:
287,240,28159,2,0,L|206:244,1,80,8|0,0:0|0:0,0:0:0:0:
77,152,28394,1,0,3:2:0:0:
262,160,28512,1,0,3:0:0:0:
97,298,28630,1,8,0:0:0:0:
97,298,28747,6,0,P|66:251|92:131,1,160,2|0,3:0|3:0,3:0:0:0:
197,56,29100,2,0,P|238:67|283:63,1,80,8|0,0:0|0:0,0:0:0:0:
418,12,29336,1,0,3:2:0:0:
418,12,29453,1,0,3:0:0:0:
373,155,29571,2,0,P|365:199|376:242,1,80,8|0,0:0|0:0,0:0:0:0:
465,383,29806,6,0,L|472:284,1,80,0|0,3:0|0:0,0:0:0:0:
278,185,30041,2,0,L|283:264,1,80,8|0,0:0|0:0,0:0:0:0:
376,379,30277,1,0,3:2:0:0:
401,233,30394,1,0,3:0:0:0:
260,290,30512,1,8,0:0:0:0:
472,302,30630,6,0,P|499:219|453:150,1,160,2|0,3:0|3:0,3:0:0:0:
278,185,30983,2,0,P|236:198|195:192,1,80,8|0,0:0|0:0,0:0:0:0:
67,125,31218,1,0,3:2:0:0:
232,113,31336,1,0,3:0:0:0:
120,270,31453,2,0,P|114:220|128:179,1,80,8|0,0:0|0:0,0:0:0:0:
225,33,31688,6,0,L|233:128,1,80,4|0,3:2|0:0,0:0:0:0:
40,178,31924,2,0,L|46:98,1,80,8|0,0:0|0:0,0:0:0:0:
150,0,32159,1,0,3:2:0:0:
231,112,32277,1,0,3:0:0:0:
358,30,32394,1,8,0:0:0:0:
358,30,32512,6,0,P|382:87|363:190,1,160,2|0,3:0|3:0,3:0:0:0:
260,290,32865,2,0,P|220:280|175:285,1,80,8|0,0:0|0:0,0:0:0:0:
37,354,33100,1,0,3:2:0:0:
37,354,33218,1,0,3:0:0:0:
109,235,33336,2,0,P|125:192|120:141,1,80,8|0,0:0|0:0,0:0:0:0:
52,12,33571,6,0,L|154:6,1,80,4|0,3:2|0:0,0:0:0:0:
290,143,33806,2,0,L|188:137,1,80,8|0,0:0|0:0,0:0:0:0:
56,96,34041,1,0,3:2:0:0:
249,59,34159,1,0,3:0:0:0:
200,220,34277,1,8,0:0:0:0:
273,33,34394,6,0,B|323:53|371:30|371:30|352:51|350:71|350:71|377:90|384:131,1,191.999994140625,4|0,3:1|3:0,3:0:0:0:
296,220,34747,2,0,P|284:172|297:126,1,80,8|0,0:0|0:0,0:0:0:0:
389,313,34983,6,0,L|226:317,1,160,4|8,3:2|0:0,0:0:0:0:
82,291,35336,2,0,P|155:329|251:301,1,160,4|0,3:1|3:0,0:0:0:0:
265,198,35688,1,8,0:0:0:0:
143,169,35924,5,0,0:0:0:0:
295,179,36159,1,8,0:0:0:0:
166,141,36394,5,0,0:0:0:0:
318,151,36630,1,8,0:0:0:0:
68,69,36865,6,0,L|59:162,1,80,4|2,3:2|3:0,3:0:0:0:
125,289,37100,1,8,0:0:0:0:
169,103,37218,2,0,L|329:114,1,160,4|0,3:1|0:0,0:0:0:0:
446,183,37571,1,8,0:0:0:0:
358,303,37806,5,0,0:0:0:0:
420,154,38041,1,8,0:0:0:0:
337,272,38277,5,0,0:0:0:0:
399,123,38512,1,8,0:0:0:0:
272,337,38747,6,0,P|229:349|122:279,1,160,4|8,3:2|0:0,0:0:0:0:
137,144,39100,2,0,P|153:214|118:318,1,160,4|0,3:1|0:0,0:0:0:0:
19,349,39453,1,8,0:0:0:0:
54,173,39688,5,0,0:0:0:0:
51,362,39924,1,8,0:0:0:0:
91,183,40159,5,0,0:0:0:0:
88,372,40394,1,8,0:0:0:0:
107,94,40630,6,0,L|208:99,1,80,4|2,3:2|3:0,3:0:0:0:
351,164,40865,1,8,0:0:0:0:
191,257,40983,2,0,L|186:89,1,160,4|0,3:1|0:0,0:0:0:0:
309,3,41336,1,8,0:0:0:0:
361,194,41571,5,0,0:0:0:0:
343,1,41806,1,8,0:0:0:0:
409,270,42041,6,0,B|366:297|317:272|317:272|287:301|236:292,1,160,2|8,0:3|0:0,0:0:0:0:
257,45,42512,6,0,P|281:118|254:198,1,160,4|8,3:2|0:0,0:0:0:0:
97,40,42865,2,0,L|284:45,1,160,4|0,3:1|0:0,0:0:0:0:
449,106,43218,5,8,0:0:0:0:
244,137,43453,1,0,0:0:0:0:
447,195,43688,5,8,0:0:0:0:
242,226,43924,2,0,P|302:248|380:232,1,128,0|8,0:0|0:0,0:0:0:0:
140,73,44394,6,0,L|130:181,1,80,0|2,3:0|3:0,3:0:0:0:
190,309,44630,1,8,0:0:0:0:
292,145,44747,2,0,L|121:153,1,160,4|0,3:2|0:0,0:0:0:0:
27,273,45100,5,8,0:0:0:0:
209,361,45336,2,0,P|228:308|208:231,1,128,0|8,0:0|0:0,0:0:0:0:
133,187,45688,2,0,P|116:149|133:61,1,128
207,21,46041,1,8,0:0:0:0:
213,239,46277,6,0,L|307:235,1,80,2|0,3:0|3:0,3:0:0:0:
446,157,46512,1,8,0:0:0:0:
275,76,46630,2,0,L|293:242,1,160,4|0,3:1|3:0,0:0:0:0:
449,368,46983,2,0,L|458:279,1,80,8|0,0:0|0:0,0:0:0:0:
365,133,47218,1,0,3:0:0:0:
368,293,47336,1,0,3:0:0:0:
481,166,47453,2,0,L|472:77,1,80,8|0,0:0|3:0,0:0:0:0:
275,76,47688,6,0,P|217:108|109:93,1,160,2|8,0:0|0:0,0:0:0:0:
27,4,48041,1,0,0:0:0:0:
125,101,48159,2,0,P|134:140|123:191,1,80,0|0,3:0|3:0,3:0:0:0:
69,352,48394,2,0,P|60:313|71:262,1,80,8|0,0:0|0:0,0:0:0:0:
207,190,48630,6,0,L|371:182,2,160,0|8|0,3:0|0:0|3:0,0:0:0:0:
45,138,49218,1,0,3:0:0:0:
207,85,49336,1,8,0:0:0:0:
163,273,49453,6,0,P|118:215|144:121,1,160,0|0,3:0|3:0,3:0:0:0:
304,16,49806,2,0,P|321:60|313:108,1,80,8|0,0:0|0:0,0:0:0:0:
234,222,50041,6,0,L|398:214,1,160,4|8,3:2|0:0,0:0:0:0:
235,70,50394,2,0,P|212:141|246:239,1,160,4|0,3:1|0:0,0:0:0:0:
340,338,50747,1,8,0:0:0:0:
389,132,50983,5,0,0:0:0:0:
462,338,51218,1,8,0:0:0:0:
462,338,51336,2,0,P|399:353|324:328,1,128
308,260,51688,1,8,0:0:0:0:
420,39,51924,6,0,L|334:42,1,80,0|2,3:0|3:0,3:0:0:0:
211,152,52159,1,8,0:0:0:0:
410,198,52277,2,0,L|420:31,1,160,4|0,3:2|0:0,0:0:0:0:
245,64,52630,1,8,0:0:0:0:
308,260,52865,6,0,P|249:279|174:262,1,128,0|8,0:0|0:0,0:0:0:0:
128,188,53218,2,0,P|94:230|101:320,1,128
165,357,53571,1,8,0:0:0:0:
159,92,53806,6,0,L|70:102,1,80,2|0,3:0|3:0,0:0:0:0:
3,235,54041,1,8,0:0:0:0:
231,294,54159,2,0,L|238:112,1,160,4|0,3:1|3:0,3:0:0:0:
350,0,54512,2,0,B|358:35|358:35|353:79,1,80,8|0,0:0|0:0,0:0:0:0:
324,231,54747,1,0,3:0:0:0:
155,173,54865,1,0,3:0:0:0:
339,108,54983,2,0,L|438:111,1,80,8|0,0:0|3:0,0:0:0:0:
512,222,55218,5,2,0:0:0:0:
324,231,55336,1,0,3:0:0:0:
446,68,55453,2,0,P|455:110|444:163,1,80,8|0,0:0|0:0,0:0:0:0:
388,296,55688,1,0,3:0:0:0:
320,135,55806,1,0,3:0:0:0:
204,267,55924,2,0,P|157:272|107:261,1,80,8|0,0:0|0:0,0:0:0:0:
193,37,56159,6,0,B|202:101|202:101|159:200,1,160,0|8,3:0|0:0,0:0:0:0:
165,189,56630,2,0,B|197:178|197:178|249:183,1,80,0|0,3:0|3:0,3:0:0:0:
416,211,56865,1,8,0:0:0:0:
247,331,56983,6,0,P|220:255|256:166,1,160,0|0,3:0|3:0,3:0:0:0:
418,110,57336,2,0,P|463:119|513:114,1,80,8|0,0:0|0:0,0:0:0:0:
357,16,57571,2,0,P|317:14|278:23,1,80,0|0,3:0|3:0,0:0:0:0:
98,153,57806,2,0,B|140:176|174:153|174:153|197:186|250:182,1,160,8|4,0:0|3:2,0:0:0:0:
455,225,58277,5,8,0:1:0:0:
211,265,58394,1,8,0:1:0:0:
455,225,58512,5,8,0:1:0:0:
211,265,58630,1,8,0:1:0:0:
455,225,58747,5,8,0:1:0:0:
211,265,58865,1,8,0:1:0:0:
393,381,58983,6,0,L|400:257,1,95.9999970703126,4|0,3:1|3:0,3:0:0:0:
315,118,59218,1,8,0:0:0:0:
225,300,59336,2,0,P|293:328|414:260,1,191.999994140625,0|0,3:0|3:0,3:0:0:0:
415,96,59688,2,0,P|400:52|410:3,1,88.000002685547,8|0,0:0|0:0,0:0:0:0:
483,200,59924,6,0,L|285:207,1,176.000005371094,2|8,3:0|0:0,0:0:0:0:
307,206,60394,2,0,B|319:163|319:163|316:113,1,88.000002685547,0|0,3:0|3:0,3:0:0:0:
244,0,60630,1,8,0:0:0:0:
131,212,60747,2,0,L|329:205,1,176.000005371094,0|0,3:0|3:0,3:0:0:0:
415,96,61100,2,0,L|423:2,1,88.000002685547,8|0,0:0|0:0,0:0:0:0:
226,26,61336,2,0,L|234:113,1,88.000002685547,0|0,3:0|3:0,3:0:0:0:
328,292,61571,2,0,L|336:198,1,88.000002685547,8|0,0:0|0:0,0:0:0:0:
313,42,61806,6,0,P|223:26|134:40,1,176.000005371094,4|8,3:2|0:0,0:0:0:0:
140,38,62277,2,0,P|149:85|137:139,1,88.000002685547,0|0,3:0|3:0,3:0:0:0:
65,272,62512,1,8,0:0:0:0:
211,177,62630,6,0,L|409:170,1,176.000005371094,0|0,3:0|3:0,3:0:0:0:
336,379,62983,2,0,B|322:336|322:336|327:282,1,88.000002685547,8|0,0:0|0:0,0:0:0:0:
393,139,63218,1,0,3:0:0:0:
416,294,63336,1,0,3:0:0:0:
219,210,63453,2,0,L|317:207,1,88.000002685547,8|0,0:0|0:0,0:0:0:0:
476,208,63688,6,0,P|500:144|451:49,1,176.000005371094,0|8,3:0|0:0,0:0:0:0:
424,45,64159,2,0,P|379:57|334:56,1,88.000002685547,0|0,3:0|3:0,3:0:0:0:
202,5,64394,1,8,0:0:0:0:
303,152,64512,6,0,L|291:349,1,176.000005371094,0|0,3:0|3:0,3:0:0:0:
140,258,64865,2,0,L|134:156,1,88.000002685547,8|0,0:0|0:0,0:0:0:0:
208,33,65100,1,0,3:0:0:0:
269,188,65218,1,0,3:0:0:0:
93,100,65336,2,0,B|50:131|53:174|53:174|76:222|49:285,1,176.000005371094,8|4,0:0|3:2,0:0:0:0:
457,167,65806,5,8,0:0:0:0:
213,127,65924,1,8,0:0:0:0:
457,167,66041,5,8,0:0:0:0:
213,127,66159,1,8,0:0:0:0:
457,167,66277,5,8,0:0:0:0:
213,127,66394,1,8,0:0:0:0:
391,3,66512,6,0,P|402:50|389:104,1,95.9999970703126,4|0,3:1|3:0,3:0:0:0:
310,273,66747,1,8,0:0:0:0:
214,87,66865,2,0,P|293:61|403:106,1,191.999994140625,0|0,3:0|3:0,3:0:0:0:
403,265,67218,2,0,P|393:316|409:374,1,88.000002685547,8|0,0:0|0:0,0:0:0:0:
457,167,67453,6,0,L|265:178,1,176.000005371094,2|8,3:0|0:0,0:0:0:0:
281,177,67924,2,0,B|294:214|294:214|292:279,1,88.000002685547,0|0,3:0|3:0,3:0:0:0:
250,384,68159,1,8,0:0:0:0:
196,237,68277,1,0,3:0:0:0:
403,265,68394,6,0,B|360:283|317:278,1,88.000002685547,0|0,0:0|3:0,0:0:0:0:
109,223,68630,2,0,B|152:218|195:236,1,88.000002685547,8|0,0:0|0:0,0:0:0:0:
275,363,68865,1,0,3:0:0:0:
100,307,68983,1,0,3:0:0:0:
276,201,69100,2,0,P|281:151|270:104,1,88.000002685547,8|0,0:0|0:0,0:0:0:0:
15,137,69336,6,0,L|213:141,1,176.000005371094,4|8,3:2|0:0,0:0:0:0:
190,140,69806,2,0,B|200:178|200:178|197:245,1,88.000002685547,0|0,3:0|3:0,3:0:0:0:
175,356,70041,1,8,0:0:0:0:
276,201,70159,6,0,P|361:170|446:190,1,176.000005371094,0|0,3:0|3:0,3:0:0:0:
385,350,70512,2,0,P|368:303|374:255,1,88.000002685547,8|0,0:0|0:0,0:0:0:0:
456,103,70747,2,0,P|457:146|441:187,1,88.000002685547,0|0,3:0|3:0,3:0:0:0:
276,201,70983,2,0,P|233:192|176:201,1,88.000002685547,8|0,0:0|0:0,0:0:0:0:
41,288,71218,5,8,0:0:0:0:
256,291,71336,1,0,3:0:0:0:
140,129,71453,1,2,3:0:0:0:
139,346,71571,1,2,3:0:0:0:
297,173,71688,5,8,0:3:0:0:
55,185,71806,1,10,0:3:0:0:
283,276,71924,5,0,3:0:0:0:
41,288,72041,1,0,3:0:0:0:
159,100,72159,6,0,B|199:196|115:197|173:304,1,191.999994140625,8|0,0:0|0:0,0:0:0:0:
297,173,73100,5,4,3:1:0:0:
115,186,80159,6,0,L|279:192,1,160,4|0,3:2|0:0,0:0:0:0:
167,49,80512,2,0,P|122:92|119:197,1,160,4|0,3:1|0:0,0:0:0:0:
190,315,80865,5,8,0:0:0:0:
262,86,81100,2,0,P|326:69|397:86,1,128,0|8,0:0|0:0,0:0:0:0:
476,64,81453,2,0,P|459:125|463:193,1,128
481,278,81806,1,8,0:0:0:0:
476,64,82041,6,0,L|395:69,1,80,2|0,3:0|3:0,3:0:0:0:
236,162,82277,1,8,0:0:0:0:
413,227,82394,2,0,L|394:56,1,160,4|0,3:2|0:0,0:0:0:0:
242,1,82747,5,8,0:0:0:0:
290,226,82983,2,0,P|356:242|426:219,1,128,0|8,0:0|0:0,0:0:0:0:
171,81,83453,1,0,0:0:0:0:
171,81,83571,2,0,P|136:136|146:216,1,128
230,368,83924,6,0,L|224:275,1,80,2|0,3:0|3:0,3:0:0:0:
183,113,84159,1,8,0:0:0:0:
65,272,84277,2,0,L|225:288,1,160,4|0,3:1|3:0,3:0:0:0:
421,208,84630,2,0,L|332:216,1,80,8|0,0:0|0:0,0:0:0:0:
168,199,84865,1,0,3:0:0:0:
348,130,84983,1,0,3:0:0:0:
310,293,85100,1,8,0:0:0:0:
161,163,85218,6,0,P|156:83|219:25,1,160,0|0,3:0|3:0,3:0:0:0:
348,130,85571,2,0,P|393:137|434:118,1,80,8|0,0:0|0:0,0:0:0:0:
365,1,85806,1,0,3:0:0:0:
249,121,85924,1,0,3:0:0:0:
424,125,86041,2,0,P|429:170|420:207,1,80,8|0,0:0|0:0,0:0:0:0:
310,293,86277,6,0,L|146:276,2,160,0|8|0,3:0|0:0|3:0,0:0:0:0:
474,249,86865,1,0,3:0:0:0:
315,188,86983,1,8,0:0:0:0:
349,378,87100,6,0,P|396:322|375:227,1,160,0|0,3:0|3:0,3:0:0:0:
161,167,87453,2,0,P|198:194|250:197,1,80,8|0,0:0|0:0,0:0:0:0:
407,92,87688,6,0,L|233:100,1,160,4|8,3:2|0:0,0:0:0:0:
386,241,88041,2,0,P|417:186|394:72,1,160,4|0,3:1|0:0,0:0:0:0:
305,0,88394,5,8,0:0:0:0:
315,188,88630,2,0,P|251:204|186:187,1,128,0|8,0:0|0:0,0:0:0:0:
47,74,89100,1,0,0:0:0:0:
47,74,89218,2,0,P|28:137|40:207,1,128
142,350,89571,6,0,L|155:260,1,80,2|0,3:0|3:0,3:0:0:0:
175,83,89806,1,8,0:0:0:0:
36,197,89924,2,0,L|216:194,1,160,4|0,3:2|0:0,0:0:0:0:
381,123,90277,5,8,0:0:0:0:
192,71,90512,2,0,P|178:129|198:199,1,128,0|8,0:0|0:0,0:0:0:0:
335,333,90983,1,0,0:0:0:0:
335,333,91100,2,0,P|325:262|346:205,1,128
438,32,91453,6,0,L|339:37,1,80,2|0,3:0|3:0,3:0:0:0:
269,159,91688,1,8,0:0:0:0:
422,275,91806,2,0,B|436:203|436:203|420:107,1,160,4|0,3:1|3:0,3:0:0:0:
247,53,92159,2,0,L|148:58,1,80,8|0,0:0|0:0,0:0:0:0:
194,193,92394,1,0,3:0:0:0:
326,86,92512,1,0,3:0:0:0:
118,135,92630,1,8,0:0:0:0:
118,135,92747,6,0,P|97:190|147:278,1,160,0|0,3:0|3:0,3:0:0:0:
298,241,93100,2,0,P|341:230|395:237,1,80,8|0,0:0|0:0,0:0:0:0:
353,369,93336,1,0,3:0:0:0:
223,282,93453,1,0,3:0:0:0:
376,231,93571,2,0,P|387:189|380:137,1,80,8|0,0:0|0:0,0:0:0:0:
292,35,93806,6,0,L|125:41,1,160,0|8,3:0|0:0,0:0:0:0:
132,40,94277,2,0,B|142:77|142:77|133:133,1,80,0|0,3:0|3:0,3:0:0:0:
67,256,94512,1,8,0:0:0:0:
165,133,94630,6,0,P|244:118|328:138,1,160,0|0,3:0|3:0,3:0:0:0:
318,317,94983,2,0,P|300:271|302:214,1,80,8|0,0:0|0:0,0:0:0:0:
433,123,95218,2,0,P|428:162|412:199,1,80,0|0,3:0|3:0,3:0:0:0:
203,211,95453,2,0,B|175:165|200:124|200:124|177:94|199:35,1,160,8|4,0:0|3:2,0:0:0:0:
383,49,95924,5,8,0:0:0:0:
325,235,96041,1,8,0:0:0:0:
413,40,96159,5,8,0:0:0:0:
401,269,96276,1,8,0:0:0:0:
443,29,96394,5,8,0:0:0:0:
485,274,96511,1,8,0:0:0:0:
352,32,96630,6,0,L|250:37,1,95.9999970703126,4|0,3:1|3:0,3:0:0:0:
75,101,96865,1,8,0:0:0:0:
238,212,96983,2,0,P|279:124|246:24,1,191.999994140625,0|0,3:0|3:0,3:0:0:0:
130,200,97336,2,0,P|133:246|166:293,1,88.000002685547,8|0,0:0|0:0,0:0:0:0:
413,209,97571,6,0,L|227:212,1,176.000005371094,2|8,3:0|0:0,0:0:0:0:
237,211,98041,2,0,B|253:168|253:168|248:108,1,88.000002685547,0|0,3:0|3:0,3:0:0:0:
192,1,98277,1,8,0:0:0:0:
61,209,98394,2,0,L|247:212,1,176.000005371094,0|0,3:0|3:0,3:0:0:0:
439,122,98747,2,0,L|339:120,1,88.000002685547,8|0,0:0|0:0,0:0:0:0:
171,125,98983,1,0,3:0:0:0:
325,222,99100,1,0,3:0:0:0:
284,33,99218,1,8,0:0:0:0:
236,211,99336,1,0,0:0:0:0:
414,154,99453,6,0,P|426:66|353:9,1,176.000005371094,4|8,3:2|0:0,0:0:0:0:
366,11,99924,2,0,P|317:34|282:33,1,88.000002685547,0|0,3:0|3:0,3:0:0:0:
122,0,100159,1,8,0:0:0:0:
187,209,100277,6,0,B|210:141|210:141|197:33,1,176.000005371094,0|0,3:0|3:0,3:0:0:0:
92,184,100630,2,0,B|87:219|87:219|102:272,1,88.000002685547,8|0,0:0|0:0,0:0:0:0:
208,362,100865,1,0,3:0:0:0:
187,209,100983,1,0,3:0:0:0:
55,299,101100,2,0,L|154:295,1,88.000002685547,8|0,0:0|0:0,0:0:0:0:
309,313,101336,6,0,P|277:240|313:136,1,176.000005371094,4|8,3:1|0:0,0:0:0:0:
313,132,101806,2,0,P|324:85|303:20,1,88.000002685547,0|0,3:0|3:0,3:0:0:0:
168,85,102041,1,8,0:0:0:0:
277,233,102159,6,0,L|469:227,1,176.000005371094,0|0,3:0|3:0,3:0:0:0:
318,46,102512,2,0,B|307:86|307:86|315:141,1,88.000002685547,8|0,0:0|0:0,0:0:0:0:
358,267,102747,1,0,3:0:0:0:
391,111,102865,1,0,3:0:0:0:
219,157,102983,2,0,B|175:194|183:245|183:245|208:290|176:342,1,176.000005371094,8|4,0:0|3:2,0:0:0:0:
476,61,103453,5,8,0:0:0:0:
418,247,103570,1,8,0:0:0:0:
400,27,103688,5,8,0:0:0:0:
388,256,103805,1,8,0:0:0:0:
316,22,103924,5,8,0:0:0:0:
358,267,104041,1,8,0:0:0:0:
220,62,104159,6,0,P|212:109|226:175,1,95.9999970703126,4|0,3:1|3:0,3:0:0:0:
296,333,104394,1,8,0:0:0:0:
392,167,104512,2,0,P|292:127|200:174,1,191.999994140625,0|0,3:0|3:0,3:0:0:0:
475,233,104865,2,0,P|495:192|487:137,1,88.000002685547,8|0,0:0|0:0,0:0:0:0:
321,44,105100,6,0,L|131:56,1,176.000005371094,2|8,3:0|0:0,0:0:0:0:
145,55,105571,2,0,B|159:96|159:96|149:148,1,88.000002685547,0|0,3:0|3:0,3:0:0:0:
65,245,105806,1,8,0:0:0:0:
78,100,105924,1,0,3:0:0:0:
218,182,106041,6,0,P|266:191|313:180,1,88.000002685547,0|0,0:0|3:0,0:0:0:0:
474,118,106277,2,0,P|426:109|379:120,1,88.000002685547,8|0,0:0|0:0,0:0:0:0:
312,273,106512,1,0,3:0:0:0:
428,183,106630,1,0,3:0:0:0:
306,97,106747,2,0,P|297:144|310:199,1,88.000002685547,8|0,0:0|0:0,0:0:0:0:
375,345,106982,5,8,0:3:0:0:
371,142,107099,1,8,0:3:0:0:
230,228,107217,1,8,0:3:0:0:
462,231,107335,1,8,0:3:0:0:
305,96,107452,5,8,0:3:0:0:
309,318,107570,1,8,0:3:0:0:
321,85,107687,5,8,0:3:0:0:
292,304,107805,1,8,0:3:0:0:
193,112,107923,5,8,0:3:0:0:
401,221,108040,1,8,0:3:0:0:
195,318,108158,1,8,0:3:0:0:
288,107,108276,1,8,0:3:0:0:
74,180,108393,5,8,0:3:0:0:
309,204,108511,1,8,0:3:0:0:
66,204,108629,5,8,0:3:0:0:
319,224,108746,1,8,0:3:0:0:
116,61,108864,5,8,0:3:0:0:
52,294,108981,1,8,0:3:0:0:
203,31,109099,5,8,0:3:0:0:
176,293,109217,1,8,0:3:0:0:
290,72,109334,5,8,0:3:0:0:
301,333,109452,1,8,0:3:0:0:
372,38,109570,5,8,0:3:0:0:
445,291,109687,1,8,0:3:0:0:
266,93,109805,5,8,0:3:0:0:
512,162,109923,1,8,0:3:0:0:
274,254,110040,1,8,0:3:0:0:
404,30,110158,1,8,0:3:0:0:
445,291,110276,1,8,0:3:0:0:
110,170,110747,6,0,B|202:133|202:209|295:164,1,176.000005371094,4|8,3:1|0:0,0:0:0:0:
280,170,111218,2,0,P|267:214|282:270,1,88.000002685547,0|0,3:0|3:0,3:0:0:0:
349,377,111453,1,8,0:0:0:0:
378,127,111571,6,0,L|202:138,1,176.000005371094,0|0,3:0|3:0,3:0:0:0:
261,338,111924,2,0,B|279:298|279:298|272:246,1,88.000002685547,8|0,0:0|0:0,0:0:0:0:
191,123,112159,1,0,3:0:0:0:
192,279,112277,1,0,3:0:0:0:
311,179,112394,2,0,L|305:79,1,88.000002685547,8|0,0:0|0:0,0:0:0:0:
67,128,112630,6,0,P|122:163|228:132,1,176.000005371094,0|8,3:0|0:0,0:0:0:0:
223,136,113100,2,0,P|216:88|231:37,1,88.000002685547,0|0,3:0|3:0,3:0:0:0:
389,93,113336,1,8,0:0:0:0:
315,266,113453,6,0,L|305:78,1,176.000005371094,0|0,3:0|3:0,3:0:0:0:
427,247,113806,2,0,L|421:334,1,88.000002685547,8|0,0:0|0:0,0:0:0:0:
229,239,114041,5,0,3:0:0:0:
388,172,114159,1,0,3:0:0:0:
391,351,114277,5,8,0:0:0:0:
409,149,114394,1,0,0:0:0:0:
201,221,114512,6,0,P|175:135|212:39,1,176.000005371094,4|8,3:1|0:0,0:0:0:0:
199,55,114983,2,0,P|249:68|299:60,1,88.000002685547,0|0,3:0|3:0,3:0:0:0:
408,18,115218,1,8,0:0:0:0:
312,178,115336,6,0,L|134:173,1,176.000005371094,0|0,3:0|3:0,3:0:0:0:
0,86,115688,2,0,L|95:83,1,88.000002685547,8|0,0:0|0:0,0:0:0:0:
277,96,115924,1,0,3:0:0:0:
173,206,116041,1,0,3:0:0:0:
146,21,116159,2,0,L|241:18,1,88.000002685547,8|0,0:0|0:0,0:0:0:0:
426,45,116394,6,0,P|395:109|420:225,1,176.000005371094,0|8,3:0|0:0,0:0:0:0:
410,209,116865,2,0,P|416:253|400:298,1,88.000002685547,0|0,3:0|3:0,3:0:0:0:
268,384,117100,1,8,0:0:0:0:
234,204,117218,6,0,L|410:209,1,176.000005371094,0|0,3:0|3:0,3:0:0:0:
189,306,117571,2,0,L|101:308,1,88.000002685547,8|0,0:0|0:0,0:0:0:0:
0,195,117806,1,0,3:0:0:0:
168,149,117924,1,0,3:0:0:0:
101,308,118041,1,8,0:0:0:0:
16,162,118159,1,0,0:0:0:0:
199,128,118277,6,0,P|208:171|191:232,1,88.000002685547,4|0,3:2|0:0,0:0:0:0:
8,284,118512,1,8,0:0:0:0:
228,309,118630,1,0,0:0:0:0:
8,284,118747,5,0,3:0:0:0:
228,309,118865,1,0,3:0:0:0:
92,186,118983,2,0,L|106:94,1,88.000002685547,8|0,0:0|0:0,0:0:0:0:
225,7,119218,6,0,P|269:25|337:19,1,88.000002685547,4|0,3:2|0:0,0:0:0:0:
496,0,119453,1,8,0:0:0:0:
471,220,119571,1,0,0:0:0:0:
496,0,119688,5,0,3:0:0:0:
471,220,119806,1,0,3:0:0:0:
308,26,119924,2,0,L|321:112,1,88.000002685547,8|0,0:0|0:0,0:0:0:0:
393,295,120159,6,0,P|324:325|224:307,1,176.000005371094,4|8,3:1|0:0,3:0:0:0:
227,308,120630,2,0,P|235:257|225:212,1,88.000002685547,0|0,3:0|3:0,3:0:0:0:
146,98,120865,1,8,0:0:0:0:
51,298,120983,6,0,L|234:309,1,176.000005371094,0|0,3:0|3:0,3:0:0:0:
336,192,121336,2,0,L|240:197,1,88.000002685547,8|0,0:0|0:0,0:0:0:0:
80,221,121571,1,0,3:0:0:0:
226,308,121688,1,0,3:0:0:0:
181,124,121806,2,0,L|85:129,1,88.000002685547,8|0,0:0|0:0,0:0:0:0:
287,228,122041,6,0,P|326:161|308:53,1,176.000005371094,4|8,3:2|0:0,0:0:0:0:
301,38,122512,2,0,P|250:38|203:46,1,88.000002685547,0|0,3:0|3:0,3:0:0:0:
33,114,122747,1,8,0:0:0:0:
205,239,122865,6,0,L|191:63,1,176.000005371094,0|0,3:0|3:0,3:0:0:0:
81,222,123218,2,0,L|88:312,1,88.000002685547,8|0,0:0|0:0,0:0:0:0:
298,241,123453,1,0,3:0:0:0:
166,163,123571,1,0,3:0:0:0:
174,328,123688,2,0,L|285:323,1,88.000002685547,8|0,0:0|0:0,0:0:0:0:
462,262,123924,5,8,0:0:0:0:
284,225,124041,1,8,0:0:0:0:
391,384,124159,1,2,3:0:0:0:
385,180,124277,1,2,3:0:0:0:
261,324,124394,5,8,0:3:0:0:
462,262,124512,1,8,0:3:0:0:
262,198,124630,5,0,3:0:0:0:
498,268,124747,1,0,3:0:0:0:
359,365,124865,6,0,B|309:275|393:274|353:178,1,191.999994140625,8|0,0:0|0:0,0:0:0:0:
308,16,125571,1,0,0:0:0:0:
241,171,125806,6,0,L|122:173,1,120,4|0,3:1|0:0,0:0:0:0:
39,144,126289,2,0,L|44:229,1,80,2|0,3:2|0:0,0:0:0:0:
82,367,126773,6,0,P|86:306|129:257,1,120,0|0,3:0|0:0,0:0:0:0:
205,238,127257,2,0,P|231:211|240:168,1,80,2|0,3:2|0:0,0:0:0:0:
156,51,127741,6,0,B|145:98|145:98|161:179,1,120,0|0,3:0|0:0,0:0:0:0:
205,253,128225,2,0,B|212:287|212:287|202:335,1,80,2|0,3:2|0:0,0:0:0:0:
12,294,128709,6,0,P|74:277|134:290,1,120,0|0,3:0|0:0,0:0:0:0:
198,345,129193,1,2,3:2:0:0:
285,212,129435,1,2,0:3:0:0:
410,333,129676,6,0,B|417:280|417:280|412:265|412:265|423:203,1,120,4|0,3:1|0:0,0:0:0:0:
449,129,130160,2,0,L|362:141,1,80,2|0,3:2|0:0,0:0:0:0:
179,99,130644,6,0,P|236:108|298:99,1,120,0|0,3:0|0:0,0:0:0:0:
371,56,131128,2,0,B|386:45|386:45|378:79|384:114,1,80,2|0,3:2|0:0,0:0:0:0:
420,215,131612,5,0,3:0:0:0:
192,223,131854,1,0,0:0:0:0:
297,99,132096,1,2,3:2:0:0:
299,315,132338,1,0,0:0:0:0:
106,208,132580,6,0,L|112:138,1,55.9999982910157,8|8,0:0|0:3,0:0:0:0:
133,21,132822,1,2,0:3:0:0:
192,137,132943,1,8,0:0:0:0:
70,84,133064,5,8,0:0:0:0:
213,55,133185,1,8,0:3:0:0:
187,176,133306,1,2,0:3:0:0:
148,105,133426,1,0,3:0:0:0:
278,131,133547,6,0,B|293:160|285:198|285:198|262:233|276:274,1,143.999995605469,4|2,3:1|0:3,0:0:0:0:
295,366,134031,2,0,P|343:351|395:355,1,95.9999970703126,8|2,0:0|0:3,0:0:0:0:
479,382,134394,1,2,0:3:0:0:
479,382,134515,6,0,L|476:271,1,95.9999970703126,0|2,3:0|0:3,0:0:0:0:
463,184,134878,1,2,0:3:0:0:
463,184,134999,1,8,0:0:0:0:
296,234,135241,1,4,0:2:0:0:
296,234,135362,1,2,0:3:0:0:
296,234,135483,6,0,P|349:244|406:232,1,95.9999970703126,0|2,3:0|0:3,0:0:0:0:
378,152,135846,1,2,0:3:0:0:
378,152,135967,2,0,P|350:77|382:10,1,143.999995605469,8|2,0:0|0:3,0:0:0:0:
321,55,136451,6,0,L|223:61,1,95.9999970703126,0|2,3:0|0:3,0:0:0:0:
146,34,136814,1,2,0:3:0:0:
75,77,136935,2,0,B|82:102|82:102|74:126|74:126|80:173,1,95.9999970703126,8|2,0:0|0:3,0:0:0:0:
90,255,137297,1,2,0:3:0:0:
90,255,137418,6,0,P|141:264|192:256,1,95.9999970703126,0|2,3:0|0:3,0:0:0:0:
260,220,137781,1,2,0:3:0:0:
260,220,137902,2,0,P|261:294|204:342,1,143.999995605469,8|2,0:0|0:3,0:0:0:0:
284,322,138386,6,0,B|327:313|327:313|341:318|341:318|381:311,1,95.9999970703126,0|2,3:0|0:3,0:0:0:0:
450,259,138749,1,2,0:3:0:0:
450,259,138870,2,0,L|446:152,1,95.9999970703126,8|2,0:0|0:3,0:0:0:0:
437,68,139233,1,2,0:3:0:0:
437,68,139354,5,0,3:0:0:0:
229,82,139596,2,0,L|181:79,2,47.9999985351563,2|2|8,0:3|0:3|0:0,0:0:0:0:
446,163,140080,1,2,0:3:0:0:
446,163,140201,1,2,0:3:0:0:
446,163,140322,6,0,L|366:168,1,71.9999978027344,4|0,3:1|0:0,0:0:0:0:
112,253,140564,2,0,L|192:258,1,71.9999978027344,4|0,3:2|0:0,0:0:0:0:
414,250,140806,2,0,L|334:245,1,71.9999978027344,4|0,3:1|0:0,0:0:0:0:
144,171,141047,2,0,L|215:166,1,71.9999978027344,4|0,3:1|0:0,0:0:0:0:
373,167,141289,6,0,P|380:115|375:72,1,95.9999970703126,4|2,3:1|0:3,0:0:0:0:
322,11,141652,1,2,0:3:0:0:
282,82,141773,2,0,P|235:92|187:85,1,95.9999970703126,8|2,0:0|0:3,0:0:0:0:
114,48,142136,1,2,0:3:0:0:
118,131,142257,6,0,B|142:169|180:170|180:170|165:192|156:225|156:225|164:284,1,191.999994140625,0|8,3:0|0:0,0:0:0:0:
261,165,142983,2,2,L|254:102,1,47.9999985351563,2|2,0:3|0:3,0:3:0:0:
223,40,143225,5,0,3:0:0:0:
189,229,143467,1,0,0:0:0:0:
213,48,143709,1,8,0:0:0:0:
246,296,143951,1,0,0:0:0:0:
295,77,144193,6,0,B|325:59|364:70|364:70|395:94|437:86,1,143.999995605469,0|2,3:0|0:3,0:0:0:0:
382,113,144676,2,0,P|367:163|384:216,1,95.9999970703126,8|2,0:0|0:3,0:0:0:0:
416,278,145039,1,2,0:3:0:0:
396,360,145160,6,0,L|297:358,1,95.9999970703126,0|2,3:0|0:3,0:0:0:0:
246,296,145523,1,2,0:3:0:0:
294,222,145644,2,0,B|303:186|303:186|295:122,1,95.9999970703126,8|2,0:0|0:3,0:0:0:0:
274,45,146007,1,2,0:3:0:0:
212,105,146128,6,0,P|123:125|72:44,1,191.999994140625,0|8,3:0|0:0,0:0:0:0:
155,0,146854,2,2,P|159:25|153:55,1,47.9999985351563,2|2,0:3|0:3,0:3:0:0:
123,221,147096,6,0,B|164:229|164:229|192:208|192:208|216:228|246:227|246:227|290:205|347:216,1,223.999993164063,4|2,3:1|0:3,0:0:0:0:
332,213,147822,1,2,0:3:0:0:
292,352,148064,6,0,B|242:366|242:366|207:343|207:343|182:366|148:368|148:368|101:339|42:358,1,256,4|2,3:2|0:3,0:0:0:0:
54,354,148789,1,2,0:3:0:0:
397,384,149031,6,0,L|398:277,1,95.9999970703126,4|2,3:1|0:3,0:0:0:0:
423,209,149394,1,2,0:3:0:0:
423,209,149515,2,0,L|372:211,1,47.9999985351563,8|0,0:0|0:0,0:0:0:0:
193,248,149757,2,2,L|244:250,1,47.9999985351563,2|2,0:3|0:3,0:3:0:0:
397,288,149999,1,0,3:0:0:0:
177,259,150241,1,0,0:0:0:0:
423,209,150483,2,0,L|418:102,1,95.9999970703126,8|2,0:0|0:3,0:0:0:0:
395,34,150846,1,2,0:3:0:0:
337,93,150967,6,0,P|290:106|228:98,1,95.9999970703126,0|2,3:0|0:3,0:0:0:0:
166,78,151330,1,2,0:3:0:0:
93,122,151451,2,0,P|89:171|101:228,1,95.9999970703126,8|2,0:0|0:3,0:0:0:0:
97,216,151814,1,2,0:3:0:0:
97,216,151935,5,0,3:0:0:0:
292,189,152176,2,0,L|291:239,2,47.9999985351563,2|2|8,0:3|0:3|0:0,0:0:0:0:
166,78,152660,1,2,0:3:0:0:
166,78,152781,1,2,0:3:0:0:
166,78,152902,6,0,P|162:127|174:184,1,95.9999970703126,0|2,3:0|0:3,0:0:0:0:
201,249,153265,1,2,0:3:0:0:
201,249,153386,1,8,0:0:0:0:
64,149,153628,1,0,0:0:0:0:
255,168,153870,6,0,P|292:257|242:332,1,191.999994140625,0|8,3:0|0:0,0:0:0:0:
98,235,154596,1,0,0:0:0:0:
371,250,154838,6,0,B|379:209|379:209|358:181|358:181|378:157|377:127|377:127|355:83|366:29,1,223.999993164063,4|2,3:2|0:3,0:0:0:0:
363,40,155558,1,2,0:3:0:0:
371,250,155798,6,0,B|337:255|337:255|321:250|321:250|286:251,1,80,2|0,3:1|0:0,0:0:0:0:
204,266,156764,6,0,L|200:174,1,88.000002685547,4|0,3:1|0:0,0:0:0:0:
289,18,156999,2,0,L|285:105,1,88.000002685547,8|0,0:0|0:0,0:0:0:0:
281,225,157234,1,0,3:0:0:0:
198,86,157352,1,0,3:0:0:0:
382,79,157469,1,8,0:0:0:0:
382,79,157587,6,0,P|405:157|371:249,1,176.000005371094,2|0,3:0|3:0,3:0:0:0:
207,351,157940,2,0,P|196:306|207:258,1,88.000002685547,8|0,0:0|0:0,0:0:0:0:
280,139,158175,1,0,3:0:0:0:
286,304,158293,1,0,3:0:0:0:
119,242,158411,2,0,P|141:203|186:181,1,88.000002685547,8|0,0:0|0:0,0:0:0:0:
400,222,158646,6,0,L|312:220,1,88.000002685547,0|0,3:0|0:0,0:0:0:0:
186,104,158881,2,0,L|274:102,1,88.000002685547,8|0,0:0|0:0,0:0:0:0:
416,131,159116,1,0,3:0:0:0:
283,221,159234,1,0,3:0:0:0:
352,51,159352,1,8,0:0:0:0:
400,222,159469,6,0,P|367:308|294:341,1,176.000005371094,2|0,3:0|3:0,3:0:0:0:
119,242,159822,2,0,P|168:235|207:242,1,88.000002685547,8|0,0:0|0:0,0:0:0:0:
97,371,160058,2,0,P|48:378|9:371,1,88.000002685547,2|0,3:0|3:0,3:0:0:0:
39,203,160293,1,8,0:0:0:0:
162,317,160411,1,0,0:0:0:0:
10,371,160528,6,0,L|24:276,1,88.000002685547,4|0,3:1|0:0,0:0:0:0:
126,131,160764,2,0,L|138:218,1,88.000002685547,8|0,0:0|0:0,0:0:0:0:
90,353,160999,1,0,3:0:0:0:
39,203,161116,1,0,3:0:0:0:
213,249,161234,1,8,0:0:0:0:
213,249,161352,6,0,P|239:162|199:90,1,176.000005371094,2|0,3:0|3:0,3:0:0:0:
42,115,161705,2,0,P|93:134|139:125,1,88.000002685547,8|0,0:0|0:0,0:0:0:0:
274,38,161940,1,0,3:0:0:0:
118,43,162058,1,0,3:0:0:0:
265,132,162175,2,0,P|274:177|263:227,1,88.000002685547,8|0,0:0|0:0,0:0:0:0:
194,361,162411,6,0,L|188:274,1,88.000002685547,4|0,3:2|0:0,0:0:0:0:
355,146,162646,2,0,L|349:233,1,88.000002685547,8|0,0:0|0:0,0:0:0:0:
298,338,162881,1,0,3:0:0:0:
238,175,162999,1,0,3:0:0:0:
431,203,163116,1,8,0:0:0:0:
431,203,163234,6,0,P|437:107|369:56,1,176.000005371094,4|0,3:1|3:0,3:0:0:0:
191,87,163587,2,0,P|238:99|286:90,1,88.000002685547,8|0,0:0|0:0,0:0:0:0:
422,39,163822,1,0,3:0:0:0:
243,14,163940,1,0,3:0:0:0:
328,164,164058,2,0,P|336:210|326:256,1,88.000002685547,8|0,0:0|0:0,0:0:0:0:
224,376,164293,6,0,L|128:373,1,88.000002685547,4|0,3:1|0:0,0:0:0:0:
27,214,164528,2,0,L|123:211,1,88.000002685547,8|0,0:0|0:0,0:0:0:0:
236,289,164764,1,0,3:0:0:0:
62,298,164881,1,0,3:0:0:0:
208,194,164999,1,8,0:0:0:0:
208,194,165116,6,0,P|247:111|222:24,1,176.000005371094,2|0,3:0|3:0,3:0:0:0:
56,91,165469,2,0,P|107:107|157:96,1,88.000002685547,8|0,0:0|0:0,0:0:0:0:
323,50,165705,1,0,3:0:0:0:
147,22,165822,1,0,3:0:0:0:
208,194,165940,2,0,P|213:242|201:297,1,88.000002685547,8|0,0:0|0:0,0:0:0:0:
27,214,166175,6,0,L|137:206,1,88.000002685547,0|0,3:0|0:0,0:0:0:0:
244,367,166411,2,0,L|134:359,1,88.000002685547,8|0,0:0|0:0,0:0:0:0:
30,313,166646,1,0,3:0:0:0:
206,280,166764,1,0,3:0:0:0:
100,185,166881,1,8,0:0:0:0:
284,241,166999,6,0,P|285:149|208:105,1,176.000005371094,2|0,3:0|3:0,3:0:0:0:
100,185,167352,2,0,P|151:194|196:181,1,88.000002685547,8|0,0:0|0:0,0:0:0:0:
268,32,167587,2,0,P|224:24|172:36,1,88.000002685547,2|0,3:0|3:0,3:0:0:0:
63,109,167822,1,8,0:0:0:0:
221,106,167940,1,0,0:0:0:0:
70,21,168058,6,0,L|62:121,1,88.000002685547,4|0,3:1|0:0,0:0:0:0:
192,273,168293,2,0,L|184:185,1,88.000002685547,8|0,0:0|0:0,0:0:0:0:
156,49,168528,1,0,3:0:0:0:
106,211,168646,1,0,3:0:0:0:
290,156,168764,1,8,0:0:0:0:
290,156,168881,6,0,P|311:240|267:317,1,176.000005371094,2|0,3:0|3:0,3:0:0:0:
31,325,169234,2,0,P|70:296|127:293,1,88.000002685547,8|0,0:0|0:0,0:0:0:0:
249,336,169469,1,0,3:0:0:0:
104,384,169587,1,0,3:0:0:0:
187,246,169705,2,0,P|197:198|188:140,1,88.000002685547,8|0,0:0|0:0,0:0:0:0:
145,17,169940,6,0,L|233:20,1,88.000002685547,4|0,3:2|0:0,0:0:0:0:
377,153,170175,2,0,L|289:156,1,88.000002685547,8|0,0:0|0:0,0:0:0:0:
97,109,170411,1,0,3:0:0:0:
97,109,170528,1,0,3:0:0:0:
257,44,170646,2,0,L|262:135,1,88.000002685547,8|0,0:0|0:0,0:0:0:0:
225,323,170881,5,8,0:0:0:0:
179,100,170999,1,8,0:0:0:0:
401,172,171116,1,8,0:3:0:0:
181,237,171234,1,8,0:3:0:0:
357,86,171352,5,8,0:0:0:0:
403,309,171470,1,8,0:0:0:0:
181,237,171587,1,8,0:3:0:0:
401,172,171705,1,8,0:3:0:0:
135,98,171822,6,0,L|192:100,1,44.0000013427735,8|8,0:0|0:3,0:0:0:0:
427,141,171940,1,2,0:3:0:0:
178,204,172058,1,2,0:3:0:0:
403,309,172175,6,0,L|346:307,1,44.0000013427735,8|8,0:0|0:3,0:0:0:0:
111,266,172293,1,2,0:3:0:0:
360,203,172411,1,2,0:3:0:0:
95,175,172528,5,8,0:0:0:0:
360,203,172646,1,2,0:3:0:0:
202,371,172764,5,8,0:0:0:0:
269,153,172882,1,8,0:0:0:0:
429,324,172999,1,8,0:3:0:0:
201,285,173117,1,8,0:3:0:0:
448,229,173234,5,8,0:0:0:0:
187,187,173352,1,8,0:3:0:0:
443,130,173469,1,2,0:3:0:0:
187,91,173587,5,8,0:0:0:0:
457,142,173705,1,8,0:3:0:0:
198,202,173822,1,2,0:3:0:0:
311,0,173940,5,8,0:0:0:0:
283,255,174058,1,2,0:3:0:0:
89,67,174175,5,8,0:0:0:0:
412,48,174293,1,8,0:0:0:0:
96,91,174411,5,8,0:0:0:0:
419,72,174529,1,8,0:0:0:0:
198,202,174646,6,0,B|161:110|237:110|192:17,1,176.000005371094,4|8,3:1|0:0,0:0:0:0:
198,31,175116,2,0,P|243:49|302:44,1,88.000002685547,0|0,3:0|3:0,3:0:0:0:
438,19,175352,1,8,0:0:0:0:
269,153,175469,6,0,L|281:331,1,176.000005371094,0|0,3:0|3:0,3:0:0:0:
437,217,175822,2,0,L|443:125,1,88.000002685547,8|0,0:0|0:0,0:0:0:0:
355,6,176058,1,0,3:0:0:0:
359,162,176175,1,0,3:0:0:0:
512,41,176293,2,0,L|425:48,1,88.000002685547,8|0,0:0|0:0,0:0:0:0:
419,286,176528,6,0,P|463:211|438:123,1,176.000005371094,0|8,3:0|0:0,0:0:0:0:
442,128,176999,2,0,P|400:148|349:151,1,88.000002685547,0|0,3:0|3:0,3:0:0:0:
207,73,177234,1,8,0:0:0:0:
279,251,177352,6,0,L|287:66,1,176.000005371094,0|0,3:0|3:0,3:0:0:0:
118,146,177705,2,0,B|159:161|159:161|209:153,1,88.000002685547,8|0,0:0|0:0,0:0:0:0:
363,119,177940,1,0,3:0:0:0:
207,73,178058,1,0,3:0:0:0:
384,94,178175,5,8,0:0:0:0:
202,153,178293,1,0,0:0:0:0:
417,180,178411,6,0,B|428:223|396:264|396:264|383:313|418:361,1,176.000005371094,4|8,3:1|0:0,0:0:0:0:
408,346,178881,2,0,P|361:335|317:338,1,88.000002685547,0|0,3:0|3:0,3:0:0:0:
188,377,179116,1,8,0:0:0:0:
310,252,179234,6,0,L|302:67,1,176.000005371094,0|0,3:0|3:0,3:0:0:0:
173,0,179587,2,0,L|170:87,1,88.000002685547,8|0,0:0|0:0,0:0:0:0:
215,240,179822,1,0,3:0:0:0:
270,86,179940,1,0,3:0:0:0:
123,182,180058,2,0,L|125:269,1,88.000002685547,8|0,0:0|0:0,0:0:0:0:
370,196,180293,6,0,P|278:178|199:213,1,176.000005371094,0|8,3:0|0:0,0:0:0:0:
204,208,180764,2,0,P|213:157|198:105,1,88.000002685547,0|0,3:0|3:0,3:0:0:0:
41,105,180999,1,8,0:0:0:0:
125,269,181116,6,0,L|122:91,1,176.000005371094,0|0,3:0|3:0,3:0:0:0:
281,4,181469,2,0,L|278:91,1,88.000002685547,8|0,0:0|0:0,0:0:0:0:
199,233,181705,1,0,3:0:0:0:
122,93,181822,1,0,3:0:0:0:
278,91,181940,1,8,0:0:0:0:
209,258,182058,1,0,0:0:0:0:
193,6,182175,6,0,P|235:0|286:5,1,88.000002685547,4|0,3:2|0:0,0:0:0:0:
460,63,182411,1,8,0:0:0:0:
239,96,182528,1,0,0:0:0:0:
460,63,182646,5,0,3:0:0:0:
239,96,182764,1,0,3:0:0:0:
432,161,182881,2,0,L|425:260,1,88.000002685547,8|0,0:0|0:0,0:0:0:0:
280,312,183116,6,0,P|237:295|185:299,1,88.000002685547,4|0,3:2|0:0,0:0:0:0:
65,360,183352,1,8,0:0:0:0:
103,143,183469,1,0,0:0:0:0:
65,360,183587,5,0,3:0:0:0:
103,143,183705,1,0,3:0:0:0:
195,296,183822,2,0,L|187:185,1,88.000002685547,8|0,0:0|0:0,0:0:0:0:
129,57,184058,6,0,B|175:31|206:37|206:37|254:64|309:44,1,176.000005371094,4|8,3:1|0:0,0:0:0:0:
297,47,184528,2,0,P|288:102|297:147,1,88.000002685547,0|0,3:0|3:0,3:0:0:0:
457,185,184764,1,8,0:0:0:0:
381,31,184881,6,0,L|372:208,1,176.000005371094,0|0,3:0|3:0,3:0:0:0:
280,365,185234,2,0,L|275:277,1,88.000002685547,8|0,0:0|0:0,0:0:0:0:
292,133,185469,1,0,3:0:0:0:
362,293,185587,1,0,3:0:0:0:
195,296,185705,2,0,L|190:208,1,88.000002685547,8|0,0:0|0:0,0:0:0:0:
212,58,185940,6,0,P|158:94|55:73,1,176.000005371094,4|8,3:2|0:0,0:0:0:0:
54,72,186411,2,0,P|71:118|58:176,1,88.000002685547,0|0,3:0|3:0,3:0:0:0:
11,290,186646,1,8,0:0:0:0:
66,156,186764,6,0,L|244:149,1,176.000005371094,0|0,3:0|3:0,3:0:0:0:
459,210,187116,2,0,L|356:206,1,88.000002685547,8|0,0:0|0:0,0:0:0:0:
241,149,187352,1,0,3:0:0:0:
390,123,187469,1,0,3:0:0:0:
270,239,187587,2,0,L|167:243,1,88.000002685547,8|0,0:0|0:0,0:0:0:0:
215,9,187822,6,0,P|245:62|198:167,1,176.000005371094,4|8,3:1|0:0,0:0:0:0:
205,162,188293,2,0,P|254:153|308:157,1,88.000002685547,0|0,3:0|3:0,3:0:0:0:
431,304,188528,2,0,P|387:312|344:312,1,88.000002685547,8|0,0:0|0:0,0:0:0:0:
166,251,188764,5,8,0:0:0:0:
368,191,188881,1,8,0:3:0:0:
175,142,188999,1,2,0:3:0:0:
260,328,189116,5,8,0:0:0:0:
312,128,189234,1,8,0:0:0:0:
99,185,189352,1,8,0:3:0:0:
314,253,189469,1,2,0:3:0:0:
232,45,189587,1,2,0:3:0:0:
173,230,189705,6,0,B|265:267|265:191|358:236,1,176.000005371094,4|8,3:1|0:0,0:0:0:0:
343,229,190175,2,0,P|327:182|341:126,1,88.000002685547,0|0,3:0|3:0,3:0:0:0:
419,14,190411,1,8,0:0:0:0:
507,152,190528,6,0,L|317:145,1,176.000005371094,0|0,3:0|3:0,3:0:0:0:
144,48,190881,2,0,L|238:44,1,88.000002685547,8|0,0:0|0:0,0:0:0:0:
403,41,191116,1,0,3:0:0:0:
298,155,191234,1,0,3:0:0:0:
220,11,191352,2,0,L|314:7,1,88.000002685547,8|0,0:0|0:0,0:0:0:0:
255,243,191587,6,0,P|203:179|237:80,1,176.000005371094,0|8,3:0|0:0,0:0:0:0:
222,93,192058,2,0,P|188:129|144:140,1,88.000002685547,0|0,3:0|3:0,3:0:0:0:
60,109,192293,1,8,0:0:0:0:
298,155,192411,6,0,L|290:331,1,176.000005371094,0|0,3:0|3:0,3:0:0:0:
155,227,192764,2,0,L|151:135,1,88.000002685547,8|0,0:0|0:0,0:0:0:0:
220,11,192999,1,0,3:0:0:0:
224,179,193116,1,0,3:0:0:0:
88,90,193234,1,8,0:0:0:0:
250,94,193352,1,0,0:0:0:0:
153,226,193469,6,0,P|158:132|228:94,1,176.000005371094,4|8,3:1|0:0,0:0:0:0:
222,94,193940,2,0,P|271:104|314:96,1,88.000002685547,0|0,3:0|3:0,3:0:0:0:
461,36,194175,1,8,0:0:0:0:
389,203,194293,6,0,L|380:25,1,176.000005371094,0|0,3:0|3:0,3:0:0:0:
481,174,194646,2,0,L|476:261,1,88.000002685547,8|0,0:0|0:0,0:0:0:0:
368,358,194881,1,0,3:0:0:0:
389,203,194999,1,0,3:0:0:0:
491,345,195116,2,0,L|398:348,1,88.000002685547,8|0,0:0|0:0,0:0:0:0:
226,346,195352,6,0,B|251:301|236:259|236:259|202:213|232:159,1,176.000005371094,0|8,3:0|0:0,0:0:0:0:
223,178,195822,2,0,P|279:189|320:180,1,88.000002685547,0|0,3:0|3:0,3:0:0:0:
420,97,196058,1,8,0:0:0:0:
233,2,196175,6,0,L|222:198,1,176.000005371094,0|0,3:0|3:0,3:0:0:0:
330,356,196528,2,0,L|326:265,1,88.000002685547,8|0,0:0|0:0,0:0:0:0:
308,99,196764,1,0,3:0:0:0:
193,206,196881,1,0,3:0:0:0:
346,251,196999,1,8,0:0:0:0:
320,67,197116,1,0,0:0:0:0:
166,228,197234,6,0,P|208:251|263:245,1,88.000002685547,4|0,3:2|0:0,0:0:0:0:
408,163,197469,1,8,0:0:0:0:
186,116,197587,1,0,0:0:0:0:
406,72,197705,5,0,3:0:0:0:
180,127,197822,1,0,3:0:0:0:
345,222,197940,2,0,L|339:321,1,88.000002685547,8|0,0:0|0:0,0:0:0:0:
150,350,198175,6,0,P|140:301|146:255,1,88.000002685547,4|0,3:2|0:0,0:0:0:0:
176,89,198411,1,8,0:0:0:0:
46,277,198528,1,0,0:0:0:0:
230,148,198646,5,0,3:0:0:0:
5,200,198764,1,0,3:0:0:0:
244,241,198881,2,0,L|241:344,1,88.000002685547,8|0,0:0|0:0,0:0:0:0:
0,301,199116,6,0,P|57:275|173:304,1,176.000005371094,4|8,3:1|0:0,0:0:0:0:
164,297,199587,2,0,P|149:241|162:187,1,88.000002685547,0|0,3:0|3:0,3:0:0:0:
185,52,199822,1,8,0:0:0:0:
310,125,199940,6,0,L|130:132,1,176.000005371094,0|0,3:0|3:0,3:0:0:0:
276,18,200293,2,0,L|368:22,1,88.000002685547,8|0,0:0|0:0,0:0:0:0:
491,101,200528,1,0,3:0:0:0:
491,101,200646,1,0,3:0:0:0:
310,125,200764,2,0,L|314:228,1,88.000002685547,8|0,0:0|0:0,0:0:0:0:
371,359,200999,5,8,0:3:0:0:
397,163,201116,1,8,0:3:0:0:
201,212,201234,1,8,0:3:0:0:
399,256,201352,1,8,0:3:0:0:
179,308,201469,5,8,0:3:0:0:
279,119,201587,1,8,0:3:0:0:
348,341,201705,1,8,0:3:0:0:
165,206,201822,1,8,0:3:0:0:
397,163,201940,5,8,0:3:0:0:
164,95,202058,1,8,0:3:0:0:
265,280,202175,1,8,0:3:0:0:
232,44,202293,1,8,0:3:0:0:
72,205,202411,5,8,0:3:0:0:
313,204,202528,1,8,0:3:0:0:
129,86,202646,1,8,0:3:0:0:
371,141,202764,1,8,0:3:0:0:
150,231,202881,5,8,0:3:0:0:
248,23,202999,1,8,0:3:0:0:
29,115,203116,1,8,0:3:0:0:
278,201,203234,1,8,0:3:0:0:
129,0,203352,5,8,0:3:0:0:
70,260,203469,1,8,0:3:0:0:
279,119,203587,1,8,0:3:0:0:
0,90,203705,1,8,0:3:0:0:
156,303,203822,6,0,B|189:220|116:219|158:138,1,160,8|0,0:0|0:0,0:0:0:0:
