osu file format v14

[General]
AudioFilename: audio.mp3
AudioLeadIn: 0
PreviewTime: 33467
Countdown: 0
SampleSet: None
StackLeniency: 0.7
Mode: 0
LetterboxInBreaks: 0
WidescreenStoryboard: 0

[Editor]
DistanceSpacing: 0.3
BeatDivisor: 4
GridSize: 8
TimelineZoom: 1

[Metadata]
Title:American Idiot
TitleUnicode:American Idiot
Artist:Green Day
ArtistUnicode:Green Day
Creator:X4D
Version:Extra
Source:
Tags:cut short version rock Billie Joe Armstrong Tré Cool Mike Dirnt band punk
BeatmapID:2046211
BeatmapSetID:977670

[Difficulty]
HPDrainRate:6
CircleSize:4
OverallDifficulty:9
ApproachRate:9.3
SliderMultiplier:1.7
SliderTickRate:1

[Events]
//Background and Video events
0,0,"425460.jpg",0,0
//Break Periods
//Storyboard Layer 0 (Background)
//Storyboard Layer 1 (Fail)
//Storyboard Layer 2 (Pass)
//Storyboard Layer 3 (Foreground)
//Storyboard Sound Samples

[TimingPoints]
0,322.58064516129,4,2,1,90,1,0
5080,-100,4,2,1,5,0,0
5161,-100,4,2,1,90,0,0
7016,-100,4,2,1,5,0,0
7097,-100,4,2,1,90,0,0
7661,-100,4,2,1,5,0,0
7742,-100,4,2,1,90,0,0
9596,-100,4,2,1,5,0,0
9677,-100,4,2,1,90,0,0
12177,-100,4,2,1,5,0,0
12258,-100,4,2,1,90,0,0
12580,-66.6666666666667,4,2,1,90,0,0
12822,-66.6666666666667,4,2,1,5,0,0
12903,-100,4,2,1,90,0,0
15161,-66.6666666666667,4,2,1,90,0,0
15403,-66.6666666666667,4,2,1,5,0,0
15483,-100,4,2,1,90,0,0
20322,-66.6666666666667,4,2,1,90,0,0
20564,-66.6666666666667,4,2,1,5,0,0
20645,-100,4,2,1,90,0,0
22903,-66.6666666666667,4,2,1,90,0,0
23145,-66.6666666666667,4,2,1,5,0,0
23225,-100,4,2,1,90,0,0
25483,-66.6666666666667,4,2,1,90,0,0
25725,-66.6666666666667,4,2,1,5,0,0
25805,-100,4,2,1,90,0,0
30645,-66.6666666666667,4,2,1,90,0,0
30887,-66.6666666666667,4,2,1,5,0,0
30967,-100,4,2,1,90,0,0
32822,-100,4,2,1,5,0,0
32903,-100,4,2,1,90,0,0
33225,-200,4,2,1,90,0,0
33467,-200,4,2,1,5,0,0
33548,-83.3333333333333,4,2,1,90,0,0
33790,-83.3333333333333,4,2,1,5,0,0
33870,-83.3333333333333,4,2,1,90,0,0
36370,-83.3333333333333,4,2,1,5,0,0
36450,-83.3333333333333,4,2,1,90,0,0
37499,-83.3333333333333,4,2,1,5,0,0
37579,-83.3333333333333,4,2,1,90,0,0
44112,-83.3333333333333,4,2,1,5,0,0
44192,-83.3333333333333,4,2,1,90,0,0
46693,-83.3333333333333,4,2,1,5,0,0
46773,-83.3333333333333,4,2,1,90,0,0
49274,-83.3333333333333,4,2,1,5,0,0
49354,-83.3333333333333,4,2,1,90,0,0

[Colours]
Combo1 : 196,190,123
Combo2 : 113,150,80
Combo3 : 178,178,178
Combo4 : 168,208,204

[HitObjects]
132,32,4838,6,0,P|120:91|107:185,1,127.5
160,234,5161,5,0,0:0:0:0:
19,145,5322,1,0,0:0:0:0:
83,369,5483,1,0,0:0:0:0:
257,251,5645,2,0,P|304:238|396:326,1,170
294,364,6129,1,0,0:0:0:0:
216,167,6290,6,0,P|212:117|204:60,1,85
280,14,6612,1,0,0:0:0:0:
391,151,6774,2,0,P|459:202|496:195,1,127.5
509,169,7096,1,0,0:0:0:0:
409,318,7258,1,0,0:0:0:0:
508,327,7419,2,0,P|444:336|382:348,1,127.5
294,364,7741,5,0,0:0:0:0:
362,217,7903,1,0,0:0:0:0:
189,100,8064,1,0,0:0:0:0:
38,274,8225,2,0,B|150:260|77:197|197:187,1,170
228,284,8709,1,0,0:0:0:0:
41,187,8870,6,0,P|37:144|32:102,1,85
101,24,9193,1,0,0:0:0:0:
176,189,9354,2,0,P|237:189|280:144,1,127.5
330,55,9677,1,0,0:0:0:0:
207,114,9838,1,0,0:0:0:0:
384,232,9999,2,0,P|378:189|375:147,1,85
247,42,10322,5,0,0:0:0:0:
282,257,10483,1,0,0:0:0:0:
375,147,10645,1,0,0:0:0:0:
344,349,10806,2,0,P|289:287|207:293,1,170
128,359,11290,1,0,0:0:0:0:
94,191,11451,6,0,P|136:196|178:199,1,85
253,147,11774,1,0,0:0:0:0:
378,46,11935,2,0,P|439:45|482:90,1,127.5
450,174,12258,1,0,0:0:0:0:
450,174,12419,1,0,0:0:0:0:
286,282,12580,6,0,B|352:285|352:285|406:266|406:266|512:270,1,191.250007295609
434,375,12903,5,0,0:0:0:0:
431,362,13225,1,0,0:0:0:0:
428,349,13548,1,0,0:0:0:0:
425,336,13870,1,0,0:0:0:0:
422,323,14193,1,0,0:0:0:0:
419,310,14516,1,0,0:0:0:0:
416,297,14838,1,0,0:0:0:0:
475,224,15161,6,0,B|477:175|477:175|437:137|337:155|350:253,1,191.250007295609
311,300,15483,5,0,0:0:0:0:
132,195,15645,1,0,0:0:0:0:
98,349,15806,1,0,0:0:0:0:
208,121,15967,2,0,P|220:205|235:288,1,170
185,373,16451,1,0,0:0:0:0:
83,264,16612,6,0,P|43:240|-18:249,1,85
15,341,16935,1,0,0:0:0:0:
115,166,17096,2,0,P|119:116|127:59,1,85
43,13,17419,1,0,0:0:0:0:
225,145,17580,1,0,0:0:0:0:
368,84,17741,1,0,0:0:0:0:
439,159,18064,5,0,0:0:0:0:
426,162,18386,1,0,0:0:0:0:
413,165,18709,1,0,0:0:0:0:
400,168,19032,1,0,0:0:0:0:
387,171,19354,1,0,0:0:0:0:
374,174,19677,1,0,0:0:0:0:
361,177,19999,1,0,0:0:0:0:
274,274,20322,6,0,B|272:225|272:225|312:187|412:205|399:303,1,191.250007295609
400,342,20645,5,0,0:0:0:0:
505,159,20806,1,0,0:0:0:0:
386,22,20967,1,0,0:0:0:0:
172,186,21129,2,0,B|263:174|214:116|315:101,1,170
192,28,21612,1,0,0:0:0:0:
73,132,21774,6,0,P|67:174|64:216,1,85
3,58,22096,1,0,0:0:0:0:
51,301,22258,2,0,P|92:299|128:276,1,85
203,192,22580,1,0,0:0:0:0:
203,192,22741,1,0,0:0:0:0:
291,377,22903,6,0,B|290:368|290:368|293:357|293:357|291:340|291:340|296:312|296:312|296:247|296:247|320:284|379:264,1,191.250007295609
436,234,23225,5,0,0:0:0:0:
433,247,23547,1,0,0:0:0:0:
430,260,23870,1,0,0:0:0:0:
427,273,24192,1,0,0:0:0:0:
424,286,24515,1,0,0:0:0:0:
421,299,24838,1,0,0:0:0:0:
418,312,25160,1,0,0:0:0:0:
324,349,25483,6,0,B|320:305|320:305|237:295|282:362|180:355,1,191.250007295609
92,373,25806,5,0,0:0:0:0:
201,270,25967,1,0,0:0:0:0:
56,180,26129,1,0,0:0:0:0:
181,12,26290,2,0,P|165:95|153:179,1,170
217,289,26774,1,0,0:0:0:0:
303,124,26935,6,0,P|343:100|404:109,1,85
443,170,27258,1,0,0:0:0:0:
333,330,27419,2,0,P|329:280|321:223,1,85
432,375,27741,1,0,0:0:0:0:
217,289,27903,1,0,0:0:0:0:
134,372,28064,1,0,0:0:0:0:
66,318,28387,5,0,0:0:0:0:
63,305,28709,1,0,0:0:0:0:
60,292,29032,1,0,0:0:0:0:
57,279,29354,1,0,0:0:0:0:
54,266,29677,1,0,0:0:0:0:
51,253,30000,1,0,0:0:0:0:
48,240,30322,1,0,0:0:0:0:
109,171,30645,6,0,B|113:127|113:127|196:117|151:184|253:177,1,191.250007295609
338,104,30967,1,0,0:0:0:0:
299,310,31129,1,0,0:0:0:0:
348,69,31290,1,0,0:0:0:0:
506,306,31451,2,0,B|415:294|464:236|363:221,1,170
285,345,31935,1,0,0:0:0:0:
247,146,32096,6,0,P|253:188|256:230,1,85
145,171,32419,1,0,0:0:0:0:
88,338,32580,6,0,P|47:336|8:255,1,127.5
85,241,32903,1,0,0:0:0:0:
85,241,33064,1,0,0:0:0:0:
22,55,33225,6,0,B|24:83|24:83|21:87|21:87|24:134,1,63.75
29,137,33548,6,0,B|116:125|69:69|166:55,1,152.999995330811
408,209,33870,1,0,0:0:0:0:
164,142,34032,1,0,0:0:0:0:
379,29,34193,1,0,0:0:0:0:
293,259,34354,1,0,0:0:0:0:
257,114,34516,1,0,0:0:0:0:
325,348,34677,6,0,P|386:338|419:297,1,101.999996887207
184,220,34999,2,0,P|146:186|96:182,1,101.999996887207
119,384,35322,1,0,0:0:0:0:
257,114,35483,1,0,0:0:0:0:
226,356,35645,1,0,0:0:0:0:
164,142,35806,1,0,0:0:0:0:
307,251,35967,5,0,0:0:0:0:
307,251,36048,1,0,0:0:0:0:
307,251,36129,2,0,P|404:229|401:166,1,152.999995330811
434,62,36451,1,0,0:0:0:0:
417,332,36612,1,0,0:0:0:0:
328,152,36774,1,0,0:0:0:0:
505,120,36935,1,0,0:0:0:0:
359,18,37096,1,0,0:0:0:0:
261,268,37258,6,0,B|174:256|221:200|124:186,1,152.999995330811
104,201,37580,1,0,0:0:0:0:
5,88,37741,2,0,P|42:54|92:49,1,101.999996887207
141,341,38064,1,0,0:0:0:0:
75,124,38225,1,0,0:0:0:0:
81,280,38387,1,0,0:0:0:0:
104,201,38548,1,0,0:0:0:0:
221,304,38709,6,0,P|276:295|337:289,1,101.999996887207
482,360,39032,1,0,0:0:0:0:
388,342,39193,1,0,0:0:0:0:
424,169,39354,1,0,0:0:0:0:
444,281,39516,1,0,0:0:0:0:
325,69,39677,1,0,0:0:0:0:
481,94,39838,6,0,P|475:44|441:7,1,101.999996887207
231,62,40161,2,0,P|236:111|270:148,1,101.999996887207
444,281,40483,2,0,P|389:272|328:266,1,101.999996887207
100,350,40806,1,0,0:0:0:0:
277,230,40967,1,0,0:0:0:0:
155,170,41129,1,0,0:0:0:0:
82,383,41290,6,0,B|98:269|11:308|28:182,1,203.999993774414
230,30,41774,1,0,0:0:0:0:
129,245,41935,1,0,0:0:0:0:
242,117,42096,1,0,0:0:0:0:
111,70,42258,1,0,0:0:0:0:
277,230,42419,6,0,P|399:209|522:196,1,203.999993774414
355,81,42903,1,0,0:0:0:0:
355,81,43064,1,0,0:0:0:0:
351,324,43225,1,0,0:0:0:0:
427,235,43387,1,0,0:0:0:0:
242,117,43548,2,0,P|251:172|257:233,1,101.999996887207
