osu file format v14

[General]
AudioFilename: audio.mp3
AudioLeadIn: 0
PreviewTime: 142154
Countdown: 0
SampleSet: None
StackLeniency: 0.7
Mode: 1
LetterboxInBreaks: 0
WidescreenStoryboard: 0

[Editor]
DistanceSpacing: 0.9
BeatDivisor: 4
GridSize: 32
TimelineZoom: 2.2

[Metadata]
Title:American Idiot
TitleUnicode:American Idiot
Artist:Green Day
ArtistUnicode:Green Day
Creator:Player-
Version:Ringleader
Source:American Idiot
Tags:what
BeatmapID:2121248
BeatmapSetID:1013486

[Difficulty]
HPDrainRate:6
CircleSize:5
OverallDifficulty:5.3
ApproachRate:10
SliderMultiplier:1.4
SliderTickRate:1

[Events]
//Background and Video events
0,0,"49148_flags_usa_soviet_flag.jpg",0,0
//Break Periods
//Storyboard Layer 0 (Background)
//Storyboard Layer 1 (Fail)
//Storyboard Layer 2 (Pass)
//Storyboard Layer 3 (Foreground)
//Storyboard Sound Samples

[TimingPoints]
300,322.58064516129,4,1,0,80,1,0
2558,-71.4285714285714,4,1,0,80,0,0
2880,-86.9565217391304,4,1,0,80,0,0
10622,-100,4,1,0,80,0,0
12880,-71.4285714285714,4,1,0,80,0,0
13203,-86.9565217391304,4,1,0,80,0,0
15783,-100,4,1,0,80,0,0
18041,-71.4285714285714,4,1,0,80,0,0
18364,-86.9565217391304,4,1,0,80,0,0
20945,-100,4,1,0,80,0,0
23203,-71.4285714285714,4,1,0,80,0,0
23525,-86.9565217391304,4,1,0,80,0,0
26106,-100,4,1,0,80,0,0
28364,-71.4285714285714,4,1,0,80,0,0
28687,-86.9565217391304,4,1,0,80,0,0
31267,-86.9565217391304,4,1,0,80,0,1
48848,-89.2857142857143,4,1,0,80,0,1
49009,-91.743119266055,4,1,0,80,0,1
49170,-94.3396226415094,4,1,0,80,0,1
49251,-97.0873786407767,4,1,0,80,0,1
49332,-100,4,1,0,80,0,0
51590,-71.4285714285714,4,1,0,80,0,0
51912,-86.9565217391304,4,1,0,80,0,0
57074,-100,4,1,0,80,0,0
59332,-71.4285714285714,4,1,0,80,0,0
59654,-86.9565217391304,4,1,0,80,0,0
62235,-100,4,1,0,80,0,0
64493,-71.4285714285714,4,1,0,80,0,0
64816,-86.9565217391304,4,1,0,80,0,0
67396,-100,4,1,0,80,0,0
69654,-71.4285714285714,4,1,0,80,0,0
69977,-86.9565217391304,4,1,0,80,0,0
72558,-100,4,1,0,80,0,0
74816,-71.4285714285714,4,1,0,80,0,0
75138,-86.9565217391304,4,1,0,80,0,0
77719,-86.9565217391304,4,1,0,80,0,1
95299,-89.2857142857143,4,1,0,80,0,1
95461,-91.743119266055,4,1,0,80,0,1
95622,-94.3396226415094,4,1,0,80,0,1
95703,-97.0873786407767,4,1,0,80,0,1
95783,-100,4,1,0,80,0,0
98041,-71.4285714285714,4,1,0,80,0,0
98364,-86.9565217391304,4,1,0,80,0,0
126267,-89.2857142857143,4,1,0,80,0,0
126429,-91.743119266055,4,1,0,80,0,0
126590,-94.3396226415094,4,1,0,80,0,0
126670,-97.0873786407767,4,1,0,80,0,0
126751,-100,4,1,0,80,0,0
129009,-71.4285714285714,4,1,0,80,0,0
129332,-100,4,1,0,80,0,0
131590,-71.4285714285714,4,1,0,80,0,0
131912,-93.4579439252336,4,1,0,80,0,0
134170,-71.4285714285714,4,1,0,80,0,0
134493,-93.4579439252336,4,1,0,80,0,0
136751,-71.4285714285714,4,1,0,80,0,0
137074,-93.4579439252336,4,1,0,80,0,0
139332,-71.4285714285714,4,1,0,80,0,0
142235,-86.9565217391304,4,1,0,80,0,1
159816,-88.4955752212389,4,1,0,80,0,1
159977,-90.0900900900901,4,1,0,80,0,1
160138,-91.743119266055,4,1,0,80,0,1
160219,-93.4579439252336,4,1,0,80,0,1
160299,-95.2380952380952,4,1,0,80,0,0
162558,-71.4285714285714,4,1,0,80,0,0
162880,-86.9565217391304,4,1,0,80,0,0
170622,-100,4,1,0,80,0,0
172074,-86.9565217391304,4,1,0,80,0,0

[HitObjects]
326,197,300,5,0,0:0:0:0:
259,239,461,1,0,0:0:0:0:
313,179,783,1,8,0:0:0:0:
243,182,1106,1,8,0:0:0:0:
293,143,1429,1,0,0:0:0:0:
283,229,1751,1,0,0:0:0:0:
283,229,1912,1,8,0:0:0:0:
234,180,2235,1,8,0:0:0:0:
316,177,2558,1,4,0:0:0:0:
294,180,2880,1,0,0:0:0:0:
234,167,3041,1,0,0:0:0:0:
191,92,3122,1,0,0:0:0:0:
184,180,3203,1,8,0:0:0:0:
223,189,3364,1,0,0:0:0:0:
284,215,3687,1,0,0:0:0:0:
299,214,3848,1,8,0:0:0:0:
278,209,4009,1,0,0:0:0:0:
274,207,4090,1,0,0:0:0:0:
280,207,4170,1,0,0:0:0:0:
310,210,4332,1,0,0:0:0:0:
337,223,4493,1,8,0:0:0:0:
280,239,4816,1,0,0:0:0:0:
372,249,4977,1,0,0:0:0:0:
344,242,5138,1,8,0:0:0:0:
322,259,5461,1,0,0:0:0:0:
312,241,5622,1,0,0:0:0:0:
321,235,5783,1,8,0:0:0:0:
323,277,5945,1,0,0:0:0:0:
228,193,6025,1,0,0:0:0:0:
228,193,6106,1,0,0:0:0:0:
296,251,6267,1,0,0:0:0:0:
312,244,6429,1,8,0:0:0:0:
299,228,6590,1,0,0:0:0:0:
304,217,6670,1,0,0:0:0:0:
303,216,6751,1,0,0:0:0:0:
320,218,6912,1,0,0:0:0:0:
326,217,7074,1,8,0:0:0:0:
271,224,7396,1,8,0:0:0:0:
331,212,7558,1,0,0:0:0:0:
345,214,7719,1,8,0:0:0:0:
344,196,8041,1,0,0:0:0:0:
297,264,8203,1,0,0:0:0:0:
302,237,8364,1,8,0:0:0:0:
262,163,8525,1,8,0:0:0:0:
249,170,8606,1,0,0:0:0:0:
251,165,8687,1,0,0:0:0:0:
299,191,8848,1,0,0:0:0:0:
299,191,9009,1,8,0:0:0:0:
294,210,9170,1,0,0:0:0:0:
289,208,9251,1,0,0:0:0:0:
299,221,9332,1,0,0:0:0:0:
296,222,9493,1,0,0:0:0:0:
306,224,9654,1,8,0:0:0:0:
305,230,9977,1,0,0:0:0:0:
243,235,10138,1,0,0:0:0:0:
246,228,10299,1,8,0:0:0:0:
323,251,10622,1,0,0:0:0:0:
310,225,10945,1,0,0:0:0:0:
321,193,11267,1,8,0:0:0:0:
281,204,11590,1,0,0:0:0:0:
294,205,11912,1,8,0:0:0:0:
298,204,12235,1,0,0:0:0:0:
292,201,12558,1,0,0:0:0:0:
299,203,12880,1,12,0:0:0:0:
294,180,13203,1,0,0:0:0:0:
234,167,13364,1,0,0:0:0:0:
191,92,13445,1,0,0:0:0:0:
184,180,13526,1,8,0:0:0:0:
223,189,13687,1,0,0:0:0:0:
284,215,14010,1,0,0:0:0:0:
299,214,14171,1,8,0:0:0:0:
278,209,14332,1,0,0:0:0:0:
274,207,14413,1,0,0:0:0:0:
280,207,14493,1,0,0:0:0:0:
310,210,14655,1,0,0:0:0:0:
337,223,14816,1,8,0:0:0:0:
280,239,15139,1,0,0:0:0:0:
372,249,15300,1,0,0:0:0:0:
344,242,15461,1,8,0:0:0:0:
333,163,15783,1,0,0:0:0:0:
298,216,16106,1,8,0:0:0:0:
298,216,16429,1,0,0:0:0:0:
277,208,16751,1,0,0:0:0:0:
282,198,17074,1,8,0:0:0:0:
308,207,17396,1,0,0:0:0:0:
324,202,17719,1,0,0:0:0:0:
234,153,18041,1,12,0:0:0:0:
322,259,18364,1,0,0:0:0:0:
312,241,18525,1,0,0:0:0:0:
321,235,18686,1,8,0:0:0:0:
323,277,18848,1,0,0:0:0:0:
228,193,18928,1,0,0:0:0:0:
228,193,19009,1,0,0:0:0:0:
296,251,19170,1,0,0:0:0:0:
312,244,19332,1,8,0:0:0:0:
299,228,19493,1,0,0:0:0:0:
304,217,19573,1,0,0:0:0:0:
303,216,19654,1,0,0:0:0:0:
320,218,19815,1,0,0:0:0:0:
326,217,19977,1,8,0:0:0:0:
271,224,20299,1,8,0:0:0:0:
331,212,20461,1,0,0:0:0:0:
345,214,20622,1,8,0:0:0:0:
234,182,20945,1,0,0:0:0:0:
265,181,21267,1,8,0:0:0:0:
345,198,21590,1,0,0:0:0:0:
333,200,21912,1,0,0:0:0:0:
334,199,22235,1,8,0:0:0:0:
251,182,22558,1,8,0:0:0:0:
320,207,22880,1,0,0:0:0:0:
270,149,23203,1,12,0:0:0:0:
344,196,23525,1,0,0:0:0:0:
297,264,23687,1,0,0:0:0:0:
302,237,23848,1,8,0:0:0:0:
262,163,24009,1,8,0:0:0:0:
249,170,24090,1,0,0:0:0:0:
251,165,24171,1,0,0:0:0:0:
299,191,24332,1,0,0:0:0:0:
299,191,24493,1,8,0:0:0:0:
294,210,24654,1,0,0:0:0:0:
289,208,24735,1,0,0:0:0:0:
299,221,24816,1,0,0:0:0:0:
296,222,24977,1,0,0:0:0:0:
306,224,25138,1,8,0:0:0:0:
305,230,25461,1,0,0:0:0:0:
243,235,25622,1,0,0:0:0:0:
246,228,25783,1,8,0:0:0:0:
304,213,26106,1,0,0:0:0:0:
313,183,26429,1,8,0:0:0:0:
299,184,26751,1,0,0:0:0:0:
285,182,27074,1,0,0:0:0:0:
296,185,27396,1,8,0:0:0:0:
299,184,27719,1,0,0:0:0:0:
294,183,28041,1,8,0:0:0:0:
220,166,28364,1,4,0:0:0:0:
257,186,28687,1,0,0:0:0:0:
276,175,28848,1,0,0:0:0:0:
310,188,29009,1,8,0:0:0:0:
266,182,29170,1,0,0:0:0:0:
266,264,29493,1,0,0:0:0:0:
260,258,29654,1,8,0:0:0:0:
276,249,29816,1,0,0:0:0:0:
192,171,29896,1,0,0:0:0:0:
192,171,29977,1,0,0:0:0:0:
252,230,30138,1,0,0:0:0:0:
262,227,30299,1,12,0:0:0:0:
225,229,30622,1,0,0:0:0:0:
261,280,30783,1,0,0:0:0:0:
254,273,30864,1,0,0:0:0:0:
255,274,30945,1,8,0:0:0:0:
255,112,31025,1,8,0:0:0:0:
273,112,31106,1,8,0:0:0:0:
226,294,31187,1,8,0:0:0:0:
231,194,31267,1,4,0:0:0:0:
212,280,31590,1,8,0:0:0:0:
291,262,31751,1,0,0:0:0:0:
248,227,31912,1,8,0:0:0:0:
252,223,31993,1,0,0:0:0:0:
253,222,32074,1,8,0:0:0:0:
208,259,32235,1,8,0:0:0:0:
267,217,32396,1,0,0:0:0:0:
262,230,32477,1,0,0:0:0:0:
262,230,32558,1,0,0:0:0:0:
269,234,32719,1,8,0:0:0:0:
256,227,32880,1,0,0:0:0:0:
222,170,33041,1,0,0:0:0:0:
274,276,33203,1,8,0:0:0:0:
221,238,33283,1,8,0:0:0:0:
221,238,33364,1,0,0:0:0:0:
245,242,33525,1,8,0:0:0:0:
213,150,33848,1,4,0:0:0:0:
277,201,34170,1,8,0:0:0:0:
359,254,34332,1,0,0:0:0:0:
220,109,34493,1,8,0:0:0:0:
253,179,34574,1,8,0:0:0:0:
219,151,34654,1,0,0:0:0:0:
253,179,34816,1,8,0:0:0:0:
268,116,34977,1,0,0:0:0:0:
283,133,35058,1,0,0:0:0:0:
311,153,35138,1,0,0:0:0:0:
381,211,35299,1,0,0:0:0:0:
386,215,35461,1,8,0:0:0:0:
307,259,35783,1,8,0:0:0:0:
327,253,35945,1,0,0:0:0:0:
294,225,36106,1,8,0:0:0:0:
235,143,36187,1,0,0:0:0:0:
244,219,36267,1,0,0:0:0:0:
175,187,36429,1,12,0:0:0:0:
337,233,36751,1,0,0:0:0:0:
251,172,36832,1,0,0:0:0:0:
251,172,36912,1,8,0:0:0:0:
321,244,37074,1,8,0:0:0:0:
319,234,37235,1,8,0:0:0:0:
290,122,37316,1,8,0:0:0:0:
312,234,37396,1,0,0:0:0:0:
288,217,37558,1,8,0:0:0:0:
239,150,37880,1,8,0:0:0:0:
367,279,37961,1,0,0:0:0:0:
269,157,38041,1,0,0:0:0:0:
287,224,38203,1,0,0:0:0:0:
301,178,38364,1,0,0:0:0:0:
301,178,38525,1,8,0:0:0:0:
343,172,38687,1,0,0:0:0:0:
245,222,39009,1,12,0:0:0:0:
346,232,39332,1,8,0:0:0:0:
340,232,39493,1,8,0:0:0:0:
332,232,39574,1,8,0:0:0:0:
332,232,39654,1,0,0:0:0:0:
308,252,39816,1,0,0:0:0:0:
306,246,39977,1,8,0:0:0:0:
187,169,40138,1,0,0:0:0:0:
258,250,40461,1,0,0:0:0:0:
258,250,40622,1,8,0:0:0:0:
337,252,40783,1,0,0:0:0:0:
278,255,40945,1,8,0:0:0:0:
274,252,41106,1,8,0:0:0:0:
360,253,41267,1,0,0:0:0:0:
259,220,41429,1,0,0:0:0:0:
316,239,41590,1,12,0:0:0:0:
294,195,41912,1,8,0:0:0:0:
362,269,42074,1,0,0:0:0:0:
362,263,42235,1,8,0:0:0:0:
217,231,42316,1,0,0:0:0:0:
217,231,42396,1,8,0:0:0:0:
275,200,42558,1,8,0:0:0:0:
264,236,42719,1,8,0:0:0:0:
212,157,42799,1,0,0:0:0:0:
226,179,42880,1,0,0:0:0:0:
307,284,42961,1,0,0:0:0:0:
220,195,43041,1,8,0:0:0:0:
297,258,43203,1,8,0:0:0:0:
302,257,43364,1,0,0:0:0:0:
288,253,43525,1,8,0:0:0:0:
274,244,43606,1,8,0:0:0:0:
251,246,43687,1,0,0:0:0:0:
265,269,43767,1,0,0:0:0:0:
267,268,43848,1,8,0:0:0:0:
293,241,44170,1,4,0:0:0:0:
317,251,44493,1,8,0:0:0:0:
310,269,44654,1,0,0:0:0:0:
238,252,44735,1,0,0:0:0:0:
305,269,44816,1,8,0:0:0:0:
276,262,44977,1,8,0:0:0:0:
274,256,45138,1,0,0:0:0:0:
217,207,45299,1,8,0:0:0:0:
201,163,45380,1,8,0:0:0:0:
255,165,45461,1,8,0:0:0:0:
278,224,45622,1,0,0:0:0:0:
285,218,45783,1,8,0:0:0:0:
280,193,45864,1,8,0:0:0:0:
318,180,45945,1,0,0:0:0:0:
318,180,46106,1,8,0:0:0:0:
262,179,46267,1,0,0:0:0:0:
312,201,46348,1,0,0:0:0:0:
251,184,46429,1,8,0:0:0:0:
327,146,46509,1,0,0:0:0:0:
299,201,46590,1,8,0:0:0:0:
242,185,46751,1,4,0:0:0:0:
237,169,47074,1,8,0:0:0:0:
267,225,47235,1,8,0:0:0:0:
278,253,47316,1,8,0:0:0:0:
267,225,47396,1,0,0:0:0:0:
281,231,47558,1,0,0:0:0:0:
263,212,47719,1,8,0:0:0:0:
318,233,47880,1,0,0:0:0:0:
339,277,47961,1,0,0:0:0:0:
339,277,48041,1,0,0:0:0:0:
292,243,48203,1,8,0:0:0:0:
281,214,48283,1,8,0:0:0:0:
279,214,48364,1,0,0:0:0:0:
214,118,48525,1,8,0:0:0:0:
315,227,48848,1,8,0:0:0:0:
315,227,49009,1,8,0:0:0:0:
299,231,49170,1,0,0:0:0:0:
301,233,49251,1,0,0:0:0:0:
303,233,49332,1,8,0:0:0:0:
321,192,49493,1,0,0:0:0:0:
308,196,49654,1,8,0:0:0:0:
364,221,49816,1,8,0:0:0:0:
358,235,49977,1,0,0:0:0:0:
357,249,50138,1,0,0:0:0:0:
354,248,50299,1,8,0:0:0:0:
248,195,50461,1,0,0:0:0:0:
227,189,50541,1,0,0:0:0:0:
234,195,50622,1,0,0:0:0:0:
284,256,50783,1,0,0:0:0:0:
291,256,50945,1,8,0:0:0:0:
300,258,51106,1,8,0:0:0:0:
295,255,51267,1,0,0:0:0:0:
270,258,51429,1,0,0:0:0:0:
259,197,51590,1,12,0:0:0:0:
294,180,51912,1,0,0:0:0:0:
234,167,52073,1,0,0:0:0:0:
191,92,52154,1,0,0:0:0:0:
184,180,52235,1,8,0:0:0:0:
223,189,52396,1,0,0:0:0:0:
284,215,52719,1,0,0:0:0:0:
299,214,52880,1,8,0:0:0:0:
278,209,53041,1,0,0:0:0:0:
274,207,53122,1,0,0:0:0:0:
280,207,53202,1,0,0:0:0:0:
310,210,53364,1,0,0:0:0:0:
337,223,53525,1,8,0:0:0:0:
280,239,53848,1,0,0:0:0:0:
372,249,54009,1,0,0:0:0:0:
344,242,54170,1,8,0:0:0:0:
322,259,54493,1,12,0:0:0:0:
312,241,54654,1,0,0:0:0:0:
321,235,54815,1,8,0:0:0:0:
323,277,54977,1,0,0:0:0:0:
228,193,55057,1,0,0:0:0:0:
228,193,55138,1,0,0:0:0:0:
296,251,55299,1,0,0:0:0:0:
312,244,55461,1,8,0:0:0:0:
299,228,55622,1,0,0:0:0:0:
304,217,55702,1,0,0:0:0:0:
303,216,55783,1,0,0:0:0:0:
320,218,55944,1,0,0:0:0:0:
326,217,56106,1,8,0:0:0:0:
271,224,56428,1,8,0:0:0:0:
331,212,56590,1,0,0:0:0:0:
345,214,56751,1,8,0:0:0:0:
225,177,57074,1,0,0:0:0:0:
265,191,57396,1,8,0:0:0:0:
275,198,57719,1,8,0:0:0:0:
275,198,58041,1,0,0:0:0:0:
275,198,58364,1,8,0:0:0:0:
239,216,58687,1,8,0:0:0:0:
240,222,59009,1,0,0:0:0:0:
239,195,59332,1,12,0:0:0:0:
344,196,59654,1,0,0:0:0:0:
297,264,59816,1,0,0:0:0:0:
302,237,59977,1,8,0:0:0:0:
262,163,60138,1,8,0:0:0:0:
249,170,60219,1,0,0:0:0:0:
251,165,60300,1,0,0:0:0:0:
299,191,60461,1,0,0:0:0:0:
299,191,60622,1,8,0:0:0:0:
294,210,60783,1,0,0:0:0:0:
289,208,60864,1,0,0:0:0:0:
299,221,60945,1,0,0:0:0:0:
296,222,61106,1,0,0:0:0:0:
306,224,61267,1,8,0:0:0:0:
305,230,61590,1,0,0:0:0:0:
243,235,61751,1,0,0:0:0:0:
246,228,61912,1,8,0:0:0:0:
260,228,62235,1,0,0:0:0:0:
247,224,62558,1,0,0:0:0:0:
248,222,62880,1,8,0:0:0:0:
260,228,63203,1,0,0:0:0:0:
297,225,63525,1,8,0:0:0:0:
279,220,63848,1,8,0:0:0:0:
280,220,64170,1,0,0:0:0:0:
286,221,64493,1,12,0:0:0:0:
257,186,64816,1,0,0:0:0:0:
276,175,64977,1,0,0:0:0:0:
310,188,65138,1,8,0:0:0:0:
266,182,65299,1,0,0:0:0:0:
266,264,65622,1,0,0:0:0:0:
260,258,65783,1,8,0:0:0:0:
276,249,65945,1,0,0:0:0:0:
192,171,66025,1,0,0:0:0:0:
192,171,66106,1,0,0:0:0:0:
252,230,66267,1,0,0:0:0:0:
262,227,66428,1,12,0:0:0:0:
225,229,66751,1,0,0:0:0:0:
261,280,66912,1,0,0:0:0:0:
254,273,66993,1,0,0:0:0:0:
255,274,67074,1,8,0:0:0:0:
266,202,67235,1,8,0:0:0:0:
283,206,67396,1,0,0:0:0:0:
293,160,67719,1,8,0:0:0:0:
314,184,68041,1,8,0:0:0:0:
289,202,68364,1,0,0:0:0:0:
252,190,68525,1,8,0:0:0:0:
220,142,68687,1,0,0:0:0:0:
245,170,68848,1,0,0:0:0:0:
261,174,69009,1,8,0:0:0:0:
196,148,69170,1,0,0:0:0:0:
205,148,69332,1,8,0:0:0:0:
259,155,69654,1,12,0:0:0:0:
344,196,69977,1,0,0:0:0:0:
297,264,70139,1,0,0:0:0:0:
302,237,70300,1,8,0:0:0:0:
262,163,70461,1,8,0:0:0:0:
249,170,70542,1,0,0:0:0:0:
251,165,70623,1,0,0:0:0:0:
299,191,70784,1,0,0:0:0:0:
299,191,70945,1,8,0:0:0:0:
294,210,71106,1,0,0:0:0:0:
289,208,71187,1,0,0:0:0:0:
299,221,71268,1,0,0:0:0:0:
296,222,71429,1,0,0:0:0:0:
306,224,71590,1,8,0:0:0:0:
305,230,71913,1,0,0:0:0:0:
243,235,72074,1,0,0:0:0:0:
246,228,72235,1,8,0:0:0:0:
260,272,72558,1,0,0:0:0:0:
301,292,72880,1,8,0:0:0:0:
268,264,73203,1,0,0:0:0:0:
323,288,73364,1,0,0:0:0:0:
319,291,73525,1,8,0:0:0:0:
234,288,73687,1,0,0:0:0:0:
242,292,73848,1,0,0:0:0:0:
197,252,74009,1,0,0:0:0:0:
236,256,74170,1,8,0:0:0:0:
200,242,74332,1,0,0:0:0:0:
213,242,74493,1,8,0:0:0:0:
246,198,74816,1,4,0:0:0:0:
322,259,75138,1,0,0:0:0:0:
312,241,75299,1,0,0:0:0:0:
321,235,75460,1,8,0:0:0:0:
323,277,75622,1,0,0:0:0:0:
228,193,75702,1,0,0:0:0:0:
228,193,75783,1,0,0:0:0:0:
296,251,75944,1,0,0:0:0:0:
312,244,76106,1,8,0:0:0:0:
299,228,76267,1,0,0:0:0:0:
304,217,76347,1,0,0:0:0:0:
303,216,76428,1,0,0:0:0:0:
320,218,76589,1,0,0:0:0:0:
326,217,76751,1,12,0:0:0:0:
271,224,77073,1,8,0:0:0:0:
331,212,77235,1,0,0:0:0:0:
345,214,77396,1,8,0:0:0:0:
241,170,77477,1,0,0:0:0:0:
241,170,77558,1,0,0:0:0:0:
197,188,77719,1,12,0:0:0:0:
311,209,78041,1,8,0:0:0:0:
294,210,78203,1,0,0:0:0:0:
339,216,78364,1,8,0:0:0:0:
251,202,78445,1,0,0:0:0:0:
204,170,78525,1,8,0:0:0:0:
239,179,78687,1,8,0:0:0:0:
276,190,78848,1,0,0:0:0:0:
232,150,78929,1,0,0:0:0:0:
232,150,79009,1,0,0:0:0:0:
321,208,79090,1,0,0:0:0:0:
275,173,79170,1,8,0:0:0:0:
257,246,79332,1,8,0:0:0:0:
226,215,79493,1,0,0:0:0:0:
289,269,79654,1,8,0:0:0:0:
275,216,79735,1,8,0:0:0:0:
259,208,79816,1,0,0:0:0:0:
307,208,79977,1,8,0:0:0:0:
349,254,80299,1,4,0:0:0:0:
332,289,80622,1,8,0:0:0:0:
352,287,80783,1,0,0:0:0:0:
345,286,80945,1,8,0:0:0:0:
337,297,81025,1,8,0:0:0:0:
337,297,81106,1,0,0:0:0:0:
304,286,81267,1,0,0:0:0:0:
300,281,81429,1,8,0:0:0:0:
276,228,81509,1,0,0:0:0:0:
276,228,81590,1,8,0:0:0:0:
231,198,81751,1,0,0:0:0:0:
232,240,81912,1,8,0:0:0:0:
222,252,82074,1,0,0:0:0:0:
239,255,82235,1,8,0:0:0:0:
239,255,82316,1,0,0:0:0:0:
199,191,82396,1,8,0:0:0:0:
204,200,82477,1,8,0:0:0:0:
183,164,82558,1,0,0:0:0:0:
236,204,82719,1,0,0:0:0:0:
292,219,82880,1,12,0:0:0:0:
284,264,83203,1,8,0:0:0:0:
300,264,83364,1,0,0:0:0:0:
290,259,83445,1,0,0:0:0:0:
303,264,83525,1,8,0:0:0:0:
303,270,83687,1,8,0:0:0:0:
261,260,83848,1,0,0:0:0:0:
276,268,84009,1,8,0:0:0:0:
238,295,84332,1,8,0:0:0:0:
237,174,84493,1,0,0:0:0:0:
276,220,84654,1,0,0:0:0:0:
273,281,84816,1,8,0:0:0:0:
223,238,84977,1,0,0:0:0:0:
242,237,85138,1,8,0:0:0:0:
289,250,85461,1,4,0:0:0:0:
284,256,85783,1,0,0:0:0:0:
284,247,85945,1,8,0:0:0:0:
292,243,86025,1,8,0:0:0:0:
302,239,86106,1,0,0:0:0:0:
313,233,86267,1,0,0:0:0:0:
355,246,86429,1,8,0:0:0:0:
340,229,86590,1,0,0:0:0:0:
376,260,86912,1,0,0:0:0:0:
340,258,87074,1,8,0:0:0:0:
339,258,87235,1,8,0:0:0:0:
317,241,87396,1,0,0:0:0:0:
353,278,87558,1,0,0:0:0:0:
341,267,87719,1,8,0:0:0:0:
298,231,87880,1,0,0:0:0:0:
330,231,88041,1,12,0:0:0:0:
359,280,88364,1,8,0:0:0:0:
384,226,88525,1,0,0:0:0:0:
457,277,88687,1,8,0:0:0:0:
330,231,88767,1,8,0:0:0:0:
265,220,88848,1,0,0:0:0:0:
345,217,89009,1,0,0:0:0:0:
376,224,89170,1,8,0:0:0:0:
265,220,89251,1,8,0:0:0:0:
275,218,89332,1,8,0:0:0:0:
328,262,89493,1,0,0:0:0:0:
299,250,89654,1,8,0:0:0:0:
293,235,89816,1,8,0:0:0:0:
310,263,89977,1,8,0:0:0:0:
295,262,90058,1,8,0:0:0:0:
295,258,90138,1,0,0:0:0:0:
303,258,90219,1,0,0:0:0:0:
304,258,90299,1,8,0:0:0:0:
329,253,90461,1,8,0:0:0:0:
299,250,90622,1,4,0:0:0:0:
340,225,90945,1,8,0:0:0:0:
364,246,91106,1,0,0:0:0:0:
329,237,91267,1,8,0:0:0:0:
346,297,91429,1,8,0:0:0:0:
346,297,91509,1,0,0:0:0:0:
341,243,91590,1,0,0:0:0:0:
311,270,91751,1,0,0:0:0:0:
346,269,91832,1,0,0:0:0:0:
346,269,91912,1,0,0:0:0:0:
359,272,92074,1,0,0:0:0:0:
369,272,92235,1,8,0:0:0:0:
364,219,92396,1,8,0:0:0:0:
347,219,92558,1,0,0:0:0:0:
303,214,92719,1,8,0:0:0:0:
250,187,92799,1,0,0:0:0:0:
250,187,92880,1,8,0:0:0:0:
279,190,92961,1,8,0:0:0:0:
297,196,93041,1,0,0:0:0:0:
279,190,93203,1,12,0:0:0:0:
354,157,93525,1,8,0:0:0:0:
349,174,93606,1,8,0:0:0:0:
340,177,93687,1,0,0:0:0:0:
286,182,93848,1,0,0:0:0:0:
310,175,94009,1,8,0:0:0:0:
236,150,94170,1,8,0:0:0:0:
277,161,94332,1,0,0:0:0:0:
312,168,94654,1,0,0:0:0:0:
312,168,94816,1,8,0:0:0:0:
280,153,94977,1,0,0:0:0:0:
254,177,95058,1,0,0:0:0:0:
254,177,95138,1,0,0:0:0:0:
297,177,95299,1,8,0:0:0:0:
295,176,95461,1,8,0:0:0:0:
288,175,95622,1,0,0:0:0:0:
286,175,95703,1,0,0:0:0:0:
286,177,95783,1,8,0:0:0:0:
305,225,95945,1,0,0:0:0:0:
314,224,96106,1,8,0:0:0:0:
340,265,96267,1,8,0:0:0:0:
331,248,96429,1,0,0:0:0:0:
325,244,96590,1,0,0:0:0:0:
328,251,96751,1,8,0:0:0:0:
331,246,96912,1,0,0:0:0:0:
333,249,96993,1,0,0:0:0:0:
334,249,97074,1,0,0:0:0:0:
348,250,97235,1,0,0:0:0:0:
360,245,97396,1,8,0:0:0:0:
308,235,97558,1,8,0:0:0:0:
348,241,97719,1,0,0:0:0:0:
335,256,97880,1,0,0:0:0:0:
353,257,98041,1,12,0:0:0:0:
294,180,98364,1,0,0:0:0:0:
234,167,98525,1,0,0:0:0:0:
191,92,98606,1,0,0:0:0:0:
184,180,98687,1,8,0:0:0:0:
223,189,98848,1,0,0:0:0:0:
284,215,99171,1,0,0:0:0:0:
299,214,99332,1,8,0:0:0:0:
278,209,99493,1,0,0:0:0:0:
274,207,99574,1,0,0:0:0:0:
280,207,99654,1,0,0:0:0:0:
310,210,99816,1,0,0:0:0:0:
337,223,99977,1,8,0:0:0:0:
280,239,100300,1,0,0:0:0:0:
372,249,100461,1,0,0:0:0:0:
344,242,100622,1,8,0:0:0:0:
322,259,100945,1,4,0:0:0:0:
312,241,101106,1,0,0:0:0:0:
321,235,101267,1,8,0:0:0:0:
323,277,101429,1,0,0:0:0:0:
228,193,101509,1,0,0:0:0:0:
228,193,101590,1,0,0:0:0:0:
296,251,101751,1,0,0:0:0:0:
312,244,101913,1,8,0:0:0:0:
299,228,102074,1,0,0:0:0:0:
304,217,102154,1,0,0:0:0:0:
303,216,102235,1,0,0:0:0:0:
320,218,102396,1,0,0:0:0:0:
326,217,102558,1,8,0:0:0:0:
271,224,102880,1,8,0:0:0:0:
331,212,103042,1,0,0:0:0:0:
345,214,103203,1,8,0:0:0:0:
344,196,103525,1,4,0:0:0:0:
297,264,103687,1,0,0:0:0:0:
302,237,103848,1,8,0:0:0:0:
262,163,104009,1,8,0:0:0:0:
249,170,104090,1,0,0:0:0:0:
251,165,104171,1,0,0:0:0:0:
299,191,104332,1,0,0:0:0:0:
299,191,104493,1,8,0:0:0:0:
294,210,104654,1,0,0:0:0:0:
289,208,104735,1,0,0:0:0:0:
299,221,104816,1,0,0:0:0:0:
296,222,104977,1,0,0:0:0:0:
306,224,105138,1,8,0:0:0:0:
305,230,105461,1,0,0:0:0:0:
243,235,105622,1,0,0:0:0:0:
246,228,105783,1,8,0:0:0:0:
257,186,106106,1,4,0:0:0:0:
276,175,106267,1,0,0:0:0:0:
310,188,106428,1,8,0:0:0:0:
266,182,106589,1,0,0:0:0:0:
266,264,106912,1,0,0:0:0:0:
260,258,107073,1,8,0:0:0:0:
276,249,107235,1,0,0:0:0:0:
192,171,107315,1,0,0:0:0:0:
192,171,107396,1,0,0:0:0:0:
252,230,107557,1,0,0:0:0:0:
262,227,107718,1,12,0:0:0:0:
225,229,108041,1,0,0:0:0:0:
323,255,108122,1,8,0:0:0:0:
323,255,108203,1,0,0:0:0:0:
323,255,108283,1,0,0:0:0:0:
323,255,108364,1,8,0:0:0:0:
301,269,108445,1,0,0:0:0:0:
301,269,108525,1,8,0:0:0:0:
233,218,108687,1,4,0:0:0:0:
293,304,109009,1,8,0:0:0:0:
332,317,109170,1,0,0:0:0:0:
384,289,109332,1,0,0:0:0:0:
346,293,109493,1,0,0:0:0:0:
346,293,109654,1,8,0:0:0:0:
317,326,109816,1,0,0:0:0:0:
386,355,110138,1,0,0:0:0:0:
384,321,110461,1,8,0:0:0:0:
316,310,110622,1,0,0:0:0:0:
298,301,110945,1,8,0:0:0:0:
271,277,111267,1,0,0:0:0:0:
295,272,111590,1,8,0:0:0:0:
341,264,111751,1,0,0:0:0:0:
237,223,111912,1,0,0:0:0:0:
259,222,112074,1,0,0:0:0:0:
281,222,112235,1,8,0:0:0:0:
371,208,112396,1,0,0:0:0:0:
355,350,112719,1,0,0:0:0:0:
351,341,112880,1,8,0:0:0:0:
352,331,113041,1,0,0:0:0:0:
363,334,113364,1,0,0:0:0:0:
350,329,113525,1,8,0:0:0:0:
342,315,113848,1,4,0:0:0:0:
344,339,114170,1,8,0:0:0:0:
278,305,114332,1,0,0:0:0:0:
354,299,114493,1,0,0:0:0:0:
359,303,114654,1,0,0:0:0:0:
370,307,114816,1,8,0:0:0:0:
364,309,114977,1,0,0:0:0:0:
392,319,115299,1,0,0:0:0:0:
390,319,115461,1,8,0:0:0:0:
391,321,115622,1,0,0:0:0:0:
398,325,115945,1,0,0:0:0:0:
398,325,116106,1,8,0:0:0:0:
329,225,116429,1,4,0:0:0:0:
349,293,116751,1,8,0:0:0:0:
403,311,116912,1,0,0:0:0:0:
394,303,117074,1,0,0:0:0:0:
378,296,117235,1,8,0:0:0:0:
305,306,117396,1,0,0:0:0:0:
300,260,117558,1,0,0:0:0:0:
300,260,117719,1,8,0:0:0:0:
297,296,117880,1,0,0:0:0:0:
294,285,118041,1,0,0:0:0:0:
325,284,118203,1,8,0:0:0:0:
284,276,118364,1,0,0:0:0:0:
311,275,118525,1,8,0:0:0:0:
296,275,118687,1,8,0:0:0:0:
296,275,118767,1,8,0:0:0:0:
296,275,118848,1,8,0:0:0:0:
328,271,118929,1,8,0:0:0:0:
303,258,119009,1,4,0:0:0:0:
293,304,119332,1,8,0:0:0:0:
332,317,119493,1,0,0:0:0:0:
384,289,119655,1,0,0:0:0:0:
346,293,119816,1,0,0:0:0:0:
346,293,119977,1,8,0:0:0:0:
317,326,120139,1,0,0:0:0:0:
386,355,120461,1,0,0:0:0:0:
384,321,120784,1,8,0:0:0:0:
316,310,120945,1,0,0:0:0:0:
298,301,121268,1,8,0:0:0:0:
271,277,121590,1,4,0:0:0:0:
295,272,121913,1,8,0:0:0:0:
341,264,122074,1,0,0:0:0:0:
237,223,122235,1,0,0:0:0:0:
259,222,122397,1,0,0:0:0:0:
281,222,122558,1,8,0:0:0:0:
371,208,122719,1,0,0:0:0:0:
355,350,123042,1,0,0:0:0:0:
351,341,123203,1,8,0:0:0:0:
352,331,123364,1,0,0:0:0:0:
363,334,123687,1,0,0:0:0:0:
350,329,123848,1,8,0:0:0:0:
342,315,124171,1,4,0:0:0:0:
344,339,124493,1,8,0:0:0:0:
278,305,124655,1,0,0:0:0:0:
354,299,124816,1,0,0:0:0:0:
359,303,124977,1,0,0:0:0:0:
370,307,125139,1,8,0:0:0:0:
364,309,125300,1,0,0:0:0:0:
392,319,125622,1,0,0:0:0:0:
390,319,125784,1,8,0:0:0:0:
391,321,125945,1,0,0:0:0:0:
398,325,126268,1,0,0:0:0:0:
398,325,126429,1,8,0:0:0:0:
283,173,126590,1,0,0:0:0:0:
216,172,126670,1,0,0:0:0:0:
208,172,126751,1,8,0:0:0:0:
339,227,126912,1,0,0:0:0:0:
303,228,127074,1,0,0:0:0:0:
303,228,127235,1,8,0:0:0:0:
303,228,127396,1,0,0:0:0:0:
303,228,127558,1,0,0:0:0:0:
290,238,127719,1,8,0:0:0:0:
284,235,127880,1,0,0:0:0:0:
273,228,127961,1,0,0:0:0:0:
273,227,128041,1,0,0:0:0:0:
273,225,128203,1,0,0:0:0:0:
275,223,128364,1,8,0:0:0:0:
226,198,128525,1,0,0:0:0:0:
238,237,128687,1,0,0:0:0:0:
276,234,128848,1,0,0:0:0:0:
284,236,129009,1,12,0:0:0:0:
283,201,129332,1,0,0:0:0:0:
276,258,129493,1,0,0:0:0:0:
279,242,129654,1,0,0:0:0:0:
309,261,129816,1,8,0:0:0:0:
215,230,129977,1,0,0:0:0:0:
247,238,130138,1,0,0:0:0:0:
253,241,130299,1,8,0:0:0:0:
272,267,130461,1,0,0:0:0:0:
261,260,130541,1,0,0:0:0:0:
265,261,130622,1,0,0:0:0:0:
278,256,130783,1,0,0:0:0:0:
278,255,130945,1,8,0:0:0:0:
277,255,131106,1,0,0:0:0:0:
255,256,131267,1,8,0:0:0:0:
247,253,131429,1,0,0:0:0:0:
272,258,131590,1,12,0:0:0:0:
278,246,131912,1,0,0:0:0:0:
296,269,132074,1,0,0:0:0:0:
294,269,132235,1,8,0:0:0:0:
255,284,132396,1,0,0:0:0:0:
255,284,132558,1,8,0:0:0:0:
233,280,132638,1,0,0:0:0:0:
230,279,132719,1,0,0:0:0:0:
225,275,132880,1,8,0:0:0:0:
218,276,133041,1,0,0:0:0:0:
206,253,133122,1,0,0:0:0:0:
207,257,133203,1,0,0:0:0:0:
211,274,133364,1,0,0:0:0:0:
211,274,133525,1,8,0:0:0:0:
314,226,133606,1,8,0:0:0:0:
314,226,133687,1,0,0:0:0:0:
202,266,133848,1,8,0:0:0:0:
197,223,134009,1,0,0:0:0:0:
216,245,134170,1,12,0:0:0:0:
308,256,134493,1,0,0:0:0:0:
343,202,134654,1,0,0:0:0:0:
328,199,134816,1,8,0:0:0:0:
152,173,134977,1,0,0:0:0:0:
260,178,135138,1,8,0:0:0:0:
255,180,135219,1,8,0:0:0:0:
253,180,135299,1,0,0:0:0:0:
241,178,135461,1,8,0:0:0:0:
250,186,135622,1,0,0:0:0:0:
255,188,135703,1,0,0:0:0:0:
276,196,135783,1,0,0:0:0:0:
278,197,135945,1,8,0:0:0:0:
219,172,136106,1,8,0:0:0:0:
274,177,136267,1,0,0:0:0:0:
246,170,136429,1,8,0:0:0:0:
247,150,136509,1,8,0:0:0:0:
336,170,136590,1,0,0:0:0:0:
314,160,136751,1,12,0:0:0:0:
356,236,137074,1,0,0:0:0:0:
359,284,137235,1,0,0:0:0:0:
300,231,137396,1,8,0:0:0:0:
348,237,137558,1,0,0:0:0:0:
345,224,137719,1,8,0:0:0:0:
315,224,137799,1,8,0:0:0:0:
300,220,137880,1,0,0:0:0:0:
243,198,138041,1,8,0:0:0:0:
243,171,138203,1,0,0:0:0:0:
243,171,138283,1,0,0:0:0:0:
255,174,138364,1,0,0:0:0:0:
296,209,138525,1,8,0:0:0:0:
277,222,138687,1,0,0:0:0:0:
239,203,138848,1,0,0:0:0:0:
231,186,139009,1,8,0:0:0:0:
233,189,139170,1,0,0:0:0:0:
262,203,139332,1,12,0:0:0:0:
224,159,141912,1,12,0:0:0:0:
249,273,142235,1,4,0:0:0:0:
212,280,142558,1,8,0:0:0:0:
291,262,142719,1,0,0:0:0:0:
248,227,142880,1,8,0:0:0:0:
252,223,142961,1,0,0:0:0:0:
253,222,143042,1,8,0:0:0:0:
208,259,143203,1,8,0:0:0:0:
267,217,143364,1,0,0:0:0:0:
262,230,143445,1,0,0:0:0:0:
262,230,143526,1,0,0:0:0:0:
269,234,143687,1,8,0:0:0:0:
256,227,143848,1,0,0:0:0:0:
222,170,144009,1,0,0:0:0:0:
274,276,144171,1,8,0:0:0:0:
221,238,144251,1,8,0:0:0:0:
221,238,144332,1,0,0:0:0:0:
245,242,144493,1,8,0:0:0:0:
213,150,144816,1,4,0:0:0:0:
277,201,145138,1,8,0:0:0:0:
359,254,145300,1,0,0:0:0:0:
220,109,145461,1,8,0:0:0:0:
253,179,145542,1,8,0:0:0:0:
219,151,145622,1,0,0:0:0:0:
253,179,145784,1,8,0:0:0:0:
268,116,145945,1,0,0:0:0:0:
283,133,146026,1,0,0:0:0:0:
311,153,146106,1,0,0:0:0:0:
381,211,146267,1,0,0:0:0:0:
386,215,146429,1,8,0:0:0:0:
307,259,146751,1,8,0:0:0:0:
327,253,146913,1,0,0:0:0:0:
294,225,147074,1,8,0:0:0:0:
235,143,147155,1,0,0:0:0:0:
244,219,147235,1,0,0:0:0:0:
175,187,147397,1,12,0:0:0:0:
337,233,147719,1,0,0:0:0:0:
251,172,147800,1,0,0:0:0:0:
251,172,147880,1,8,0:0:0:0:
321,244,148042,1,8,0:0:0:0:
319,234,148203,1,8,0:0:0:0:
290,122,148284,1,8,0:0:0:0:
312,234,148364,1,0,0:0:0:0:
288,217,148526,1,8,0:0:0:0:
239,150,148848,1,8,0:0:0:0:
367,279,148929,1,0,0:0:0:0:
269,157,149009,1,0,0:0:0:0:
287,224,149171,1,0,0:0:0:0:
301,178,149332,1,0,0:0:0:0:
301,178,149493,1,8,0:0:0:0:
343,172,149655,1,0,0:0:0:0:
245,222,149977,1,12,0:0:0:0:
346,232,150300,1,8,0:0:0:0:
340,232,150461,1,8,0:0:0:0:
332,232,150542,1,8,0:0:0:0:
332,232,150622,1,0,0:0:0:0:
308,252,150784,1,0,0:0:0:0:
306,246,150945,1,8,0:0:0:0:
187,169,151106,1,0,0:0:0:0:
258,250,151429,1,0,0:0:0:0:
258,250,151590,1,8,0:0:0:0:
337,252,151751,1,0,0:0:0:0:
278,255,151913,1,8,0:0:0:0:
274,252,152074,1,8,0:0:0:0:
360,253,152235,1,0,0:0:0:0:
259,220,152397,1,0,0:0:0:0:
316,239,152558,1,12,0:0:0:0:
294,195,152880,1,8,0:0:0:0:
362,269,153042,1,0,0:0:0:0:
362,263,153203,1,8,0:0:0:0:
217,231,153284,1,0,0:0:0:0:
217,231,153364,1,8,0:0:0:0:
275,200,153526,1,8,0:0:0:0:
264,236,153687,1,8,0:0:0:0:
212,157,153767,1,0,0:0:0:0:
226,179,153848,1,0,0:0:0:0:
307,284,153929,1,0,0:0:0:0:
220,195,154009,1,8,0:0:0:0:
297,258,154171,1,8,0:0:0:0:
302,257,154332,1,0,0:0:0:0:
288,253,154493,1,8,0:0:0:0:
274,244,154574,1,8,0:0:0:0:
251,246,154655,1,0,0:0:0:0:
265,269,154735,1,0,0:0:0:0:
267,268,154816,1,8,0:0:0:0:
293,241,155138,1,4,0:0:0:0:
317,251,155461,1,8,0:0:0:0:
310,269,155622,1,0,0:0:0:0:
238,252,155703,1,0,0:0:0:0:
305,269,155784,1,8,0:0:0:0:
276,262,155945,1,8,0:0:0:0:
274,256,156106,1,0,0:0:0:0:
217,207,156267,1,8,0:0:0:0:
201,163,156348,1,8,0:0:0:0:
255,165,156429,1,8,0:0:0:0:
278,224,156590,1,0,0:0:0:0:
285,218,156751,1,8,0:0:0:0:
280,193,156832,1,8,0:0:0:0:
318,180,156913,1,0,0:0:0:0:
318,180,157074,1,8,0:0:0:0:
262,179,157235,1,0,0:0:0:0:
312,201,157316,1,0,0:0:0:0:
251,184,157397,1,8,0:0:0:0:
327,146,157477,1,0,0:0:0:0:
299,201,157558,1,8,0:0:0:0:
242,185,157719,1,4,0:0:0:0:
237,169,158042,1,8,0:0:0:0:
267,225,158203,1,8,0:0:0:0:
278,253,158284,1,8,0:0:0:0:
267,225,158364,1,0,0:0:0:0:
281,231,158526,1,0,0:0:0:0:
263,212,158687,1,8,0:0:0:0:
318,233,158848,1,0,0:0:0:0:
339,277,158929,1,0,0:0:0:0:
339,277,159009,1,0,0:0:0:0:
292,243,159171,1,8,0:0:0:0:
281,214,159251,1,8,0:0:0:0:
279,214,159332,1,0,0:0:0:0:
214,118,159493,1,8,0:0:0:0:
315,227,159816,1,8,0:0:0:0:
315,227,159977,1,8,0:0:0:0:
299,231,160138,1,0,0:0:0:0:
301,233,160219,1,0,0:0:0:0:
303,233,160299,1,8,0:0:0:0:
423,215,160461,1,0,0:0:0:0:
309,186,160622,1,0,0:0:0:0:
342,192,160783,1,8,0:0:0:0:
257,137,160864,1,8,0:0:0:0:
268,137,160945,1,0,0:0:0:0:
370,251,161106,1,0,0:0:0:0:
396,242,161267,1,8,0:0:0:0:
391,241,161429,1,0,0:0:0:0:
382,239,161509,1,0,0:0:0:0:
386,239,161590,1,0,0:0:0:0:
388,234,161751,1,0,0:0:0:0:
419,233,161912,1,8,0:0:0:0:
271,268,162235,1,8,0:0:0:0:
234,166,162396,1,0,0:0:0:0:
281,196,162558,1,12,0:0:0:0:
294,180,162880,1,0,0:0:0:0:
234,167,163041,1,0,0:0:0:0:
191,92,163122,1,0,0:0:0:0:
184,180,163203,1,8,0:0:0:0:
223,189,163364,1,0,0:0:0:0:
284,215,163687,1,0,0:0:0:0:
299,214,163848,1,8,0:0:0:0:
278,209,164009,1,0,0:0:0:0:
274,207,164090,1,0,0:0:0:0:
280,207,164170,1,0,0:0:0:0:
310,210,164332,1,0,0:0:0:0:
337,223,164493,1,8,0:0:0:0:
280,239,164816,1,0,0:0:0:0:
372,249,164977,1,0,0:0:0:0:
344,242,165138,1,8,0:0:0:0:
322,259,165461,1,0,0:0:0:0:
312,241,165622,1,0,0:0:0:0:
321,235,165783,1,8,0:0:0:0:
323,277,165945,1,0,0:0:0:0:
228,193,166025,1,0,0:0:0:0:
228,193,166106,1,0,0:0:0:0:
296,251,166267,1,0,0:0:0:0:
312,244,166429,1,8,0:0:0:0:
299,228,166590,1,0,0:0:0:0:
304,217,166670,1,0,0:0:0:0:
303,216,166751,1,0,0:0:0:0:
320,218,166912,1,0,0:0:0:0:
326,217,167074,1,8,0:0:0:0:
271,224,167396,1,8,0:0:0:0:
331,212,167558,1,0,0:0:0:0:
345,214,167719,1,8,0:0:0:0:
344,196,168041,1,4,0:0:0:0:
297,264,168203,1,0,0:0:0:0:
302,237,168364,1,8,0:0:0:0:
262,163,168525,1,8,0:0:0:0:
249,170,168606,1,0,0:0:0:0:
251,165,168687,1,0,0:0:0:0:
299,191,168848,1,0,0:0:0:0:
299,191,169009,1,8,0:0:0:0:
294,210,169170,1,0,0:0:0:0:
289,208,169251,1,0,0:0:0:0:
299,221,169332,1,0,0:0:0:0:
296,222,169493,1,0,0:0:0:0:
306,224,169654,1,8,0:0:0:0:
305,230,169977,1,0,0:0:0:0:
243,235,170138,1,0,0:0:0:0:
246,228,170299,1,8,0:0:0:0:
339,150,170622,1,0,0:0:0:0:
353,188,170783,1,0,0:0:0:0:
331,188,170945,1,0,0:0:0:0:
260,191,171106,1,8,0:0:0:0:
225,152,171429,1,8,0:0:0:0:
329,229,171590,1,0,0:0:0:0:
262,210,171751,1,0,0:0:0:0:
336,236,172074,1,12,0:0:0:0:
286,225,172235,1,4,0:0:0:0:
252,117,172396,1,4,0:0:0:0:
292,143,172558,1,12,0:0:0:0:
