osu file format v14

[General]
AudioFilename: audio.mp3
AudioLeadIn: 0
PreviewTime: -1
Countdown: 0
SampleSet: Normal
StackLeniency: 0.8
Mode: 0
LetterboxInBreaks: 0
WidescreenStoryboard: 0

[Editor]
Bookmarks: 23624,31043,46366,77817,98463,103301,108140,108785,116527,119108,125398,126850,131688,137011,139430,142011,162656,168140,170721,172172
DistanceSpacing: 1.9
BeatDivisor: 2
GridSize: 8
TimelineZoom: 3.099999

[Metadata]
Title:American Idiot
TitleUnicode:American Idiot
Artist:Green Day
ArtistUnicode:Green Day
Creator:Cosmo Seedrian
Version:Stuipid
Source:
Tags:cancer overmap arles green day
BeatmapID:1776545
BeatmapSetID:849599

[Difficulty]
HPDrainRate:4
CircleSize:3.7
OverallDifficulty:8.2
ApproachRate:9.7
SliderMultiplier:1.9
SliderTickRate:1

[Events]
//Background and Video events
0,0,"Konachan.com - 254645 sample.jpg",0,0
//Break Periods
2,127050,131193
2,139630,141516
//Storyboard Layer 0 (Background)
//Storyboard Layer 1 (Fail)
//Storyboard Layer 2 (Pass)
//Storyboard Layer 3 (Foreground)
//Storyboard Sound Samples

[TimingPoints]
176,-100,4,1,0,100,0,0
398,322.58064516129,4,1,0,100,1,0
10398,-200,4,1,0,100,0,0
13301,-66.6666666666667,4,1,0,100,0,0
15882,-181.818181818181,4,1,0,100,0,0
18463,-66.6666666666667,4,1,0,100,0,0
20721,-181.818181818181,4,1,0,100,0,0
23624,-66.6666666666667,4,1,0,100,0,0
31043,-83.3333333333333,4,1,0,100,0,1
49430,-133.333333333333,4,1,0,100,0,0
52011,-66.6666666666667,4,1,0,100,0,0
77817,-83.3333333333333,4,1,0,100,0,1
98463,-66.6666666666667,4,1,0,100,0,0
108785,-83.3333333333333,4,1,0,100,0,0
115317,-71.4285714285714,4,1,0,100,0,0
116527,-71.4285714285714,4,1,0,100,0,0
119108,-58.8235294117647,4,1,0,100,0,0
125398,-66.6666666666667,4,1,0,100,0,0
131688,-181.818181818181,4,1,0,100,0,0
142011,-66.6666666666667,4,1,0,100,0,1
142334,-83.3333333333333,4,1,0,100,0,1
159914,-66.6666666666667,4,1,0,100,0,1
160075,-500,4,1,0,100,0,1
162656,-133.333333333333,4,1,0,100,0,0
167817,-66.6666666666667,4,1,0,100,0,0
172172,-133.333333333333,4,1,0,100,0,0

[Colours]
Combo1 : 109,135,221
Combo2 : 0,64,128
Combo3 : 166,145,229
Combo4 : 0,0,160

[HitObjects]
160,64,398,6,0,P|208:136|208:152,1,95
120,192,721,2,0,P|144:272|160:280,1,95
336,184,1205,1,0,0:0:0:0:
128,48,1527,6,0,L|176:240,1,190
240,304,2011,1,0,0:0:0:0:
344,264,2334,2,0,P|384:224|376:168,1,95
312,72,2656,5,0,0:0:0:0:
120,24,2979,6,0,L|96:136,1,95
256,256,3301,1,0,0:0:0:0:
392,24,3463,2,0,L|416:136,2,95
256,56,3946,1,0,0:0:0:0:
168,176,4108,6,0,L|208:296,2,95
272,352,4592,5,0,0:0:0:0:
432,312,4753,1,0,0:0:0:0:
320,304,4914,5,0,0:0:0:0:
416,112,5075,1,0,0:0:0:0:
440,224,5237,5,0,0:0:0:0:
304,80,5398,1,0,0:0:0:0:
80,112,5559,6,0,L|192:152,1,95
320,184,5882,1,0,0:0:0:0:
80,264,6043,2,0,L|232:232,2,95
320,184,6527,1,0,0:0:0:0:
240,64,6688,6,0,P|176:136|176:160,2,95
160,312,7172,5,0,0:0:0:0:
368,160,7334,1,0,0:0:0:0:
160,312,7495,5,0,0:0:0:0:
368,48,7656,1,0,0:0:0:0:
160,312,7817,5,0,0:0:0:0:
264,0,7979,1,0,0:0:0:0:
432,112,8140,6,0,L|320:152,1,95
192,184,8463,1,0,0:0:0:0:
432,264,8624,2,0,L|280:232,2,95
192,184,9108,1,0,0:0:0:0:
152,96,9269,6,0,P|224:32|248:32,2,95
112,224,9753,5,0,0:0:0:0:
400,40,9914,1,0,0:0:0:0:
368,312,10075,5,0,0:0:0:0:
64,72,10237,1,0,0:0:0:0:
308,37,10398,6,0,B|311:44|301:50|301:50|303:59|303:59|292:62|293:75|293:75|283:81|283:81|282:91,1,47.5
162,240,10721,5,2,0:0:0:0:
101,121,11043,1,2,0:0:0:0:
220,61,11366,1,2,0:0:0:0:
280,179,11688,1,2,0:0:0:0:
201,246,12011,5,2,0:0:0:0:
221,113,12334,1,2,0:0:0:0:
353,135,12656,1,2,0:0:0:0:
332,266,12979,1,2,0:0:0:0:
247,26,13301,6,0,P|312:54|320:127,1,142.500005435944
197,207,13624,1,0,0:0:0:0:
328,303,13785,2,0,P|398:340|454:272,2,142.500005435944
320,184,14269,1,0,0:0:0:0:
190,43,14430,6,0,P|107:97|117:166,2,142.500005435944
325,56,14914,5,0,0:0:0:0:
363,278,15075,1,0,0:0:0:0:
325,56,15237,5,0,0:0:0:0:
479,225,15398,1,0,0:0:0:0:
325,56,15559,5,0,0:0:0:0:
512,125,15721,1,0,0:0:0:0:
233,296,15882,5,2,0:0:0:0:
151,169,16205,1,2,0:0:0:0:
278,87,16527,1,2,0:0:0:0:
360,214,16850,1,2,0:0:0:0:
120,256,17172,5,2,0:0:0:0:
37,128,17495,1,2,0:0:0:0:
164,46,17817,1,2,0:0:0:0:
247,173,18140,1,2,0:0:0:0:
109,317,18463,6,0,P|137:252|210:244,1,142.500005435944
390,328,18786,1,0,0:0:0:0:
404,76,18947,2,0,P|334:39|278:107,2,142.500005435944
164,318,19431,1,0,0:0:0:0:
312,155,19592,6,0,P|373:85|385:32,2,142.500005435944
127,166,20076,5,0,0:0:0:0:
260,276,20237,1,0,0:0:0:0:
107,80,20399,5,0,0:0:0:0:
422,228,20560,1,0,0:0:0:0:
135,12,20721,6,0,L|201:45,1,52.2500015945435
314,104,21043,5,2,0:0:0:0:
425,178,21365,1,2,0:0:0:0:
350,289,21688,1,2,0:0:0:0:
241,215,22010,1,2,0:0:0:0:
277,118,22333,5,2,0:0:0:0:
324,244,22656,1,2,0:0:0:0:
198,288,22978,1,2,0:0:0:0:
153,164,23301,1,2,0:0:0:0:
432,336,23624,6,0,P|464:272|424:208,1,142.500005435944
272,112,23947,1,0,0:0:0:0:
88,272,24108,2,0,P|127:340|211:312,2,142.500005435944
128,64,24592,1,0,0:0:0:0:
336,144,24753,6,0,P|397:214|409:267,2,142.500005435944
208,48,25237,5,0,0:0:0:0:
176,320,25398,1,0,0:0:0:0:
56,168,25560,5,0,0:0:0:0:
384,232,25721,1,0,0:0:0:0:
384,64,25882,5,0,0:0:0:0:
128,304,26043,1,0,0:0:0:0:
320,176,26205,5,2,0:0:0:0:
277,302,26527,1,2,0:0:0:0:
150,258,26850,1,2,0:0:0:0:
193,134,27172,1,2,0:0:0:0:
296,143,27495,5,2,0:0:0:0:
187,221,27818,1,2,0:0:0:0:
112,111,28140,1,2,0:0:0:0:
220,36,28463,1,2,0:0:0:0:
408,128,28624,6,0,P|440:64|392:32,1,142.500005435944
192,168,28947,1,0,0:0:0:0:
400,232,29108,2,0,P|448:280|424:344,2,142.500005435944
224,320,29592,1,0,0:0:0:0:
192,120,29753,6,0,P|262:59|315:47,2,142.500005435944
168,216,30237,5,0,0:0:0:0:
464,328,30398,1,0,0:0:0:0:
152,336,30560,5,0,0:0:0:0:
448,208,30721,1,0,0:0:0:0:
320,272,30882,5,0,0:0:0:0:
112,48,31043,5,0,0:0:0:0:
320,216,31205,1,0,0:0:0:0:
237,38,31366,5,0,0:0:0:0:
235,310,31527,1,0,0:0:0:0:
336,137,31688,5,0,0:0:0:0:
112,276,31850,1,0,0:0:0:0:
328,261,32011,5,0,0:0:0:0:
41,171,32172,1,0,0:0:0:0:
221,331,32334,5,0,0:0:0:0:
96,54,32495,1,0,0:0:0:0:
108,287,32656,5,0,0:0:0:0:
231,27,32817,1,0,0:0:0:0:
40,181,32979,5,0,0:0:0:0:
333,83,33140,1,0,0:0:0:0:
99,48,33301,5,0,0:0:0:0:
362,220,33463,1,0,0:0:0:0:
262,315,33624,6,0,P|111:308|51:179,2,227.999993041992
192,212,34430,5,0,0:0:0:0:
363,58,34592,1,0,0:0:0:0:
192,212,34753,5,0,0:0:0:0:
261,19,34914,1,0,0:0:0:0:
186,210,35075,5,0,0:0:0:0:
142,22,35237,1,0,0:0:0:0:
391,44,35398,5,0,0:0:0:0:
219,153,35559,1,0,0:0:0:0:
391,44,35721,5,0,0:0:0:0:
301,228,35882,1,0,0:0:0:0:
424,196,36043,6,0,P|283:348|206:315,2,227.999993041992
209,271,36850,5,0,0:0:0:0:
209,112,37011,1,0,0:0:0:0:
348,192,37172,1,0,0:0:0:0:
248,196,37334,5,0,0:0:0:0:
120,99,37495,1,0,0:0:0:0:
267,37,37656,1,0,0:0:0:0:
215,109,37817,5,0,0:0:0:0:
347,198,37979,1,0,0:0:0:0:
204,268,38140,1,0,0:0:0:0:
372,128,38301,6,0,P|396:265|316:275,2,227.999993041992
213,109,39108,6,0,P|92:139|216:252,2,341.999989562989
234,190,40237,5,0,0:0:0:0:
437,115,40398,1,0,0:0:0:0:
234,190,40559,5,0,0:0:0:0:
426,197,40721,1,0,0:0:0:0:
234,190,40882,5,0,0:0:0:0:
412,302,41043,1,0,0:0:0:0:
140,139,41205,5,0,0:0:0:0:
140,139,41285,1,0,0:0:0:0:
140,139,41366,2,0,P|70:265|234:274,1,341.999989562989
401,57,42011,5,0,0:0:0:0:
346,212,42172,1,0,0:0:0:0:
236,39,42334,5,0,0:0:0:0:
221,249,42495,1,0,0:0:0:0:
65,30,42656,5,0,0:0:0:0:
110,301,42817,1,0,0:0:0:0:
296,43,42979,5,0,0:0:0:0:
124,299,43140,1,0,0:0:0:0:
415,170,43301,5,0,0:0:0:0:
118,298,43463,1,0,0:0:0:0:
368,307,43624,6,0,P|442:225|391:110,2,227.999993041992
179,269,44430,5,0,0:0:0:0:
112,149,44592,1,0,0:0:0:0:
232,83,44753,1,0,0:0:0:0:
298,202,44914,1,0,0:0:0:0:
277,294,45075,5,0,0:0:0:0:
210,174,45237,1,0,0:0:0:0:
330,108,45398,1,0,0:0:0:0:
396,227,45559,1,0,0:0:0:0:
180,49,45721,5,0,0:0:0:0:
398,116,45882,1,0,0:0:0:0:
331,334,46043,1,0,0:0:0:0:
113,267,46205,1,0,0:0:0:0:
96,128,46366,6,0,P|216:88|160:184,2,227.999993041992
128,232,47172,5,0,0:0:0:0:
378,323,47334,1,0,0:0:0:0:
128,135,47495,5,0,0:0:0:0:
431,227,47656,1,0,0:0:0:0:
107,39,47817,5,0,0:0:0:0:
441,105,47979,1,0,0:0:0:0:
69,190,48140,5,0,0:0:0:0:
334,32,48301,1,0,0:0:0:0:
143,299,48463,5,0,0:0:0:0:
226,23,48624,1,0,0:0:0:0:
275,353,48785,5,0,0:0:0:0:
122,67,48946,1,0,0:0:0:0:
408,192,49108,5,0,0:0:0:0:
96,192,49269,1,0,0:0:0:0:
256,192,49430,5,4,0:0:0:0:
256,192,49592,5,4,0:0:0:0:
352,256,49753,5,4,0:0:0:0:
352,256,49914,1,4,0:0:0:0:
160,256,50075,5,4,0:0:0:0:
160,256,50237,1,4,0:0:0:0:
256,192,50398,5,4,0:0:0:0:
352,128,50721,5,4,0:0:0:0:
274,255,50882,1,4,0:0:0:0:
172,144,51043,5,4,0:0:0:0:
256,19,51205,1,4,0:0:0:0:
396,69,51366,5,4,0:0:0:0:
408,217,51527,1,4,0:0:0:0:
154,209,51688,6,4,B|147:215|156:231|156:231|134:229|134:229|143:247|122:248|122:248|132:271|132:271|117:273,1,71.2500027179719
402,256,52011,6,0,P|425:191|378:146,1,142.500005435944
284,41,52334,1,0,0:0:0:0:
243,265,52495,2,0,P|282:333|366:305,2,142.500005435944
418,72,52979,1,0,0:0:0:0:
166,69,53140,6,0,P|79:93|43:142,2,142.500005435944
251,76,53624,5,0,0:0:0:0:
149,267,53785,1,0,0:0:0:0:
324,118,53947,5,0,0:0:0:0:
102,188,54108,1,0,0:0:0:0:
309,219,54269,5,0,0:0:0:0:
132,92,54430,1,0,0:0:0:0:
110,256,54592,6,0,P|87:191|134:146,1,142.500005435944
228,41,54915,1,0,0:0:0:0:
269,265,55076,2,0,P|230:333|146:305,2,142.500005435944
94,72,55560,1,0,0:0:0:0:
346,69,55721,6,0,P|433:93|469:142,2,142.500005435944
261,76,56205,5,0,0:0:0:0:
363,267,56366,1,0,0:0:0:0:
188,118,56528,5,0,0:0:0:0:
410,188,56689,1,0,0:0:0:0:
173,289,56850,6,0,B|162:261|132:274|132:274|143:244|143:244|115:245|113:219|113:219|64:210|64:210|74:178,1,142.500005435944
282,214,57172,5,2,0:0:0:0:
210,90,57495,1,2,0:0:0:0:
334,19,57817,1,2,0:0:0:0:
405,142,58140,1,2,0:0:0:0:
228,327,58463,5,2,0:0:0:0:
156,203,58786,1,2,0:0:0:0:
280,132,59108,1,2,0:0:0:0:
351,255,59431,1,2,0:0:0:0:
409,235,59753,6,0,P|454:191|424:128,1,142.500005435944
223,155,60076,1,0,0:0:0:0:
92,259,60237,2,0,P|131:327|215:299,2,142.500005435944
185,63,60721,1,0,0:0:0:0:
350,47,60882,6,0,P|437:71|473:120,2,142.500005435944
240,54,61366,5,0,0:0:0:0:
326,204,61527,1,0,0:0:0:0:
240,54,61689,5,0,0:0:0:0:
159,273,61850,1,0,0:0:0:0:
240,54,62011,5,0,0:0:0:0:
322,349,62172,1,0,0:0:0:0:
71,188,62334,5,2,0:0:0:0:
183,99,62657,1,2,0:0:0:0:
271,212,62979,1,2,0:0:0:0:
159,299,63302,1,2,0:0:0:0:
185,198,63624,5,2,0:0:0:0:
297,109,63947,1,2,0:0:0:0:
385,222,64269,1,2,0:0:0:0:
273,309,64592,1,2,0:0:0:0:
186,294,64914,6,0,B|234:241|130:209|229:166,1,142.500005435944
230,20,65237,1,0,0:0:0:0:
309,183,65398,2,0,P|333:257|256:301,2,142.500005435944
96,224,65882,1,0,0:0:0:0:
222,158,66043,6,0,P|309:182|345:231,2,142.500005435944
102,79,66527,5,0,0:0:0:0:
295,335,66688,1,0,0:0:0:0:
102,79,66850,5,0,0:0:0:0:
413,215,67011,1,0,0:0:0:0:
158,192,67172,6,0,B|134:210|155:235|155:235|123:233|123:233|132:260|108:269|108:269|114:319|114:319|80:319,1,142.500005435944
260,7,67495,5,2,0:0:0:0:
349,119,67818,1,2,0:0:0:0:
236,207,68140,1,2,0:0:0:0:
149,95,68463,1,2,0:0:0:0:
248,129,68624,5,4,0:0:0:0:
248,129,68785,1,8,0:0:0:0:
337,241,68946,1,4,0:0:0:0:
337,241,69108,1,8,0:0:0:0:
224,329,69269,1,4,0:0:0:0:
224,329,69430,1,8,0:0:0:0:
137,217,69592,1,4,0:0:0:0:
137,217,69753,1,8,0:0:0:0:
150,72,70075,6,0,P|204:30|262:61,1,142.500005435944
390,118,70398,1,0,0:0:0:0:
190,226,70559,2,0,P|113:210|114:122,2,142.500005435944
314,52,71043,1,0,0:0:0:0:
458,131,71204,6,0,P|462:221|426:270,2,142.500005435944
326,72,71688,5,0,0:0:0:0:
331,257,71849,1,0,0:0:0:0:
201,26,72011,5,0,0:0:0:0:
226,328,72172,1,0,0:0:0:0:
62,0,72334,5,0,0:0:0:0:
59,380,72495,1,0,0:0:0:0:
441,196,72656,5,2,0:0:0:0:
329,285,72979,1,2,0:0:0:0:
241,172,73301,1,2,0:0:0:0:
353,78,73463,1,0,0:0:0:0:
353,85,73624,1,2,0:0:0:0:
319,184,73785,5,0,0:0:0:0:
319,184,73946,1,2,0:0:0:0:
207,273,74107,1,0,0:0:0:0:
207,273,74269,1,2,0:0:0:0:
119,160,74430,1,0,0:0:0:0:
119,160,74591,1,2,0:0:0:0:
231,73,74753,1,0,0:0:0:0:
231,73,74914,1,2,0:0:0:0:
445,131,75237,6,0,P|422:64|359:48,1,142.500005435944
209,61,75560,1,0,0:0:0:0:
209,225,75721,2,0,P|170:293|86:265,2,142.500005435944
209,61,76205,1,0,0:0:0:0:
211,193,76366,6,0,B|243:246|186:292|207:355,2,142.500005435944
148,84,76850,5,0,0:0:0:0:
274,23,77011,1,0,0:0:0:0:
155,167,77173,5,0,0:0:0:0:
418,183,77334,1,0,0:0:0:0:
99,234,77495,5,0,0:0:0:0:
439,373,77656,1,0,0:0:0:0:
450,240,77817,5,0,0:0:0:0:
284,272,77978,1,0,0:0:0:0:
434,114,78139,5,0,0:0:0:0:
169,213,78301,1,0,0:0:0:0:
333,6,78462,5,0,0:0:0:0:
78,189,78623,1,0,0:0:0:0:
195,12,78785,5,0,0:0:0:0:
111,325,78946,1,0,0:0:0:0:
63,93,79107,5,0,0:0:0:0:
238,284,79268,1,0,0:0:0:0:
27,218,79430,5,0,0:0:0:0:
357,307,79591,1,0,0:0:0:0:
132,351,79752,5,0,0:0:0:0:
397,138,79914,1,0,0:0:0:0:
123,221,80075,6,0,P|190:85|333:83,2,227.999993041992
241,195,80881,5,0,0:0:0:0:
434,320,81043,1,0,0:0:0:0:
241,195,81204,5,0,0:0:0:0:
445,211,81365,1,0,0:0:0:0:
241,188,81526,5,0,0:0:0:0:
411,97,81688,1,0,0:0:0:0:
280,67,81849,5,0,0:0:0:0:
266,292,82010,1,0,0:0:0:0:
132,94,82172,5,0,0:0:0:0:
266,292,82333,1,0,0:0:0:0:
426,170,82494,6,0,P|333:343|296:317,2,227.999993041992
98,203,83301,5,0,0:0:0:0:
325,50,83463,1,0,0:0:0:0:
344,322,83624,1,0,0:0:0:0:
156,68,83785,5,0,0:0:0:0:
411,167,83947,1,0,0:0:0:0:
199,338,84108,1,0,0:0:0:0:
283,36,84269,5,0,0:0:0:0:
377,293,84431,1,0,0:0:0:0:
108,245,84592,1,0,0:0:0:0:
359,83,84752,6,0,P|458:179|400:234,2,227.999993041992
202,135,85559,6,0,P|133:239|276:209,2,341.999989562989
300,137,86688,5,0,0:0:0:0:
410,265,86850,1,0,0:0:0:0:
276,248,87011,5,0,0:0:0:0:
125,296,87172,1,0,0:0:0:0:
224,147,87334,5,0,0:0:0:0:
346,25,87495,1,0,0:0:0:0:
210,116,87656,5,0,0:0:0:0:
210,116,87736,1,0,0:0:0:0:
210,116,87817,2,0,P|160:251|301:208,1,341.999989562989
391,47,88462,5,0,0:0:0:0:
236,102,88623,1,0,0:0:0:0:
409,212,88785,5,0,0:0:0:0:
199,227,88946,1,0,0:0:0:0:
418,383,89107,5,0,0:0:0:0:
147,338,89268,1,0,0:0:0:0:
405,152,89430,5,0,0:0:0:0:
149,324,89591,1,0,0:0:0:0:
278,33,89752,5,0,0:0:0:0:
150,330,89914,1,0,0:0:0:0:
368,306,90075,6,0,P|442:224|371:142,2,227.999993041992
190,315,90882,5,0,0:0:0:0:
61,186,91043,1,0,0:0:0:0:
190,57,91205,1,0,0:0:0:0:
318,186,91366,1,0,0:0:0:0:
98,277,91527,5,0,0:0:0:0:
98,94,91688,1,0,0:0:0:0:
281,94,91850,1,0,0:0:0:0:
280,276,92011,1,0,0:0:0:0:
180,49,92172,5,0,0:0:0:0:
398,116,92333,1,0,0:0:0:0:
331,334,92494,1,0,0:0:0:0:
113,267,92656,1,0,0:0:0:0:
96,128,92817,6,0,P|216:88|160:184,2,227.999993041992
128,232,93623,5,0,0:0:0:0:
378,323,93785,1,0,0:0:0:0:
128,135,93946,5,0,0:0:0:0:
431,227,94107,1,0,0:0:0:0:
107,39,94268,5,0,0:0:0:0:
441,105,94430,1,0,0:0:0:0:
226,23,94591,5,0,0:0:0:0:
388,287,94752,1,0,0:0:0:0:
362,45,94914,5,0,0:0:0:0:
194,301,95075,1,0,0:0:0:0:
449,242,95236,5,0,0:0:0:0:
152,182,95397,1,0,0:0:0:0:
456,106,95559,6,0,L|330:161,1,113.999996520996
254,191,95882,5,0,0:0:0:0:
254,191,96044,5,0,0:0:0:0:
360,120,96205,5,0,0:0:0:0:
360,120,96366,1,0,0:0:0:0:
147,120,96527,5,0,0:0:0:0:
147,120,96689,1,0,0:0:0:0:
254,191,96850,5,0,0:0:0:0:
360,262,97173,5,0,0:0:0:0:
274,121,97334,1,0,0:0:0:0:
161,244,97495,5,0,0:0:0:0:
261,321,97657,1,0,0:0:0:0:
409,328,97818,5,0,0:0:0:0:
360,165,97979,1,0,0:0:0:0:
191,114,98140,6,0,B|183:107|193:89|193:89|168:91|168:91|178:71|155:70|155:70|166:45|166:45|149:43,1,113.999996520996
448,160,98463,6,0,P|471:95|424:50,1,142.500005435944
288,64,98786,1,0,0:0:0:0:
146,208,98947,2,0,P|185:276|269:248,2,142.500005435944
154,34,99431,1,0,0:0:0:0:
321,184,99592,6,0,P|404:149|434:96,2,142.500005435944
72,35,100076,5,0,0:0:0:0:
229,305,100237,1,0,0:0:0:0:
72,35,100399,5,0,0:0:0:0:
395,313,100560,1,0,0:0:0:0:
72,35,100721,5,0,0:0:0:0:
512,199,100882,1,0,0:0:0:0:
111,307,101043,6,0,P|70:249|108:167,1,142.500005435944
170,75,101366,1,0,0:0:0:0:
320,33,101527,2,0,P|403:31|443:73,2,142.500005435944
305,253,102011,1,0,0:0:0:0:
179,179,102172,6,0,P|100:134|40:143,2,142.500005435944
90,305,102656,5,0,0:0:0:0:
314,170,102817,1,0,0:0:0:0:
295,316,102979,5,0,0:0:0:0:
69,61,103140,1,0,0:0:0:0:
436,132,103301,6,0,B|412:150|433:175|433:175|401:173|401:173|410:200|386:209|386:209|392:259|392:259|358:259,1,142.500005435944
99,111,103624,6,0,P|76:176|123:221,1,142.500005435944
311,116,103947,1,0,0:0:0:0:
312,258,104108,2,0,P|351:326|435:298,2,142.500005435944
452,141,104592,1,0,0:0:0:0:
202,89,104753,6,0,P|115:113|79:162,2,142.500005435944
344,43,105237,5,0,0:0:0:0:
210,204,105398,1,0,0:0:0:0:
347,52,105560,5,0,0:0:0:0:
183,318,105721,1,0,0:0:0:0:
347,52,105882,5,0,0:0:0:0:
267,384,106043,1,0,0:0:0:0:
401,126,106205,6,0,P|368:65|303:70,1,142.500005435944
162,70,106528,1,0,0:0:0:0:
301,250,106689,2,0,P|378:267|413:185,2,142.500005435944
279,84,107173,1,0,0:0:0:0:
104,176,107334,6,0,P|63:257|76:316,2,142.500005435944
166,118,107818,5,0,0:0:0:0:
240,321,107979,1,0,0:0:0:0:
246,91,108141,5,0,0:0:0:0:
149,303,108302,1,0,0:0:0:0:
311,170,108463,5,0,0:0:0:0:
98,217,108624,1,0,0:0:0:0:
273,24,108785,37,0,0:0:0:0:
310,53,108865,1,0,0:0:0:0:
341,88,108946,1,0,0:0:0:0:
366,129,109026,1,0,0:0:0:0:
384,173,109107,1,0,0:0:0:0:
393,219,109188,1,0,0:0:0:0:
388,266,109268,1,0,0:0:0:0:
361,305,109349,1,0,0:0:0:0:
318,324,109430,1,0,0:0:0:0:
271,329,109510,1,0,0:0:0:0:
224,325,109591,1,0,0:0:0:0:
179,311,109672,1,0,0:0:0:0:
137,288,109752,1,0,0:0:0:0:
102,257,109833,1,0,0:0:0:0:
76,217,109914,1,0,0:0:0:0:
61,172,109994,1,0,0:0:0:0:
61,125,110075,1,0,0:0:0:0:
91,91,110155,1,0,0:0:0:0:
138,96,110236,5,0,0:0:0:0:
181,114,110317,1,0,0:0:0:0:
224,135,110397,1,0,0:0:0:0:
267,155,110478,1,0,0:0:0:0:
311,172,110559,1,0,0:0:0:0:
358,182,110639,1,0,0:0:0:0:
405,181,110720,1,0,0:0:0:0:
449,163,110801,1,0,0:0:0:0:
481,129,110881,1,0,0:0:0:0:
495,84,110962,1,0,0:0:0:0:
484,50,111043,2,0,L|438:14,3,56.9999982604981
383,75,111366,5,0,0:0:0:0:
378,131,111446,1,0,0:0:0:0:
379,188,111527,1,0,0:0:0:0:
356,239,111607,1,0,0:0:0:0:
306,266,111688,1,0,0:0:0:0:
250,265,111769,1,0,0:0:0:0:
199,241,111849,1,0,0:0:0:0:
156,203,111930,1,0,0:0:0:0:
120,159,112011,1,0,0:0:0:0:
83,115,112091,1,0,0:0:0:0:
34,107,112172,5,0,0:0:0:0:
16,160,112253,1,0,0:0:0:0:
23,216,112333,1,0,0:0:0:0:
49,267,112414,1,0,0:0:0:0:
89,308,112495,1,0,0:0:0:0:
137,338,112575,1,0,0:0:0:0:
190,358,112656,1,0,0:0:0:0:
246,369,112736,1,0,0:0:0:0:
303,374,112817,1,0,0:0:0:0:
360,372,112898,1,0,0:0:0:0:
409,343,112979,2,0,L|459:296,3,56.9999982604981
339,199,113301,6,0,L|426:186,3,56.9999982604981
352,33,113624,6,0,L|422:70,3,56.9999982604981
210,11,113946,5,0,0:0:0:0:
173,66,114026,1,0,0:0:0:0:
145,126,114107,1,0,0:0:0:0:
135,192,114187,1,0,0:0:0:0:
154,255,114268,1,0,0:0:0:0:
203,298,114349,1,0,0:0:0:0:
266,317,114429,1,0,0:0:0:0:
332,311,114510,1,0,0:0:0:0:
374,263,114591,1,0,0:0:0:0:
351,202,114671,1,0,0:0:0:0:
302,158,114752,1,0,0:0:0:0:
243,126,114833,1,0,0:0:0:0:
180,106,114913,1,0,0:0:0:0:
114,105,114994,1,0,0:0:0:0:
58,139,115075,1,0,0:0:0:0:
36,201,115155,1,0,0:0:0:0:
39,267,115236,1,0,0:0:0:0:
87,310,115317,2,0,L|150:347,3,66.4999979705811
199,350,115640,5,0,0:0:0:0:
264,336,115720,1,0,0:0:0:0:
325,312,115801,1,0,0:0:0:0:
369,263,115881,1,0,0:0:0:0:
379,198,115962,1,0,0:0:0:0:
368,133,116043,1,0,0:0:0:0:
328,81,116123,1,0,0:0:0:0:
264,76,116204,1,0,0:0:0:0:
207,110,116285,1,0,0:0:0:0:
169,163,116365,1,0,0:0:0:0:
128,213,116446,1,0,0:0:0:0:
246,279,116527,6,0,P|305:243|306:230,3,66.4999979705811
109,320,116850,6,0,P|178:319|185:308,3,66.4999979705811
100,208,117172,6,0,P|163:136|176:138,3,66.4999979705811
234,193,117495,6,0,P|282:138|283:122,3,66.4999979705811
161,101,117817,6,0,P|210:28|221:25,3,66.4999979705811
260,97,118140,6,0,P|329:159|328:170,3,66.4999979705811
182,274,118463,6,0,P|286:294|299:290,3,66.4999979705811
315,216,118785,6,0,L|362:154,3,66.4999979705811
138,70,119108,5,0,0:0:0:0:
216,51,119188,1,0,0:0:0:0:
296,43,119269,1,0,0:0:0:0:
374,63,119349,1,0,0:0:0:0:
434,115,119430,1,0,0:0:0:0:
463,190,119511,1,0,0:0:0:0:
451,268,119591,1,0,0:0:0:0:
388,316,119672,1,0,0:0:0:0:
309,328,119753,1,0,0:0:0:0:
228,322,119833,1,0,0:0:0:0:
151,301,119914,1,0,0:0:0:0:
89,251,119995,1,0,0:0:0:0:
121,188,120075,1,0,0:0:0:0:
200,173,120156,1,0,0:0:0:0:
281,170,120237,1,0,0:0:0:0:
356,169,120317,6,0,P|405:157|434:121,3,80.750001540184
455,69,120640,5,0,0:0:0:0:
387,24,120720,1,0,0:0:0:0:
309,11,120801,1,0,0:0:0:0:
232,35,120881,1,0,0:0:0:0:
173,89,120962,1,0,0:0:0:0:
133,159,121043,1,0,0:0:0:0:
114,237,121123,1,0,0:0:0:0:
134,313,121204,1,0,0:0:0:0:
207,343,121285,1,0,0:0:0:0:
287,348,121365,1,0,0:0:0:0:
367,336,121446,1,0,0:0:0:0:
434,294,121527,1,0,0:0:0:0:
460,222,121608,1,0,0:0:0:0:
448,144,121688,2,0,P|391:74|376:73,3,80.750001540184
362,40,122011,5,0,0:0:0:0:
281,31,122091,1,0,0:0:0:0:
203,48,122172,1,0,0:0:0:0:
150,106,122252,1,0,0:0:0:0:
153,184,122333,1,0,0:0:0:0:
209,239,122414,1,0,0:0:0:0:
288,251,122494,1,0,0:0:0:0:
362,220,122575,1,0,0:0:0:0:
409,156,122656,1,0,0:0:0:0:
415,78,122736,1,0,0:0:0:0:
347,41,122817,1,0,0:0:0:0:
266,38,122898,1,0,0:0:0:0:
186,50,122978,1,0,0:0:0:0:
113,83,123059,1,0,0:0:0:0:
61,143,123140,1,0,0:0:0:0:
47,222,123220,1,0,0:0:0:0:
66,300,123301,1,0,0:0:0:0:
122,349,123382,2,0,L|220:357,3,80.750001540184
271,351,123705,5,0,0:0:0:0:
341,311,123785,1,0,0:0:0:0:
397,254,123866,1,0,0:0:0:0:
420,178,123946,1,0,0:0:0:0:
378,113,124027,1,0,0:0:0:0:
299,109,124108,1,0,0:0:0:0:
234,154,124188,1,0,0:0:0:0:
180,214,124269,1,0,0:0:0:0:
124,169,124350,1,0,0:0:0:0:
140,92,124430,1,0,0:0:0:0:
205,48,124511,1,0,0:0:0:0:
284,31,124592,1,0,0:0:0:0:
365,35,124672,1,0,0:0:0:0:
440,63,124753,1,0,0:0:0:0:
485,128,124834,1,0,0:0:0:0:
498,208,124914,1,0,0:0:0:0:
467,286,124995,2,0,P|386:335|373:336,4,80.750001540184
302,228,125398,6,0,L|335:151,3,71.2500027179719
190,173,125721,2,0,L|180:89,3,71.2500027179719
297,235,126043,2,0,L|376:154,3,71.2500027179719
208,192,126366,2,0,L|181:140,10,35.625001358986
350,163,126850,1,2,0:0:0:0:
185,65,131688,6,4,P|163:132|172:163,1,104.500003189087
97,203,132172,2,4,P|100:273|119:299,1,104.500003189087
213,344,132656,1,4,0:0:0:0:
317,345,132817,2,4,P|385:329|407:305,2,104.500003189087
229,312,133624,6,4,P|208:248|210:238,1,52.2500015945435
183,182,133946,2,4,L|160:122,2,52.2500015945435
403,168,134430,6,4,P|361:264|330:273,1,104.500003189087
270,307,134914,6,4,P|204:279|191:256,1,52.2500015945435
138,212,135237,2,4,P|166:138|193:129,1,104.500003189087
283,146,135721,1,4,0:0:0:0:
363,217,135882,1,4,0:0:0:0:
315,330,136043,2,4,P|209:326|186:313,1,104.500003189087
146,267,136527,2,4,L|121:215,2,52.2500015945435
141,206,137011,6,4,P|169:140|192:127,1,52.2500015945435
236,74,137334,2,4,P|310:102|319:129,1,104.500003189087
302,219,137818,1,4,0:0:0:0:
231,299,137979,1,4,0:0:0:0:
102,304,138140,2,4,P|106:198|119:175,2,104.500003189087
151,102,138946,1,4,0:0:0:0:
275,71,139108,2,4,L|327:46,2,52.2500015945435
150,223,142011,6,0,P|103:152|195:217,1,285.000010871888
232,270,142495,1,0,0:0:0:0:
383,275,142656,5,0,0:0:0:0:
417,137,142817,1,0,0:0:0:0:
238,343,142979,5,0,0:0:0:0:
327,31,143140,1,0,0:0:0:0:
91,346,143301,5,0,0:0:0:0:
234,0,143462,1,0,0:0:0:0:
0,238,143624,5,0,0:0:0:0:
406,23,143785,1,0,0:0:0:0:
12,77,143946,5,0,0:0:0:0:
512,238,144108,1,0,0:0:0:0:
180,169,144269,6,0,P|247:33|351:100,2,227.999993041992
422,142,145075,5,0,0:0:0:0:
281,313,145237,1,0,0:0:0:0:
326,103,145398,5,0,0:0:0:0:
21,269,145559,1,0,0:0:0:0:
339,14,145720,5,0,0:0:0:0:
0,176,145882,1,0,0:0:0:0:
446,192,146043,5,0,0:0:0:0:
14,43,146204,1,0,0:0:0:0:
341,353,146366,5,0,0:0:0:0:
168,10,146527,1,0,0:0:0:0:
135,328,146688,6,0,P|57:211|88:197,2,227.999993041992
170,167,147495,5,0,0:0:0:0:
456,74,147657,1,0,0:0:0:0:
393,367,147818,1,0,0:0:0:0:
272,41,147979,5,0,0:0:0:0:
511,223,148141,1,0,0:0:0:0:
235,340,148302,1,0,0:0:0:0:
416,46,148463,5,0,0:0:0:0:
437,346,148625,1,0,0:0:0:0:
167,214,148786,1,0,0:0:0:0:
359,83,148946,6,0,P|458:179|400:234,2,227.999993041992
202,135,149753,6,0,P|133:239|276:209,2,341.999989562989
217,133,150882,5,0,0:0:0:0:
373,68,151044,1,0,0:0:0:0:
315,190,151205,5,0,0:0:0:0:
314,348,151366,1,0,0:0:0:0:
203,208,151528,5,0,0:0:0:0:
124,54,151689,1,0,0:0:0:0:
317,203,151850,5,0,0:0:0:0:
317,203,151930,1,0,0:0:0:0:
317,203,152011,2,0,P|449:259|413:116,1,341.999989562989
414,247,152656,5,0,0:0:0:0:
72,86,152817,1,0,0:0:0:0:
406,147,152979,5,0,0:0:0:0:
75,254,153140,1,0,0:0:0:0:
451,271,153301,5,0,0:0:0:0:
37,76,153462,1,0,0:0:0:0:
441,150,153624,5,0,0:0:0:0:
41,279,153785,1,0,0:0:0:0:
184,19,153946,5,0,0:0:0:0:
216,350,154108,1,0,0:0:0:0:
410,189,154269,6,0,P|449:85|359:47,2,227.999993041992
185,339,155076,5,0,0:0:0:0:
31,185,155237,1,0,0:0:0:0:
185,31,155399,1,0,0:0:0:0:
338,185,155560,1,0,0:0:0:0:
75,294,155721,5,0,0:0:0:0:
75,75,155882,1,0,0:0:0:0:
294,75,156044,1,0,0:0:0:0:
293,293,156205,1,0,0:0:0:0:
173,21,156366,5,0,0:0:0:0:
434,101,156527,1,0,0:0:0:0:
354,362,156688,1,0,0:0:0:0:
93,282,156850,1,0,0:0:0:0:
96,128,157011,6,0,P|216:88|160:184,2,227.999993041992
128,232,157817,5,0,0:0:0:0:
332,311,157979,1,0,0:0:0:0:
128,135,158140,5,0,0:0:0:0:
480,252,158301,1,0,0:0:0:0:
107,39,158462,5,0,0:0:0:0:
512,142,158624,1,0,0:0:0:0:
219,12,158785,5,0,0:0:0:0:
429,358,158946,1,0,0:0:0:0:
359,12,159108,5,0,0:0:0:0:
151,380,159269,1,0,0:0:0:0:
114,19,159430,5,0,0:0:0:0:
506,276,159591,1,0,0:0:0:0:
442,116,159753,5,0,0:0:0:0:
340,123,159914,2,0,P|267:127|226:122,1,71.2500027179719
203,128,160075,6,0,P|93:150|183:232,1,285
256,32,162656,5,0,0:0:0:0:
256,352,162817,1,0,0:0:0:0:
336,53,162979,5,0,0:0:0:0:
176,330,163140,1,0,0:0:0:0:
394,111,163301,5,0,0:0:0:0:
117,272,163462,1,0,0:0:0:0:
416,192,163624,5,0,0:0:0:0:
96,192,163785,1,0,0:0:0:0:
394,272,163946,5,0,0:0:0:0:
117,112,164107,1,0,0:0:0:0:
336,330,164269,5,0,0:0:0:0:
176,53,164430,1,0,0:0:0:0:
256,352,164592,5,0,0:0:0:0:
256,32,164753,1,0,0:0:0:0:
176,330,164914,5,0,0:0:0:0:
336,53,165075,1,0,0:0:0:0:
117,271,165237,5,0,0:0:0:0:
394,112,165398,1,0,0:0:0:0:
64,192,165559,5,0,0:0:0:0:
448,192,165720,1,0,0:0:0:0:
89,96,165882,5,0,0:0:0:0:
422,288,166043,1,0,0:0:0:0:
159,25,166205,5,0,0:0:0:0:
352,358,166366,1,0,0:0:0:0:
255,0,166527,5,0,0:0:0:0:
256,384,166688,1,0,0:0:0:0:
352,25,166850,5,0,0:0:0:0:
159,358,167011,1,0,0:0:0:0:
422,95,167172,5,0,0:0:0:0:
89,288,167333,1,0,0:0:0:0:
448,191,167495,5,0,0:0:0:0:
64,192,167656,1,0,0:0:0:0:
331,62,167817,6,0,B|310:70|322:91|322:91|292:87|292:87|297:113|270:102|270:102|263:130|263:130|217:127,1,142.500005435944
153,235,168140,5,0,0:0:0:0:
212,89,168301,1,0,0:0:0:0:
358,148,168463,1,0,0:0:0:0:
299,294,168624,1,0,0:0:0:0:
173,347,168785,5,0,0:0:0:0:
100,109,168946,1,0,0:0:0:0:
338,36,169108,1,0,0:0:0:0:
411,274,169269,1,0,0:0:0:0:
207,11,169430,5,0,0:0:0:0:
436,143,169592,1,0,0:0:0:0:
304,372,169753,1,0,0:0:0:0:
75,240,169914,1,0,0:0:0:0:
68,74,170075,5,0,0:0:0:0:
373,4,170237,1,0,0:0:0:0:
443,309,170398,1,0,0:0:0:0:
138,379,170559,1,0,0:0:0:0:
256,192,170721,5,2,0:0:0:0:
256,192,171043,1,2,0:0:0:0:
256,192,171366,1,2,0:0:0:0:
256,192,171688,1,2,0:0:0:0:
256,192,172011,1,2,0:0:0:0:
416,192,172172,5,0,0:0:0:0:
320,256,172334,2,0,L|224:288,1,71.2500027179719
128,320,172656,1,0,0:0:0:0:
160,64,172978,6,0,P|208:136|208:152,1,95
120,192,173301,2,0,P|144:272|160:280,1,95
336,184,173785,1,0,0:0:0:0:
