osu file format v14

[General]
AudioFilename: audio.mp3
AudioLeadIn: 0
PreviewTime: -1
Countdown: 1
SampleSet: None
StackLeniency: 0.7
Mode: 0
LetterboxInBreaks: 0
WidescreenStoryboard: 0

[Editor]
DistanceSpacing: 1.8
BeatDivisor: 4
GridSize: 8
TimelineZoom: 2

[Metadata]
Title:Grapefruit technique
TitleUnicode:Grapefruit technique
Artist:Grapefruit
ArtistUnicode:Grapefruit
Creator:sp00kem
Version:
Source:
Tags:
BeatmapID:1442845
BeatmapSetID:682324

[Difficulty]
HPDrainRate:0
CircleSize:5
OverallDifficulty:8
ApproachRate:9.5
SliderMultiplier:1.99999990463257
SliderTickRate:1

[Events]
//Background and Video events
0,0,"BqbFEzgIUAAVAD0.png",0,0
//Break Periods
2,157325,158700
2,165125,174225
2,183650,205350
//Storyboard Layer 0 (Background)
//Storyboard Layer 1 (Fail)
//Storyboard Layer 2 (Pass)
//Storyboard Layer 3 (Foreground)
//Storyboard Sound Samples

[TimingPoints]
0,300,4,1,0,100,1,0

[HitObjects]
121,92,152025,5,0,0:0:0:0:
121,92,152100,1,0,0:0:0:0:
121,92,152175,2,0,L|236:121,1,99.9999952316285
349,160,152400,2,0,L|241:200,1,99.9999952316285
147,254,152700,2,0,P|212:296|382:241,1,249.999988079071
406,196,153225,1,0,0:0:0:0:
363,112,153375,2,0,L|262:180,1,99.9999952316285
212,206,153675,2,0,P|151:205|116:196,1,49.9999976158143
68,211,153900,2,0,P|88:283|141:304,1,99.9999952316285
264,281,154200,2,0,B|326:220|326:220|331:194|359:177,1,99.9999952316285
395,76,154950,1,0,0:0:0:0:
376,91,155100,2,0,L|265:93,1,99.9999952316285
210,145,155325,2,0,L|299:146,1,49.9999976158143
394,165,155550,2,0,P|356:235|306:246,1,99.9999952316285
251,261,155850,2,0,B|161:298|130:288|102:182|102:182|190:148|190:148|183:212|183:212|356:136,1,549.999973773957
409,74,156825,2,0,P|435:153|424:208,1,99.9999952316285
388,258,157125,1,0,0:0:0:0:
368,88,159225,5,0,0:0:0:0:
400,176,159525,2,0,P|384:248|360:272,1,99.9999952316283
367,345,159825,1,0,0:0:0:0:
290,329,159975,1,0,0:0:0:0:
283,292,160050,1,0,0:0:0:0:
275,259,160125,1,0,0:0:0:0:
263,223,160200,1,0,0:0:0:0:
251,256,160275,1,0,0:0:0:0:
243,289,160350,1,0,0:0:0:0:
238,315,160425,1,0,0:0:0:0:
139,323,160650,1,0,0:0:0:0:
154,238,160800,2,0,B|90:182|90:182|106:126|106:126|58:110|58:110|42:70|42:70,1,199.999990463257
88,152,161250,1,0,0:0:0:0:
160,88,161400,2,0,B|240:88|304:136|304:200|304:200|368:232,1,249.999988079071
408,288,162000,2,0,B|352:312|352:312|384:280|384:280|280:320,1,199.999990463257
280,312,162375,2,0,P|224:328|152:208,1,199.999990463257
160,192,162750,1,0,0:0:0:0:
184,224,162825,1,0,0:0:0:0:
216,256,162900,1,0,0:0:0:0:
240,280,162975,1,0,0:0:0:0:
288,288,163125,1,0,0:0:0:0:
264,256,163200,1,0,0:0:0:0:
240,224,163275,1,0,0:0:0:0:
216,192,163350,1,0,0:0:0:0:
192,168,163425,1,0,0:0:0:0:
232,96,163575,2,0,P|288:136|306:222,1,149.999992847443
305,97,164100,1,0,0:0:0:0:
384,149,164250,2,0,B|300:131|271:187|271:187|274:210|274:210|254:215|254:215|258:229|258:229|242:235|242:235|244:248|244:248|229:246|229:246|235:258|235:258|220:254|220:254|226:268|226:268|213:263|213:263|218:276|218:276|206:269|206:269|213:334|89:314,1,449.999978542328
256,192,174750,12,0,175500,0:0:0:0:
162,143,175725,6,0,L|105:302,1,149.999992847443
98,319,176025,1,0,0:0:0:0:
127,294,176100,1,0,0:0:0:0:
164,261,176175,1,0,0:0:0:0:
229,215,176325,1,0,0:0:0:0:
240,244,176400,1,0,0:0:0:0:
252,273,176475,1,0,0:0:0:0:
263,295,176550,1,0,0:0:0:0:
321,335,176700,1,0,0:0:0:0:
339,301,176775,1,0,0:0:0:0:
356,265,176850,1,0,0:0:0:0:
370,228,176925,1,0,0:0:0:0:
365,179,177000,1,0,0:0:0:0:
341,152,177075,1,0,0:0:0:0:
302,154,177150,1,0,0:0:0:0:
282,187,177225,1,0,0:0:0:0:
275,226,177300,2,0,L|264:296,1,49.9999976158143
241,327,177525,2,0,B|172:338|127:306|127:306|139:271|139:271|123:269|123:269|133:254|133:254|116:254|116:254|128:239|128:239|112:241|112:241|124:227|124:227|112:226|112:226|96:196|129:135|130:135|130:135|219:145|218:145|229:126|229:126|233:142|234:143|242:124|242:124|245:143|246:143|255:122|255:122|258:137|258:137|266:122|266:122|268:137|268:137|280:115|280:115|280:136|280:136|292:119|293:119|290:137|291:137|305:125|305:125|306:141|305:143|304:144|304:144|309:179|351:224|372:213,1,749.999964237214
401,243,178800,1,0,0:0:0:0:
344,197,178950,1,0,0:0:0:0:
321,160,179025,1,0,0:0:0:0:
301,122,179100,1,0,0:0:0:0:
281,88,179175,1,0,0:0:0:0:
268,121,179250,1,0,0:0:0:0:
250,160,179325,1,0,0:0:0:0:
237,197,179400,1,0,0:0:0:0:
224,236,179475,1,0,0:0:0:0:
199,208,179550,1,0,0:0:0:0:
179,177,179625,1,0,0:0:0:0:
165,146,179700,1,0,0:0:0:0:
151,115,179775,1,0,0:0:0:0:
119,98,179925,2,0,L|74:190,1,99.9999952316285
75,211,180300,2,0,L|107:322,1,99.9999952316285
200,307,180600,1,0,0:0:0:0:
200,307,180750,2,0,B|302:220|302:220|289:258|289:258|288:21,1,399.999980926514
215,52,181500,2,0,P|223:123|143:164,1,149.999992847443
95,252,181875,2,0,P|183:236|217:301,1,149.999992847443
278,309,182250,2,0,L|338:311,1,49.9999976158143
359,291,182475,2,0,L|386:164,1,99.9999952316285
378,263,182925,2,0,B|430:201|424:169|417:157|414:146|393:136|385:134|372:144|359:159|356:161|363:173|366:180|375:189|387:194|412:193|424:187|436:181|444:171|449:158|453:149|461:133|463:121|461:102|459:86|430:61|420:51,1,349.9999833107
96,211,205875,6,0,B|106:129|161:94|190:164|196:171|202:191|200:213|195:215|195:223|193:227|248:147|273:120|297:102|319:80|336:69|373:86|376:89|405:104|424:115|425:137|419:151|401:184|362:219|327:238|285:257|251:269|234:278|226:282|230:280|241:272|266:259|312:271|326:286|326:312|318:338|298:355|277:358|255:362|237:364|208:361|180:362|176:357,1,749.999964237214
