osu file format v14

[General]
AudioFilename: audio.mp3
AudioLeadIn: 0
PreviewTime: 213
Countdown: 0
SampleSet: Normal
StackLeniency: 0.7
Mode: 1
LetterboxInBreaks: 0
WidescreenStoryboard: 1

[Editor]
DistanceSpacing: 0.8
BeatDivisor: 4
GridSize: 32
TimelineZoom: 1.4

[Metadata]
Title:Turbo Trainers
TitleUnicode:Turbo Trainers
Artist:Grant Kirkhope
ArtistUnicode:Grant Kirkhope
Creator:nevqr
Version:Muzukashii
Source:Banjo-Kazooie
Tags:バンジョーとカズーイの大冒険 Banjo to Kazooie no Daibouken ターボシューズ tabo shu-zu shuuzu turbo talon trot instrumental videogame video game vgm nintendo 64 n64 rare rareware flute xylophone slyme mari_0hara mari 0hara Everything and the Kitchen Sink!
BeatmapID:3957487
BeatmapSetID:1917699

[Difficulty]
HPDrainRate:7
CircleSize:2
OverallDifficulty:5
ApproachRate:9
SliderMultiplier:1.4
SliderTickRate:1

[Events]
//Background and Video events
0,0,"spiralmountain.jpg",0,-130
//Break Periods
//Storyboard Layer 0 (Background)
//Storyboard Layer 1 (Fail)
//Storyboard Layer 2 (Pass)
//Storyboard Layer 3 (Foreground)
//Storyboard Layer 4 (Overlay)
//Storyboard Sound Samples

[TimingPoints]
292,315.789473684211,4,1,0,80,1,0
818,-95.2380952380952,4,1,0,82,0,0
918,-90.9090909090909,4,1,0,85,0,0
1555,315.789473684211,4,1,0,90,1,0
1555,-90.9090909090909,4,1,0,90,0,0
3923,-92.5925925925926,4,1,0,90,0,0
4076,-95.2380952380952,4,1,0,80,0,0
6602,-90.9090909090909,4,1,0,90,0,0
8976,-92.5925925925926,4,1,0,90,0,0
9129,-95.2380952380952,4,1,0,80,0,0
11655,-100,4,1,0,80,0,0
14028,-98.0392156862745,4,1,0,80,0,0
14181,-95.2380952380952,4,1,0,80,0,0
16708,-100,4,1,0,80,0,0
19081,-98.0392156862745,4,1,0,80,0,0
19234,-95.2380952380952,4,1,0,80,0,0
21607,-92.5925925925926,4,1,0,80,0,0
21760,-90.9090909090909,4,1,0,90,0,0
24133,-92.5925925925926,4,1,0,90,0,0
24287,-95.2380952380952,4,1,0,80,0,0
26813,-90.9090909090909,4,1,0,90,0,0
29186,-92.5925925925926,4,1,0,90,0,0
29339,-95.2380952380952,4,1,0,80,0,0
31865,-100,4,1,0,80,0,0
34239,-98.0392156862745,4,1,0,80,0,0
34392,-95.2380952380952,4,1,0,80,0,0
36918,-100,4,1,0,80,0,0
39291,-98.0392156862745,4,1,0,80,0,0
39444,-95.2380952380952,4,1,0,80,0,0
41818,-92.5925925925926,4,1,0,80,0,0
41971,-90.9090909090909,4,1,0,90,0,0
42133,-90.9090909090909,4,1,0,88,0,0
42212,-90.9090909090909,4,1,0,87,0,0
42287,-90.9090909090909,4,1,0,86,0,0
42449,-90.9090909090909,4,1,0,84,0,0
42602,-90.9090909090909,4,1,0,82,0,0
42765,-90.9090909090909,4,1,0,81,0,0
42844,-90.9090909090909,4,1,0,80,0,0
42918,-90.9090909090909,4,1,0,78,0,0
43081,-90.9090909090909,4,1,0,76,0,0
43234,-90.9090909090909,4,1,0,75,0,0
43397,-90.9090909090909,4,1,0,74,0,0
43476,-90.9090909090909,4,1,0,72,0,0
43550,-90.9090909090909,4,1,0,70,0,0
43712,-90.9090909090909,4,1,0,69,0,0
43865,-90.9090909090909,4,1,0,68,0,0
44028,-90.9090909090909,4,1,0,66,0,0
44107,-90.9090909090909,4,1,0,64,0,0
44181,-90.9090909090909,4,1,0,63,0,0
44344,-92.5925925925926,4,1,0,62,0,0
44497,-95.2380952380952,4,1,0,60,0,0
44815,-98.1618932887732,4,1,0,58,0,0
45025,-100.206283719454,4,1,0,57,0,0
45130,-101.260748431581,4,1,0,56,0,0
45446,-104.572457618348,4,1,0,54,0,0
45762,-108.108108108108,4,1,0,52,0,0
46078,-111.891209497021,4,1,0,51,0,0
46288,-114.555225505091,4,1,0,50,0,0
46394,-115.948681462441,4,1,0,48,0,0
46709,-120.297171159158,4,1,0,46,0,0
47025,-125,4,1,0,45,0,0
47339,-125,4,1,0,44,0,0
47655,-125,4,1,0,41,0,0
47971,-125,4,1,0,37,0,0
48287,-125,4,1,0,33,0,0
48602,-125,4,1,0,29,0,0
48918,-125,4,1,0,25,0,0
49234,-125,4,1,0,21,0,0
49550,-125,4,1,0,17,0,0
49865,-125,4,1,0,13,0,0
50181,-125,4,1,0,9,0,0
50497,-125,4,1,0,5,0,0

[HitObjects]
256,192,292,5,0,1:0:0:0:
256,192,397,1,0,1:0:0:0:
256,192,502,1,0,1:0:0:0:
256,192,607,1,8,1:0:0:0:
256,192,818,1,0,1:0:0:0:
35,49,923,2,0,L|79:49,6,38.5000011749268,0|0|0|0|0|0|0,1:0|1:0|1:0|1:0|1:0|1:0|1:0,1:0:0:0:
256,192,1555,1,8,1:0:0:0:
256,192,1712,1,0,1:0:0:0:
256,192,1791,1,0,1:0:0:0:
256,192,1870,1,0,1:0:0:0:
256,192,2028,1,8,1:0:0:0:
256,192,2186,1,0,1:0:0:0:
256,192,2344,1,8,1:0:0:0:
256,192,2423,1,8,1:0:0:0:
256,192,2502,1,8,1:0:0:0:
256,192,2660,1,0,1:0:0:0:
256,192,2818,1,8,1:0:0:0:
256,192,2976,1,0,1:0:0:0:
256,192,3055,1,0,1:0:0:0:
256,192,3133,1,0,1:0:0:0:
256,192,3291,1,8,1:0:0:0:
256,192,3449,1,0,1:0:0:0:
256,192,3607,1,8,1:0:0:0:
256,192,3686,1,8,1:0:0:0:
256,192,3765,1,8,1:0:0:0:
256,192,3923,1,0,1:0:0:0:
256,192,4081,1,8,1:0:0:0:
256,192,4397,1,0,1:0:0:0:
256,192,4607,1,0,1:0:0:0:
256,192,4712,1,8,1:0:0:0:
256,192,5028,1,0,1:0:0:0:
256,192,5344,1,8,1:0:0:0:
256,192,5660,1,0,1:0:0:0:
256,192,5870,1,0,1:0:0:0:
256,192,5976,1,8,1:0:0:0:
256,192,6291,1,0,1:0:0:0:
256,192,6607,1,0,1:0:0:0:
256,192,6765,1,0,1:0:0:0:
256,192,6844,1,0,1:0:0:0:
256,192,6923,1,0,1:0:0:0:
256,192,7081,1,8,1:0:0:0:
256,192,7239,1,0,1:0:0:0:
256,192,7397,1,8,1:0:0:0:
256,192,7476,1,8,1:0:0:0:
256,192,7555,1,8,1:0:0:0:
256,192,7712,1,0,1:0:0:0:
256,192,7870,1,8,1:0:0:0:
256,192,8028,1,8,1:0:0:0:
256,192,8107,1,8,1:0:0:0:
256,192,8186,1,8,1:0:0:0:
256,192,8344,1,0,1:0:0:0:
256,192,8502,1,8,1:0:0:0:
256,192,8660,1,0,1:0:0:0:
256,192,8739,1,0,1:0:0:0:
256,192,8818,1,0,1:0:0:0:
256,192,8976,1,0,1:0:0:0:
256,192,9133,1,8,1:0:0:0:
256,192,9449,1,8,1:0:0:0:
256,192,9660,1,0,1:0:0:0:
256,192,9765,1,8,1:0:0:0:
256,192,10081,1,8,1:0:0:0:
256,192,10397,1,0,1:0:0:0:
256,192,10712,1,8,1:0:0:0:
256,192,11028,1,8,1:0:0:0:
256,192,11344,1,0,1:0:0:0:
256,192,11660,1,0,1:0:0:0:
256,192,11818,1,8,1:0:0:0:
256,192,11897,1,8,1:0:0:0:
256,192,11976,1,8,1:0:0:0:
256,192,12133,1,8,1:0:0:0:
256,192,12291,1,0,1:0:0:0:
256,192,12449,1,0,1:0:0:0:
256,192,12607,1,8,1:0:0:0:
256,192,12765,1,0,1:0:0:0:
256,192,12923,1,8,1:0:0:0:
256,192,13081,1,0,1:0:0:0:
256,192,13160,1,0,1:0:0:0:
256,192,13239,1,0,1:0:0:0:
256,192,13397,1,0,1:0:0:0:
256,192,13555,1,8,1:0:0:0:
256,192,13712,1,8,1:0:0:0:
256,192,13870,1,0,1:0:0:0:
256,192,14028,1,0,1:0:0:0:
256,192,14186,1,8,1:0:0:0:
256,192,14502,1,0,1:0:0:0:
256,192,14739,1,0,1:0:0:0:
256,192,14818,1,8,1:0:0:0:
256,192,15133,1,0,1:0:0:0:
256,192,15449,1,8,1:0:0:0:
256,192,15607,1,8,1:0:0:0:
256,192,15686,1,8,1:0:0:0:
256,192,15765,1,8,1:0:0:0:
256,192,16081,1,0,1:0:0:0:
256,192,16397,1,0,1:0:0:0:
256,192,16712,1,8,1:0:0:0:
255,191,16870,1,0,1:0:0:0:
256,192,16949,1,0,1:0:0:0:
256,192,17028,1,0,1:0:0:0:
255,191,17186,1,8,1:0:0:0:
256,192,17344,1,0,1:0:0:0:
256,192,17502,1,0,1:0:0:0:
256,192,17660,1,8,1:0:0:0:
256,192,17818,1,8,1:0:0:0:
256,192,17976,1,0,1:0:0:0:
255,191,18133,1,8,1:0:0:0:
256,192,18212,1,8,1:0:0:0:
256,192,18291,1,8,1:0:0:0:
255,191,18449,1,8,1:0:0:0:
256,192,18607,1,0,1:0:0:0:
256,192,18765,1,0,1:0:0:0:
256,192,18923,1,8,1:0:0:0:
256,192,19081,1,0,1:0:0:0:
256,192,19239,1,8,1:0:0:0:
255,192,19555,1,0,1:0:0:0:
256,192,19712,1,0,1:0:0:0:
255,192,19870,1,8,1:0:0:0:
256,192,20186,1,0,1:0:0:0:
256,192,20344,1,0,1:0:0:0:
256,191,20502,1,8,1:0:0:0:
256,192,20818,1,8,1:0:0:0:
256,192,20976,1,0,1:0:0:0:
256,191,21133,1,8,1:0:0:0:
256,191,21449,1,8,1:0:0:0:
256,192,21607,1,0,1:0:0:0:
256,192,21765,1,8,1:0:0:0:
256,192,21923,1,0,1:0:0:0:
256,192,22002,1,0,1:0:0:0:
256,192,22081,1,0,1:0:0:0:
256,192,22239,1,8,1:0:0:0:
256,192,22397,1,0,1:0:0:0:
256,192,22555,1,8,1:0:0:0:
256,192,22633,1,8,1:0:0:0:
256,192,22712,1,8,1:0:0:0:
256,192,22870,1,0,1:0:0:0:
256,192,23028,1,8,1:0:0:0:
256,192,23186,1,0,1:0:0:0:
256,192,23265,1,0,1:0:0:0:
256,192,23344,1,0,1:0:0:0:
256,192,23502,1,8,1:0:0:0:
256,192,23660,1,0,1:0:0:0:
256,192,23818,1,8,1:0:0:0:
256,192,23897,1,8,1:0:0:0:
256,192,23976,1,8,1:0:0:0:
256,192,24133,1,0,1:0:0:0:
256,192,24291,1,8,1:0:0:0:
256,192,24607,1,0,1:0:0:0:
256,192,24818,1,0,1:0:0:0:
256,192,24923,1,8,1:0:0:0:
256,192,25239,1,0,1:0:0:0:
256,192,25555,1,8,1:0:0:0:
256,192,25870,1,0,1:0:0:0:
256,192,26081,1,0,1:0:0:0:
256,192,26186,1,8,1:0:0:0:
256,192,26502,1,0,1:0:0:0:
256,192,26818,1,0,1:0:0:0:
256,192,26976,1,0,1:0:0:0:
256,192,27055,1,0,1:0:0:0:
256,192,27133,1,0,1:0:0:0:
256,192,27291,1,8,1:0:0:0:
256,192,27449,1,0,1:0:0:0:
256,192,27607,1,8,1:0:0:0:
256,192,27686,1,8,1:0:0:0:
256,192,27765,1,8,1:0:0:0:
256,192,27923,1,0,1:0:0:0:
256,192,28081,1,8,1:0:0:0:
256,192,28239,1,8,1:0:0:0:
256,192,28318,1,8,1:0:0:0:
256,192,28397,1,8,1:0:0:0:
256,192,28555,1,0,1:0:0:0:
256,192,28712,1,8,1:0:0:0:
256,192,28870,1,0,1:0:0:0:
256,192,28949,1,0,1:0:0:0:
256,192,29028,1,0,1:0:0:0:
256,192,29186,1,0,1:0:0:0:
256,192,29344,1,8,1:0:0:0:
256,192,29660,1,8,1:0:0:0:
256,192,29870,1,0,1:0:0:0:
256,192,29976,1,8,1:0:0:0:
256,192,30291,1,8,1:0:0:0:
256,192,30607,1,0,1:0:0:0:
256,192,30923,1,8,1:0:0:0:
256,192,31239,1,8,1:0:0:0:
256,192,31555,1,0,1:0:0:0:
256,192,31870,1,0,1:0:0:0:
256,192,32028,1,8,1:0:0:0:
256,192,32107,1,8,1:0:0:0:
256,192,32186,1,8,1:0:0:0:
256,192,32344,1,8,1:0:0:0:
256,192,32502,1,0,1:0:0:0:
256,192,32660,1,0,1:0:0:0:
256,192,32818,1,8,1:0:0:0:
256,192,32976,1,0,1:0:0:0:
256,192,33133,1,8,1:0:0:0:
256,192,33291,1,0,1:0:0:0:
256,192,33370,1,0,1:0:0:0:
256,192,33449,1,0,1:0:0:0:
256,192,33607,1,0,1:0:0:0:
256,192,33765,1,8,1:0:0:0:
256,192,33923,1,8,1:0:0:0:
256,192,34081,1,0,1:0:0:0:
256,192,34239,1,0,1:0:0:0:
256,192,34397,1,8,1:0:0:0:
256,192,34712,1,0,1:0:0:0:
256,192,34949,1,0,1:0:0:0:
256,192,35028,1,8,1:0:0:0:
256,192,35344,1,0,1:0:0:0:
256,192,35660,1,8,1:0:0:0:
256,192,35818,1,8,1:0:0:0:
256,192,35897,1,8,1:0:0:0:
256,192,35976,1,8,1:0:0:0:
256,192,36291,1,0,1:0:0:0:
256,192,36607,1,0,1:0:0:0:
256,192,36923,1,8,1:0:0:0:
255,191,37081,1,0,1:0:0:0:
256,192,37160,1,0,1:0:0:0:
256,192,37239,1,0,1:0:0:0:
255,191,37397,1,8,1:0:0:0:
256,192,37555,1,0,1:0:0:0:
256,192,37712,1,0,1:0:0:0:
256,192,37870,1,8,1:0:0:0:
256,192,38028,1,8,1:0:0:0:
256,192,38186,1,0,1:0:0:0:
255,191,38344,1,8,1:0:0:0:
256,192,38423,1,8,1:0:0:0:
256,192,38502,1,8,1:0:0:0:
255,191,38660,1,8,1:0:0:0:
256,192,38818,1,0,1:0:0:0:
256,192,38976,1,0,1:0:0:0:
256,192,39133,1,8,1:0:0:0:
256,192,39291,1,0,1:0:0:0:
256,192,39449,1,8,1:0:0:0:
255,192,39765,1,0,1:0:0:0:
256,192,39923,1,0,1:0:0:0:
255,192,40081,1,8,1:0:0:0:
256,192,40397,1,0,1:0:0:0:
256,192,40555,1,0,1:0:0:0:
256,191,40712,1,8,1:0:0:0:
256,192,41028,1,8,1:0:0:0:
256,192,41186,1,0,1:0:0:0:
256,191,41344,1,8,1:0:0:0:
256,191,41660,1,8,1:0:0:0:
256,192,41818,1,0,1:0:0:0:
256,192,41976,1,8,1:0:0:0:
256,192,42133,1,0,1:0:0:0:
256,192,42212,1,0,1:0:0:0:
256,192,42291,1,0,1:0:0:0:
256,192,42449,1,8,1:0:0:0:
256,192,42607,1,0,1:0:0:0:
256,192,42765,1,8,1:0:0:0:
256,192,42844,1,8,1:0:0:0:
256,192,42923,1,8,1:0:0:0:
256,192,43081,1,0,1:0:0:0:
256,192,43239,1,8,1:0:0:0:
256,192,43397,1,0,1:0:0:0:
256,192,43476,1,0,1:0:0:0:
256,192,43555,1,0,1:0:0:0:
256,192,43712,1,8,1:0:0:0:
256,192,43870,1,0,1:0:0:0:
256,192,44028,1,8,1:0:0:0:
256,192,44107,1,8,1:0:0:0:
256,192,44186,1,8,1:0:0:0:
256,192,44344,1,0,1:0:0:0:
256,192,44502,1,8,1:0:0:0:
256,192,44818,1,0,1:0:0:0:
256,192,45028,1,0,1:0:0:0:
256,192,45133,1,8,1:0:0:0:
256,192,45449,1,0,1:0:0:0:
256,192,45765,1,8,1:0:0:0:
256,192,46081,1,0,1:0:0:0:
256,192,46291,1,0,1:0:0:0:
256,192,46397,1,8,1:0:0:0:
256,192,46712,1,0,1:0:0:0:
256,192,47028,8,0,50502,1:0:0:0:
