osu file format v14

[General]
AudioFilename: audio.mp3
AudioLeadIn: 0
PreviewTime: 213
Countdown: 0
SampleSet: Normal
StackLeniency: 0.7
Mode: 1
LetterboxInBreaks: 0
WidescreenStoryboard: 0

[Editor]
DistanceSpacing: 0.8
BeatDivisor: 1
GridSize: 16
TimelineZoom: 1.7

[Metadata]
Title:Turbo Trainers
TitleUnicode:Turbo Trainers
Artist:Grant Kirkhope
ArtistUnicode:Grant Kirkhope
Creator:nevqr
Version:Kantan
Source:Banjo-Kazooie
Tags:バンジョーとカズーイの大冒険 Banjo to Kazooie no Daibouken ターボシューズ tabo shu-zu shuuzu turbo talon trot instrumental videogame video game vgm nintendo 64 n64 rare rareware flute xylophone slyme mari_0hara mari 0hara Everything and the Kitchen Sink!
BeatmapID:3957365
BeatmapSetID:1917699

[Difficulty]
HPDrainRate:9
CircleSize:2
OverallDifficulty:3
ApproachRate:9
SliderMultiplier:1.4
SliderTickRate:1

[Events]
//Background and Video events
0,0,"spiralmountain.jpg",0,-130
//Break Periods
//Storyboard Layer 0 (Background)
//Storyboard Layer 1 (Fail)
//Storyboard Layer 2 (Pass)
//Storyboard Layer 3 (Foreground)
//Storyboard Layer 4 (Overlay)
//Storyboard Sound Samples

[TimingPoints]
292,315.789473684211,4,1,0,80,1,0
1555,315.789473684211,4,1,0,90,1,0
1555,-100,4,1,0,90,0,0
4076,-100,4,1,0,80,0,0
6602,-100,4,1,0,90,0,0
9129,-100,4,1,0,80,0,0
21760,-100,4,1,0,90,0,0
24287,-100,4,1,0,80,0,0
26813,-100,4,1,0,90,0,0
29339,-100,4,1,0,80,0,0
41971,-100,4,1,0,90,0,0
42287,-100,4,1,0,85,0,0
42602,-100,4,1,0,80,0,0
42918,-100,4,1,0,75,0,0
43234,-100,4,1,0,70,0,0
43865,-100,4,1,0,65,0,0
44497,-100,4,1,0,60,0,0
45444,-100,4,1,0,55,0,0
45760,-100,4,1,0,50,0,0
46707,-100,4,1,0,45,0,0
47339,-100,4,1,0,44,0,0
47655,-100,4,1,0,41,0,0
47971,-100,4,1,0,37,0,0
48287,-100,4,1,0,33,0,0
48602,-100,4,1,0,29,0,0
48918,-100,4,1,0,25,0,0
49234,-100,4,1,0,21,0,0
49550,-100,4,1,0,17,0,0
49865,-100,4,1,0,13,0,0
50181,-100,4,1,0,9,0,0
50497,-100,4,1,0,5,0,0

[HitObjects]
256,192,292,5,0,1:0:0:0:
256,192,607,1,0,1:0:0:0:
256,192,923,1,8,1:0:0:0:
256,192,1555,1,8,1:0:0:0:
256,192,1870,1,8,1:0:0:0:
256,192,2186,1,0,1:0:0:0:
256,192,2502,1,0,1:0:0:0:
256,192,2818,1,8,1:0:0:0:
256,192,3449,1,8,1:0:0:0:
256,192,4081,1,0,1:0:0:0:
256,192,5028,1,8,1:0:0:0:
256,192,5344,1,0,1:0:0:0:
256,192,6291,1,8,1:0:0:0:
256,192,6607,1,0,1:0:0:0:
256,192,6923,1,0,1:0:0:0:
256,192,7239,1,8,1:0:0:0:
256,192,7555,1,8,1:0:0:0:
256,192,7870,1,0,1:0:0:0:
256,192,8502,1,0,1:0:0:0:
256,192,9133,1,8,1:0:0:0:
256,192,10081,1,0,1:0:0:0:
256,192,10397,1,8,1:0:0:0:
256,192,11344,1,8,1:0:0:0:
256,192,11660,1,0,1:0:0:0:
256,192,11976,1,0,1:0:0:0:
256,192,12291,1,8,1:0:0:0:
256,192,12923,1,8,1:0:0:0:
256,192,13239,1,0,1:0:0:0:
256,192,13555,1,8,1:0:0:0:
256,192,14186,1,0,1:0:0:0:
256,192,15133,1,0,1:0:0:0:
256,192,15449,1,8,1:0:0:0:
256,192,15765,1,8,1:0:0:0:
256,192,16081,1,0,1:0:0:0:
256,192,16712,1,8,1:0:0:0:
256,192,17028,1,8,1:0:0:0:
256,192,17344,1,0,1:0:0:0:
256,192,17976,1,0,1:0:0:0:
256,192,18291,1,8,1:0:0:0:
256,192,18607,1,0,1:0:0:0:
256,192,19239,1,8,1:0:0:0:
256,192,19555,1,0,1:0:0:0:
256,192,19870,1,8,1:0:0:0:
256,192,20502,1,8,1:0:0:0:
256,192,20818,1,8,1:0:0:0:
256,192,21765,1,8,1:0:0:0:
256,192,22081,1,8,1:0:0:0:
256,192,22397,1,0,1:0:0:0:
256,192,22712,1,0,1:0:0:0:
256,192,23028,1,8,1:0:0:0:
256,192,23660,1,8,1:0:0:0:
256,192,24291,1,0,1:0:0:0:
256,192,25239,1,8,1:0:0:0:
256,192,25555,1,0,1:0:0:0:
256,192,26502,1,8,1:0:0:0:
256,192,26818,1,0,1:0:0:0:
256,192,27133,1,0,1:0:0:0:
256,192,27449,1,8,1:0:0:0:
256,192,27765,1,8,1:0:0:0:
256,192,28081,1,0,1:0:0:0:
256,192,28712,1,0,1:0:0:0:
256,192,29344,1,8,1:0:0:0:
256,192,30291,1,0,1:0:0:0:
256,192,30607,1,8,1:0:0:0:
256,192,31555,1,8,1:0:0:0:
256,192,31870,1,0,1:0:0:0:
256,192,32186,1,0,1:0:0:0:
256,192,32502,1,8,1:0:0:0:
256,192,33133,1,8,1:0:0:0:
256,192,33449,1,0,1:0:0:0:
256,192,33765,1,8,1:0:0:0:
256,192,34397,1,0,1:0:0:0:
256,192,35344,1,0,1:0:0:0:
256,192,35660,1,8,1:0:0:0:
256,192,35976,1,8,1:0:0:0:
256,192,36291,1,0,1:0:0:0:
256,192,36923,1,8,1:0:0:0:
256,192,37239,1,8,1:0:0:0:
256,192,37555,1,0,1:0:0:0:
256,192,38186,1,0,1:0:0:0:
256,192,38502,1,8,1:0:0:0:
256,192,38818,1,0,1:0:0:0:
256,192,39449,1,8,1:0:0:0:
256,192,39765,1,0,1:0:0:0:
256,192,40081,1,8,1:0:0:0:
256,192,40712,1,8,1:0:0:0:
256,192,41028,1,8,1:0:0:0:
256,192,41976,1,8,1:0:0:0:
256,192,42291,1,8,1:0:0:0:
256,192,42607,1,0,1:0:0:0:
256,192,42923,1,0,1:0:0:0:
256,192,43239,1,8,1:0:0:0:
256,192,43870,1,8,1:0:0:0:
256,192,44502,1,0,1:0:0:0:
256,192,45449,1,8,1:0:0:0:
256,192,45765,1,0,1:0:0:0:
256,192,46712,1,8,1:0:0:0:
256,192,47028,8,0,50502,1:0:0:0:
