osu file format v14

[General]
AudioFilename: audio.mp3
AudioLeadIn: 0
PreviewTime: 1403
Countdown: 0
SampleSet: Soft
StackLeniency: 0.7
Mode: 0
LetterboxInBreaks: 0
WidescreenStoryboard: 1

[Editor]
DistanceSpacing: 0.2
BeatDivisor: 4
GridSize: 16
TimelineZoom: 1.8

[Metadata]
Title:King Sandybutt's Tomb
TitleUnicode:King Sandybutt's Tomb
Artist:Grant Kirkhope
ArtistUnicode:Grant Kirkhope
Creator:Seto Kousuke
Version:I N S A N E
Source:Banjo-Kazooie
Tags:バンジョーとカズーイの大冒険 Banjo To Kazooie No Daibouken Maze videogame video game nintendo 64 rare instrumental speed up puzzle banjo kazooie gobi gobi's valley Everything and the Kitchen Sink! hard insane expert extreme
BeatmapID:2328045
BeatmapSetID:1114471

[Difficulty]
HPDrainRate:5
CircleSize:4
OverallDifficulty:8
ApproachRate:9
SliderMultiplier:1.7
SliderTickRate:1

[Events]
//Background and Video events
0,0,"thumb-1920-716471.jpg",0,0
//Break Periods
//Storyboard Layer 0 (Background)
//Storyboard Layer 1 (Fail)
//Storyboard Layer 2 (Pass)
//Storyboard Layer 3 (Foreground)
//Storyboard Layer 4 (Overlay)
//Storyboard Sound Samples
Sample,59866,0,"guh-huh.mp3",100

[TimingPoints]
1387,434.782608695652,4,2,0,60,1,0
4865,419.580419580419,4,2,0,60,1,0
8221,405.405405405405,4,2,0,60,1,0
11464,400,4,2,0,60,1,0
14663,387.096774193548,4,2,0,60,1,0
17759,377.358490566038,4,2,0,60,1,0
20777,368.098159509202,4,2,0,60,1,0
23721,359.281437125748,4,2,0,60,1,0
26595,350.877192982456,4,2,0,60,1,0
29402,340.90909090909,4,2,0,60,1,0
32130,335.195530726257,4,2,0,60,1,0
34811,331.491712707182,4,2,0,60,1,0
37462,327.868852459016,4,2,0,60,1,0
40084,324.324324324324,4,2,0,60,1,0
42678,320.855614973262,4,2,0,60,1,0
45244,315.78947368421,4,2,0,60,1,0
47770,312.5,4,2,0,60,1,0
50270,309.278350515464,4,2,0,60,1,0
52744,306.122448979592,4,2,0,60,1,0
55192,303.030303030303,4,2,0,60,1,0
57616,300,4,2,0,60,1,0

[Colours]
Combo1 : 159,60,18
Combo2 : 242,234,48
Combo3 : 225,18,24
Combo4 : 84,188,217

[HitObjects]
178,347,1387,6,0,L|196:242,1,85,4|2,3:1|0:0,0:0:0:0:
130,97,1821,2,0,L|116:181,1,85,2|2,3:2|0:0,0:0:0:0:
288,194,2256,2,0,L|183:176,1,85,2|2,3:2|0:0,0:0:0:0:
25,249,2690,2,0,L|108:263,1,85,2|2,3:2|0:0,0:0:0:0:
278,330,3126,1,2,3:2:0:0:
278,330,3234,1,2,0:0:0:0:
278,330,3343,2,0,L|275:379,2,42.5,2|2|2,0:0|0:0|3:2,0:0:0:0:
342,261,3778,1,2,0:0:0:0:
422,308,3995,2,0,P|440:266|422:209,1,85,2|2,3:2|0:0,0:0:0:0:
362,167,4430,1,2,3:2:0:0:
430,103,4647,2,0,L|467:108,2,28.3333333333333,4|4|4,3:0|3:0|3:0,0:0:0:0:
407,78,4865,6,0,L|304:61,1,85,4|2,3:1|0:0,0:0:0:0:
157,122,5284,2,0,L|241:109,1,85,2|2,3:2|0:0,0:0:0:0:
418,180,5704,2,0,L|315:163,1,85,2|2,3:2|0:0,0:0:0:0:
168,224,6123,2,0,L|251:210,1,85,2|2,3:2|0:0,0:0:0:0:
390,308,6543,1,2,3:2:0:0:
390,308,6648,1,2,0:0:0:0:
390,308,6753,2,0,L|462:327,2,42.5,2|2|2,0:0|0:0|3:2,0:0:0:0:
314,362,7172,1,2,0:0:0:0:
233,314,7382,2,0,P|175:308|138:318,1,85,2|2,3:2|0:0,0:0:0:0:
78,375,7802,1,2,3:2:0:0:
25,308,8011,2,0,L|-18:324,2,28.3333333333333,4|4|4,3:0|3:0|3:0,0:0:0:0:
44,285,8221,6,0,L|52:181,1,85,4|2,3:1|0:0,0:0:0:0:
117,49,8626,2,0,L|122:150,1,85,2|2,3:2|0:0,0:0:0:0:
186,284,9031,2,0,L|194:180,1,85,2|2,3:2|0:0,0:0:0:0:
259,48,9436,2,0,L|264:149,1,85,2|2,3:2|0:0,0:0:0:0:
340,276,9842,1,2,3:2:0:0:
340,276,9943,1,2,0:0:0:0:
340,276,10045,2,0,L|343:330,2,42.5,2|2|2,0:0|0:0|3:2,0:0:0:0:
287,209,10450,1,2,0:0:0:0:
347,148,10653,2,0,P|391:138|450:164,1,85,2|2,3:2|0:0,0:0:0:0:
487,209,11058,1,2,3:2:0:0:
507,126,11261,2,0,L|505:86,2,28.3333333333333,4|4|4,3:0|3:0|3:0,0:0:0:0:
493,65,11464,6,0,P|446:55|399:58,1,85,4|2,3:1|0:0,0:0:0:0:
244,30,11864,2,0,P|195:28|150:39,1,85,2|2,3:2|0:0,0:0:0:0:
19,162,12264,2,0,P|66:152|113:155,1,85,2|2,3:2|0:0,0:0:0:0:
280,145,12664,2,0,P|328:143|373:154,1,85,2|2,3:2|0:0,0:0:0:0:
477,288,13064,1,2,3:2:0:0:
477,288,13164,1,2,0:0:0:0:
477,288,13264,2,0,L|484:347,2,42.5,2|2|2,0:0|0:0|3:2,0:0:0:0:
431,201,13664,1,2,0:0:0:0:
370,288,13864,2,0,P|297:299|259:280,1,85,2|2,3:2|0:0,0:0:0:0:
206,242,14264,1,2,3:2:0:0:
129,307,14464,2,0,L|133:348,2,28.3333333333333,4|4|4,3:0|3:0|3:0,0:0:0:0:
100,300,14663,6,0,P|86:267|100:211,1,85,4|2,3:1|0:0,0:0:0:0:
28,77,15050,2,0,P|61:63|117:77,1,85,2|2,3:2|0:0,0:0:0:0:
264,34,15437,2,0,P|278:67|264:123,1,85,2|2,3:2|0:0,0:0:0:0:
336,257,15824,2,0,P|303:271|247:257,1,85,2|2,3:2|0:0,0:0:0:0:
447,148,16211,1,2,3:2:0:0:
447,148,16308,1,2,0:0:0:0:
447,148,16404,2,0,L|450:207,2,42.5,2|2|2,0:0|0:0|3:2,0:0:0:0:
370,80,16792,1,2,0:0:0:0:
329,172,16985,2,0,L|338:293,1,85,2|2,3:2|0:0,0:0:0:0:
399,342,17372,1,2,3:2:0:0:
262,373,17566,2,0,L|225:377,2,28.3333333333333,4|4|4,3:0|3:0|3:0,0:0:0:0:
270,384,17759,6,0,P|271:335|241:297,1,85,4|2,3:1|0:0,0:0:0:0:
88,299,18136,2,0,P|67:335|70:377,1,85,2|2,3:2|0:0,0:0:0:0:
263,222,18513,2,0,P|264:173|234:135,1,85,2|2,3:2|0:0,0:0:0:0:
81,137,18890,2,0,P|60:173|63:215,1,85,2|2,3:2|0:0,0:0:0:0:
166,50,19268,1,2,3:2:0:0:
166,50,19362,1,2,0:0:0:0:
166,50,19457,2,0,L|167:2,2,42.5,2|2|2,0:0|0:0|3:2,0:0:0:0:
167,200,19834,1,2,0:0:0:0:
264,68,20023,2,0,P|326:61|367:71,1,85,2|2,3:2|0:0,0:0:0:0:
382,219,20400,1,2,3:2:0:0:
472,110,20589,2,0,L|476:68,2,28.3333333333333,4|4|4,3:0|3:0|3:0,0:0:0:0:
467,125,20777,6,0,L|482:231,1,85,4|2,3:1|0:0,0:0:0:0:
347,64,21145,2,0,L|332:170,1,85,2|2,3:2|0:0,0:0:0:0:
216,226,21513,2,0,L|205:142,1,85,2|2,3:2|0:0,0:0:0:0:
73,165,21881,2,0,L|85:81,1,85,2|2,3:2|0:0,0:0:0:0:
42,306,22249,1,2,3:2:0:0:
42,306,22341,1,2,0:0:0:0:
42,306,22433,2,0,L|4:352,2,42.5,2|2|2,0:0|0:0|3:2,0:0:0:0:
142,210,22801,1,2,0:0:0:0:
244,329,22985,2,0,P|287:340|347:317,1,85,2|2,3:2|0:0,0:0:0:0:
427,189,23353,1,2,3:2:0:0:
495,329,23537,2,0,L|522:362,2,28.3333333333333,4|4|4,3:0|3:0|3:0,0:0:0:0:
494,310,23721,6,0,P|446:301|403:314,1,85,4|2,3:1|0:0,0:0:0:0:
283,165,24080,2,0,P|274:213|287:256,1,85,2|2,3:2|0:0,0:0:0:0:
128,334,24439,2,0,P|176:343|219:330,1,85,2|2,3:2|0:0,0:0:0:0:
52,162,24798,2,0,P|43:210|56:253,1,85,2|2,3:2|0:0,0:0:0:0:
150,79,25158,1,2,3:2:0:0:
150,79,25247,1,2,0:0:0:0:
150,79,25337,2,0,L|151:16,2,42.5,2|2|2,0:0|0:0|3:2,0:0:0:0:
239,119,25697,1,2,0:0:0:0:
57,77,25876,2,0,L|50:181,1,85,2|2,3:2|0:0,0:0:0:0:
16,339,26235,1,2,3:2:0:0:
159,240,26415,2,0,L|206:241,2,28.3333333333333,4|4|4,3:0|3:0|3:0,0:0:0:0:
145,248,26595,6,0,P|137:305|152:343,1,85,4|2,3:1|0:0,0:0:0:0:
348,334,26945,2,0,P|357:292|347:251,1,85,2|2,3:2|0:0,0:0:0:0:
178,144,27296,2,0,P|136:139|72:153,1,85,2|2,3:2|0:0,0:0:0:0:
323,148,27647,2,0,P|357:140|421:154,1,85,2|2,3:2|0:0,0:0:0:0:
247,299,27998,1,2,3:2:0:0:
247,299,28086,1,2,0:0:0:0:
247,299,28173,2,0,L|247:361,2,42.5,2|2|2,0:0|0:0|3:2,0:0:0:0:
249,181,28524,1,2,0:0:0:0:
136,281,28700,2,0,P|89:289|47:259,1,85,2|2,3:2|0:0,0:0:0:0:
52,265,28963,1,2,0:0:0:0:
48,257,29051,1,2,3:2:0:0:
6,82,29226,2,0,L|3:38,2,28.3333333333333,4|4|4,3:0|3:0|3:0,0:0:0:0:
6,99,29402,6,0,P|55:86|102:104,1,85,4|2,3:1|0:0,0:0:0:0:
289,103,29742,2,0,P|240:90|193:108,1,85,2|2,3:2|0:0,0:0:0:0:
48,257,30083,2,0,P|56:204|47:155,1,85,2|2,3:2|0:0,0:0:0:0:
247,177,30424,2,0,P|243:219|251:260,1,85,2|2,3:2|0:0,0:0:0:0:
391,350,30765,1,2,3:2:0:0:
391,350,30850,1,2,0:0:0:0:
391,350,30936,2,0,L|441:351,2,42.5,2|2|2,0:0|0:0|3:2,0:0:0:0:
256,352,31276,1,2,0:0:0:0:
347,232,31447,2,0,L|463:239,1,85,2|2,3:2|0:0,0:0:0:0:
439,241,31703,1,2,0:0:0:0:
446,245,31788,1,2,3:2:0:0:
490,107,31958,2,0,L|492:71,2,28.3333333333333,4|4|4,3:0|3:0|3:0,0:0:0:0:
493,121,32130,6,0,P|445:115|393:120,1,85,4|2,3:1|0:0,0:0:0:0:
266,198,32465,2,0,P|272:150|267:98,1,85,2|2,3:2|0:0,0:0:0:0:
112,110,32800,2,0,P|64:104|12:109,1,85,2|2,3:2|0:0,0:0:0:0:
22,295,33135,2,0,P|70:301|122:296,1,85,2|2,3:2|0:0,0:0:0:0:
274,206,33470,1,2,3:2:0:0:
274,206,33554,1,2,0:0:0:0:
274,206,33638,2,0,L|328:206,2,42.5,2|2|2,0:0|0:0|3:2,0:0:0:0:
153,201,33973,1,2,0:0:0:0:
238,308,34141,2,0,L|356:311,1,85,2|2,3:2|0:0,0:0:0:0:
329,315,34392,1,2,0:0:0:0:
335,320,34476,1,2,3:2:0:0:
128,357,34643,2,0,L|82:356,2,28.3333333333333,4|4|4,3:0|3:0|3:0,0:0:0:0:
145,361,34811,6,0,P|154:320|130:268,1,85,4|2,3:1|0:0,0:0:0:0:
145,70,35142,2,0,P|136:111|160:163,1,85,2|2,3:2|0:0,0:0:0:0:
281,347,35473,2,0,P|290:306|266:254,1,85,2|2,3:2|0:0,0:0:0:0:
281,56,35805,2,0,P|272:97|296:149,1,85,2|2,3:2|0:0,0:0:0:0:
486,226,36136,1,2,3:2:0:0:
486,226,36219,1,2,0:0:0:0:
486,226,36302,1,2,0:0:0:0:
486,226,36385,1,2,0:0:0:0:
486,226,36468,2,0,P|436:222|386:228,1,85,2|2,3:2|0:0,0:0:0:0:
285,136,36799,2,0,P|264:194|271:229,1,85,2|2,3:2|0:0,0:0:0:0:
270,223,37048,1,2,0:0:0:0:
274,230,37131,1,2,3:2:0:0:
153,118,37297,2,0,L|152:66,2,28.3333333333333,4|4|4,3:0|3:0|3:0,0:0:0:0:
160,133,37462,6,0,P|112:141|68:129,1,85,4|2,3:1|0:0,0:0:0:0:
239,52,37789,2,0,P|287:44|331:56,1,85,2|2,3:2|0:0,0:0:0:0:
285,218,38117,2,0,P|277:170|289:126,1,85,2|2,3:2|0:0,0:0:0:0:
457,187,38445,2,0,L|356:188,1,85,2|2,3:2|0:0,0:0:0:0:
287,361,38773,1,2,3:2:0:0:
287,361,38855,1,2,0:0:0:0:
287,361,38937,1,2,0:0:0:0:
287,361,39019,1,2,0:0:0:0:
287,361,39101,2,0,L|382:361,1,85,2|2,3:2|0:0,0:0:0:0:
210,266,39429,2,0,P|147:258|104:267,1,85,2|2,3:2|0:0,0:0:0:0:
119,266,39675,1,2,0:0:0:0:
113,272,39757,1,2,3:2:0:0:
38,128,39921,2,0,L|0:126,2,28.3333333333333,4|4|4,3:0|3:0|3:0,0:0:0:0:
46,141,40084,6,0,P|95:146|133:133,1,85,4|2,3:1|0:0,0:0:0:0:
355,139,40408,2,0,P|306:144|268:131,1,85,2|2,3:2|0:0,0:0:0:0:
50,255,40732,2,0,P|99:260|137:247,1,85,2|2,3:2|0:0,0:0:0:0:
359,253,41056,2,0,P|310:258|272:245,1,85,2|2,3:2|0:0,0:0:0:0:
202,56,41381,1,2,3:2:0:0:
202,56,41462,1,2,0:0:0:0:
202,56,41543,1,2,0:0:0:0:
202,56,41624,1,2,0:0:0:0:
202,56,41705,2,0,L|201:151,1,85,2|2,3:2|0:0,0:0:0:0:
206,338,42029,1,2,3:2:0:0:
207,237,42192,1,2,0:0:0:0:
207,237,42273,1,2,0:0:0:0:
207,237,42354,1,2,3:2:0:0:
329,288,42516,2,0,L|376:284,2,28.3333333333333,4|4|4,3:0|3:0|3:0,0:0:0:0:
312,301,42678,6,0,P|300:266|322:214,1,85,4|2,3:1|0:0,0:0:0:0:
470,173,42999,2,0,P|435:185|383:163,1,85,2|2,3:2|0:0,0:0:0:0:
304,27,43319,2,0,P|318:66|306:106,1,85,2|2,3:2|0:0,0:0:0:0:
158,169,43640,2,0,P|198:156|237:171,1,85,2|2,3:2|0:0,0:0:0:0:
231,352,43961,1,2,3:2:0:0:
231,352,44041,1,2,0:0:0:0:
231,352,44121,1,2,0:0:0:0:
231,352,44202,1,2,0:0:0:0:
231,352,44282,2,0,L|120:348,1,85,2|2,3:2|0:0,0:0:0:0:
33,226,44603,1,2,3:2:0:0:
38,325,44763,1,2,0:0:0:0:
38,325,44843,1,2,0:0:0:0:
38,325,44923,1,2,3:2:0:0:
151,251,45084,2,0,L|196:244,2,28.3333333333333,4|4|4,3:0|3:0|3:0,0:0:0:0:
133,263,45244,6,0,P|128:227|141:152,1,85,4|2,3:1|0:0,0:0:0:0:
340,226,45559,2,0,P|297:230|255:225,1,85,2|2,3:2|0:0,0:0:0:0:
295,39,45875,2,0,P|300:81|295:123,1,85,2|2,3:2|0:0,0:0:0:0:
97,82,46191,2,0,P|139:76|181:81,1,85,2|2,3:2|0:0,0:0:0:0:
414,104,46507,1,2,3:2:0:0:
414,104,46586,1,2,0:0:0:0:
414,104,46665,1,2,0:0:0:0:
414,104,46744,1,2,0:0:0:0:
414,104,46822,2,0,P|416:146|416:195,1,85,2|2,3:2|0:0,0:0:0:0:
409,357,47138,1,2,3:2:0:0:
471,276,47296,1,2,0:0:0:0:
471,276,47375,1,2,0:0:0:0:
471,276,47454,1,2,3:2:0:0:
297,280,47612,2,0,L|253:278,2,28.3333333333333,4|4|4,3:0|3:0|3:0,0:0:0:0:
322,291,47770,6,0,P|331:246|319:201,1,85,4|2,3:1|0:0,0:0:0:0:
170,150,48082,2,0,P|215:159|260:147,1,85,2|2,3:2|0:0,0:0:0:0:
105,291,48395,2,0,P|114:246|102:201,1,85,2|2,3:2|0:0,0:0:0:0:
255,356,48707,2,0,P|210:347|165:359,1,85,2|2,3:2|0:0,0:0:0:0:
18,255,49020,1,2,3:2:0:0:
18,255,49098,1,2,0:0:0:0:
18,255,49176,1,2,0:0:0:0:
18,255,49254,1,2,0:0:0:0:
18,255,49332,2,0,L|20:129,1,85,2|2,3:2|0:0,0:0:0:0:
118,32,49645,1,2,3:2:0:0:
22,69,49801,1,2,0:0:0:0:
22,69,49879,1,2,0:0:0:0:
22,69,49957,1,2,3:2:0:0:
152,168,50113,2,0,L|162:217,2,28.3333333333333,4|4|4,3:0|3:0|3:0,0:0:0:0:
140,153,50270,6,0,P|169:107|226:96,1,85,4|2,3:1|0:0,0:0:0:0:
385,95,50579,2,0,P|421:115|440:152,1,85,2|2,3:2|0:0,0:0:0:0:
442,310,50888,2,0,P|423:347|386:367,1,85,2|2,3:2|0:0,0:0:0:0:
196,366,51197,2,0,P|159:345|140:308,1,85,2|2,3:2|0:0,0:0:0:0:
345,214,51507,1,2,3:2:0:0:
345,214,51584,1,2,0:0:0:0:
345,214,51661,1,2,0:0:0:0:
345,214,51739,1,2,0:0:0:0:
345,214,51816,2,0,L|252:215,1,85,2|2,3:2|0:0,0:0:0:0:
68,216,52125,1,2,3:2:0:0:
163,133,52280,1,2,0:0:0:0:
163,133,52357,1,2,0:0:0:0:
163,133,52434,1,2,3:2:0:0:
170,309,52589,2,0,L|172:345,2,28.3333333333333,4|4|4,3:0|3:0|3:0,0:0:0:0:
181,301,52744,6,0,P|138:292|91:302,1,85,4|2,3:1|0:0,0:0:0:0:
351,295,53050,2,0,P|394:286|441:296,1,85,2|2,3:2|0:0,0:0:0:0:
175,168,53356,2,0,P|132:159|85:169,1,85,2|2,3:2|0:0,0:0:0:0:
345,162,53662,2,0,P|388:153|435:163,1,85,2|2,3:2|0:0,0:0:0:0:
259,23,53968,1,2,3:2:0:0:
258,44,54044,1,2,0:0:0:0:
259,65,54121,1,2,0:0:0:0:
259,86,54197,1,2,0:0:0:0:
260,107,54274,1,2,3:2:0:0:
347,61,54427,1,2,0:0:0:0:
171,64,54580,1,2,3:2:0:0:
266,198,54733,1,2,0:0:0:0:
266,198,54810,1,2,0:0:0:0:
266,198,54886,1,2,3:2:0:0:
97,176,55039,2,0,L|58:173,2,28.3333333333333,4|4|4,3:0|3:0|3:0,0:0:0:0:
112,165,55192,6,0,P|124:213|114:266,1,85,4|2,3:1|0:0,0:0:0:0:
415,237,55495,2,0,P|411:194|423:154,1,85,2|2,3:2|0:0,0:0:0:0:
259,25,55798,2,0,P|247:73|257:126,1,85,2|2,3:2|0:0,0:0:0:0:
255,364,56101,2,0,P|267:316|257:263,1,85,2|2,3:2|0:0,0:0:0:0:
112,165,56404,1,2,3:2:0:0:
90,164,56479,1,2,0:0:0:0:
69,164,56555,1,2,0:0:0:0:
48,164,56631,1,2,0:0:0:0:
27,164,56707,1,2,3:2:0:0:
164,101,56858,1,2,0:0:0:0:
59,256,57010,1,2,3:2:0:0:
218,209,57161,1,2,0:0:0:0:
218,209,57237,1,2,0:0:0:0:
218,209,57313,1,2,3:2:0:0:
69,78,57464,2,0,L|28:78,2,28.3333333333333,4|4|4,3:0|3:0|3:0,0:0:0:0:
80,64,57616,6,0,L|181:62,1,85,4|2,3:1|0:0,0:0:0:0:
442,63,57916,2,0,L|341:61,1,85,2|2,3:2|0:0,0:0:0:0:
68,171,58216,2,0,L|169:169,1,85,2|2,3:2|0:0,0:0:0:0:
443,166,58516,2,0,L|342:164,1,85,2|2,3:2|0:0,0:0:0:0:
262,126,58816,1,2,3:2:0:0:
261,147,58891,1,2,0:0:0:0:
261,168,58966,1,2,0:0:0:0:
260,189,59041,1,2,0:0:0:0:
260,210,59116,1,2,3:2:0:0:
359,165,59266,1,2,0:0:0:0:
152,169,59416,1,2,3:2:0:0:
262,50,59566,1,2,0:0:0:0:
262,50,59641,1,2,0:0:0:0:
262,50,59716,2,0,L|357:57,1,85,2|4,3:2|3:0,0:0:0:0:
