osu file format v14

[General]
AudioFilename: audio.mp3
AudioLeadIn: 0
PreviewTime: 47541
Countdown: 0
SampleSet: Normal
StackLeniency: 0.7
Mode: 1
LetterboxInBreaks: 0
WidescreenStoryboard: 0

[Editor]
DistanceSpacing: 1
BeatDivisor: 16
GridSize: 32
TimelineZoom: 1.6

[Metadata]
Title:DK Rap (Unused Version)
TitleUnicode:DK Rap (Unused Version)
Artist:Grant Kirkhope
ArtistUnicode:Grant Kirkhope
Creator:Ak1o
Version:CG
Source:Donkey Kong 64
Tags:
BeatmapID:1685672
BeatmapSetID:803069

[Difficulty]
HPDrainRate:6.9
CircleSize:2
OverallDifficulty:6.9
ApproachRate:10
SliderMultiplier:1.4
SliderTickRate:1

[Events]
//Background and Video events
0,0,"unknown.png",0,0
//Break Periods
//Storyboard Layer 0 (Background)
//Storyboard Layer 1 (Fail)
//Storyboard Layer 2 (Pass)
//Storyboard Layer 3 (Foreground)
//Storyboard Sound Samples

[TimingPoints]
1150,483.870967741935,4,1,0,100,1,0
19960,-66.6666666666667,4,1,0,100,0,0
20081,-100,4,1,0,100,0,0
47057,-50,4,1,0,100,0,0
47178,-100,4,1,0,100,0,0
64990,-80,4,1,0,100,0,0
66926,-66.6666666666667,4,1,0,100,0,0
68861,-57.1428571428571,4,1,0,100,0,0
70857,-100,4,1,0,100,0,0
73942,-40,4,1,0,100,0,0
74577,-100,4,1,0,100,0,0
78024,-33.3333333333333,4,1,0,100,0,0
78145,-100,4,1,0,100,0,0
79022,-90.9090909090909,4,1,0,100,0,0
79506,-83.3333333333333,4,1,0,100,0,0
79990,-76.9230769230769,4,1,0,100,0,0
80474,-71.4285714285714,4,1,0,100,0,0
80716,-64.5161290322581,4,1,0,100,0,0
80958,-58.8235294117647,4,1,0,100,0,0
81200,-58.8235294117647,4,1,0,100,0,0
81442,-54.054054054054,4,1,0,100,0,0
81684,-50,4,1,0,100,0,0
81926,-50,4,1,0,100,0,0
82168,-46.5116279069767,4,1,0,100,0,0
82410,-43.4782608695652,4,1,0,100,0,0
82893,-50,4,1,0,100,0,0
105121,-25,4,1,0,100,0,0
105242,-50,4,1,0,100,0,0
113408,428.571428571429,4,1,0,100,1,0
113408,-57.1428571428571,4,1,0,100,0,0
126452,-55.5555555555556,4,1,0,100,0,0
126666,-54.054054054054,4,1,0,100,0,0
126881,-52.6315789473684,4,1,0,100,0,0
127095,-50,4,1,0,100,0,1
133952,-46.5116279069767,4,1,0,100,0,1
140809,-43.4782608695652,4,1,0,100,0,1
147666,-40.8163265306122,4,1,0,100,0,1
153854,-25,4,1,0,100,0,1

[HitObjects]
256,192,1150,5,0,0:0:0:0:
256,192,1633,1,8,0:0:0:0:
256,192,1875,1,0,0:0:0:0:
256,192,2117,1,0,0:0:0:0:
256,192,2238,1,8,0:0:0:0:
256,192,2359,1,8,0:0:0:0:
256,192,2601,1,0,0:0:0:0:
256,192,2722,1,8,0:0:0:0:
256,192,2843,1,8,0:0:0:0:
256,192,3085,1,0,0:0:0:0:
256,192,3569,1,8,0:0:0:0:
256,192,3811,1,0,0:0:0:0:
256,192,4295,1,0,0:0:0:0:
256,192,4537,1,8,0:0:0:0:
256,192,4779,1,0,0:0:0:0:
256,192,5020,1,4,0:0:0:0:
256,192,5262,1,0,0:0:0:0:
256,192,5504,1,8,0:0:0:0:
256,192,5746,1,0,0:0:0:0:
256,192,6230,1,0,0:0:0:0:
256,192,6472,1,8,0:0:0:0:
256,192,6714,1,0,0:0:0:0:
256,192,6956,1,8,0:0:0:0:
256,192,7198,1,8,0:0:0:0:
256,192,7440,1,0,0:0:0:0:
256,192,7924,1,8,0:0:0:0:
256,192,8408,1,8,0:0:0:0:
256,192,8650,1,0,0:0:0:0:
256,192,8891,1,8,0:0:0:0:
256,192,9375,1,0,0:0:0:0:
256,192,9617,1,0,0:0:0:0:
256,192,10101,1,8,0:0:0:0:
256,192,10585,1,0,0:0:0:0:
256,192,10827,1,8,0:0:0:0:
256,192,11311,1,8,0:0:0:0:
256,192,11795,1,8,0:0:0:0:
256,192,12279,1,0,0:0:0:0:
256,192,12520,1,0,0:0:0:0:
256,192,12762,1,8,0:0:0:0:
256,192,13246,1,0,0:0:0:0:
256,192,13488,1,8,0:0:0:0:
256,192,13730,1,0,0:0:0:0:
256,192,14214,1,8,0:0:0:0:
256,192,14456,1,0,0:0:0:0:
256,192,14698,1,8,0:0:0:0:
256,192,15182,1,0,0:0:0:0:
256,192,15424,1,8,0:0:0:0:
256,192,16150,1,12,0:0:0:0:
256,192,16633,1,0,0:0:0:0:
256,192,16875,1,0,0:0:0:0:
256,192,17117,1,8,0:0:0:0:
256,192,17359,1,0,0:0:0:0:
256,192,17480,1,8,0:0:0:0:
256,192,17601,1,0,0:0:0:0:
256,192,18085,1,8,0:0:0:0:
256,192,18206,1,0,0:0:0:0:
256,192,18327,1,8,0:0:0:0:
256,192,18569,1,8,0:0:0:0:
256,192,18811,1,0,0:0:0:0:
256,192,19053,1,0,0:0:0:0:
256,192,19295,1,8,0:0:0:0:
256,192,20020,1,4,0:0:0:0:
256,192,20504,1,0,0:0:0:0:
256,192,20988,1,0,0:0:0:0:
256,192,21230,1,0,0:0:0:0:
256,192,21351,1,8,0:0:0:0:
256,192,21472,1,0,0:0:0:0:
256,192,21775,1,0,0:0:0:0:
256,192,21835,1,0,0:0:0:0:
256,192,21895,1,0,0:0:0:0:
256,192,21956,1,8,0:0:0:0:
256,192,22440,1,0,0:0:0:0:
256,192,22682,1,0,0:0:0:0:
256,192,22924,1,8,0:0:0:0:
256,192,23166,1,0,0:0:0:0:
256,192,23650,1,4,0:0:0:0:
256,192,23891,1,8,0:0:0:0:
256,192,24133,1,4,0:0:0:0:
256,192,24375,1,12,0:0:0:0:
256,192,24617,1,8,0:0:0:0:
256,192,24738,1,8,0:0:0:0:
256,192,24859,1,0,0:0:0:0:
256,192,25101,1,0,0:0:0:0:
256,192,25222,1,8,0:0:0:0:
256,192,25343,1,0,0:0:0:0:
256,192,25585,1,0,0:0:0:0:
256,192,26069,1,0,0:0:0:0:
256,192,26190,1,0,0:0:0:0:
256,192,26311,1,0,0:0:0:0:
256,192,26432,1,8,0:0:0:0:
256,192,26553,1,8,0:0:0:0:
256,192,26795,1,8,0:0:0:0:
256,192,27037,1,0,0:0:0:0:
256,192,27158,1,8,0:0:0:0:
256,192,27279,1,0,0:0:0:0:
256,192,27400,1,8,0:0:0:0:
256,192,27520,1,0,0:0:0:0:
256,192,27611,1,0,0:0:0:0:
256,192,27702,1,8,0:0:0:0:
256,192,28004,1,0,0:0:0:0:
256,192,28246,1,8,0:0:0:0:
256,192,28488,1,0,0:0:0:0:
256,192,28609,1,8,0:0:0:0:
256,192,28730,1,0,0:0:0:0:
256,192,28851,1,0,0:0:0:0:
256,192,28972,1,8,0:0:0:0:
256,192,29214,1,8,0:0:0:0:
256,192,29456,1,0,0:0:0:0:
256,192,29940,1,0,0:0:0:0:
256,192,30182,1,8,0:0:0:0:
256,192,30303,1,8,0:0:0:0:
256,192,30424,1,0,0:0:0:0:
256,192,30666,1,0,0:0:0:0:
256,192,30908,1,8,0:0:0:0:
256,192,31029,1,0,0:0:0:0:
256,192,31150,1,8,0:0:0:0:
256,192,31391,1,0,0:0:0:0:
256,192,31633,1,12,0:0:0:0:
256,192,32117,1,0,0:0:0:0:
256,192,32238,1,0,0:0:0:0:
256,192,32359,1,0,0:0:0:0:
256,192,32440,1,0,0:0:0:0:
256,192,32601,1,8,0:0:0:0:
256,192,32722,1,0,0:0:0:0:
256,192,32843,1,0,0:0:0:0:
256,192,33085,1,8,0:0:0:0:
256,192,33327,1,0,0:0:0:0:
256,192,33529,1,0,0:0:0:0:
256,192,33569,1,8,0:0:0:0:
256,192,33811,1,0,0:0:0:0:
256,192,34053,1,0,0:0:0:0:
256,192,34174,1,8,0:0:0:0:
256,192,34295,1,8,0:0:0:0:
256,192,34416,1,0,0:0:0:0:
256,192,34537,1,8,0:0:0:0:
256,192,34779,1,8,0:0:0:0:
256,192,35262,1,12,0:0:0:0:
256,192,35504,1,0,0:0:0:0:
256,192,35746,1,12,0:0:0:0:
256,192,35988,1,4,0:0:0:0:
256,192,36230,1,8,0:0:0:0:
256,192,36472,1,4,0:0:0:0:
256,192,36714,1,0,0:0:0:0:
256,192,36956,1,8,0:0:0:0:
256,192,37440,1,12,0:0:0:0:
256,192,37924,1,8,0:0:0:0:
256,192,38004,1,0,0:0:0:0:
256,192,38085,1,0,0:0:0:0:
256,192,38166,1,0,0:0:0:0:
256,192,38287,1,0,0:0:0:0:
256,192,38408,1,8,0:0:0:0:
256,192,38529,1,0,0:0:0:0:
256,192,38650,1,8,0:0:0:0:
256,192,38891,1,8,0:0:0:0:
256,192,39133,1,8,0:0:0:0:
256,192,39375,1,8,0:0:0:0:
256,192,39496,1,0,0:0:0:0:
256,192,39617,1,0,0:0:0:0:
256,192,39859,1,8,0:0:0:0:
256,192,39900,1,0,0:0:0:0:
256,192,40101,1,8,0:0:0:0:
256,192,40142,1,0,0:0:0:0:
256,192,40343,1,0,0:0:0:0:
256,192,40383,1,0,0:0:0:0:
256,192,40585,1,8,0:0:0:0:
256,192,40626,1,0,0:0:0:0:
256,192,41069,1,0,0:0:0:0:
256,192,41311,1,8,0:0:0:0:
256,192,41391,1,8,0:0:0:0:
256,192,41472,1,8,0:0:0:0:
256,192,41553,1,0,0:0:0:0:
256,192,41795,1,8,0:0:0:0:
256,192,41875,1,0,0:0:0:0:
256,192,41956,1,0,0:0:0:0:
256,192,42037,1,0,0:0:0:0:
256,192,42279,1,0,0:0:0:0:
256,192,42359,1,8,0:0:0:0:
256,192,42440,1,0,0:0:0:0:
256,192,42520,1,8,0:0:0:0:
256,192,42762,1,8,0:0:0:0:
256,192,43246,1,12,0:0:0:0:
256,192,43488,1,12,0:0:0:0:
256,192,43730,1,4,0:0:0:0:
256,192,43972,1,0,0:0:0:0:
256,192,44214,1,12,0:0:0:0:
256,192,44456,1,4,0:0:0:0:
256,192,44698,1,8,0:0:0:0:
256,192,44940,1,12,0:0:0:0:
256,192,45182,1,8,0:0:0:0:
256,192,45424,1,4,0:0:0:0:
256,192,45666,1,12,0:0:0:0:
256,192,45908,1,12,0:0:0:0:
256,192,46150,1,4,0:0:0:0:
256,192,46391,1,12,0:0:0:0:
256,192,47117,1,12,0:0:0:0:
256,192,47601,1,0,0:0:0:0:
256,192,48085,1,0,0:0:0:0:
256,192,48327,1,0,0:0:0:0:
256,192,48448,1,8,0:0:0:0:
256,192,48569,1,0,0:0:0:0:
256,192,48932,1,0,0:0:0:0:
256,192,48972,1,0,0:0:0:0:
256,192,49012,1,0,0:0:0:0:
256,192,49053,1,8,0:0:0:0:
256,192,49537,1,0,0:0:0:0:
256,192,49779,1,0,0:0:0:0:
256,192,50020,1,8,0:0:0:0:
256,192,50262,1,0,0:0:0:0:
256,192,50746,1,4,0:0:0:0:
256,192,50988,1,8,0:0:0:0:
256,192,51230,1,4,0:0:0:0:
256,192,51472,1,12,0:0:0:0:
256,192,51956,1,8,0:0:0:0:
256,192,52198,1,8,0:0:0:0:
256,192,52440,1,0,0:0:0:0:
256,192,52924,1,0,0:0:0:0:
256,192,53004,1,8,0:0:0:0:
256,192,53085,1,8,0:0:0:0:
256,192,53166,1,8,0:0:0:0:
256,192,53408,1,0,0:0:0:0:
256,192,53650,1,0,0:0:0:0:
256,192,53891,1,8,0:0:0:0:
256,192,54133,1,0,0:0:0:0:
256,192,54375,1,8,0:0:0:0:
256,192,54436,1,8,0:0:0:0:
256,192,54496,1,0,0:0:0:0:
256,192,54617,1,8,0:0:0:0:
256,192,54678,1,8,0:0:0:0:
256,192,54738,1,0,0:0:0:0:
256,192,54779,1,0,0:0:0:0:
256,192,54859,1,8,0:0:0:0:
256,192,54940,1,8,0:0:0:0:
256,192,55020,1,0,0:0:0:0:
256,192,55101,1,8,0:0:0:0:
256,192,55182,1,8,0:0:0:0:
256,192,55222,1,0,0:0:0:0:
256,192,55262,1,0,0:0:0:0:
256,192,55343,1,12,0:0:0:0:
256,192,55585,1,0,0:0:0:0:
256,192,55827,1,8,0:0:0:0:
256,192,56069,1,0,0:0:0:0:
256,192,56311,1,8,0:0:0:0:
256,192,56553,1,0,0:0:0:0:
256,192,56674,1,8,0:0:0:0:
256,192,56795,1,8,0:0:0:0:
256,192,57037,1,0,0:0:0:0:
256,192,57520,1,0,0:0:0:0:
256,192,57762,1,8,0:0:0:0:
256,192,57883,1,0,0:0:0:0:
256,192,58004,1,0,0:0:0:0:
256,192,58065,1,0,0:0:0:0:
256,192,58125,1,0,0:0:0:0:
256,192,58246,1,8,0:0:0:0:
256,192,58367,1,8,0:0:0:0:
256,192,58488,1,0,0:0:0:0:
256,192,58549,1,0,0:0:0:0:
256,192,58609,1,8,0:0:0:0:
256,192,58972,1,8,0:0:0:0:
256,192,59456,1,0,0:0:0:0:
256,192,59577,1,0,0:0:0:0:
256,192,59698,1,8,0:0:0:0:
256,192,59819,1,8,0:0:0:0:
256,192,59940,1,0,0:0:0:0:
256,192,60061,1,0,0:0:0:0:
256,192,60182,1,8,0:0:0:0:
256,192,60424,1,0,0:0:0:0:
256,192,60666,1,8,0:0:0:0:
256,192,60706,1,8,0:0:0:0:
256,192,60746,1,8,0:0:0:0:
256,192,60787,1,8,0:0:0:0:
256,192,60827,1,8,0:0:0:0:
256,192,60867,1,8,0:0:0:0:
256,192,60908,1,0,0:0:0:0:
256,192,61150,1,8,0:0:0:0:
256,192,61190,1,0,0:0:0:0:
256,192,61391,1,8,0:0:0:0:
256,192,61432,1,0,0:0:0:0:
256,192,61633,1,0,0:0:0:0:
256,192,61674,1,8,0:0:0:0:
256,192,61875,1,8,0:0:0:0:
256,192,61916,1,8,0:0:0:0:
256,192,61956,1,0,0:0:0:0:
256,192,62359,1,0,0:0:0:0:
256,192,62601,1,12,0:0:0:0:
256,192,63085,1,8,0:0:0:0:
256,192,63569,1,0,0:0:0:0:
256,192,64053,1,8,0:0:0:0:
256,192,64295,1,0,0:0:0:0:
256,192,64537,1,8,0:0:0:0:
256,192,65020,1,8,0:0:0:0:
256,192,65262,1,0,0:0:0:0:
256,192,65383,1,8,0:0:0:0:
256,192,65504,1,0,0:0:0:0:
256,192,65746,1,0,0:0:0:0:
256,192,65867,1,0,0:0:0:0:
256,192,65988,1,8,0:0:0:0:
256,192,66109,1,8,0:0:0:0:
256,192,66230,1,0,0:0:0:0:
256,192,66472,1,8,0:0:0:0:
256,192,66593,1,0,0:0:0:0:
256,192,66714,1,0,0:0:0:0:
256,192,66956,1,8,0:0:0:0:
256,192,67077,1,0,0:0:0:0:
256,192,67198,1,8,0:0:0:0:
256,192,67279,1,0,0:0:0:0:
256,192,67359,1,0,0:0:0:0:
256,192,67440,1,8,0:0:0:0:
256,192,67561,1,8,0:0:0:0:
256,192,67682,1,0,0:0:0:0:
256,192,67803,1,0,0:0:0:0:
256,192,67924,1,8,0:0:0:0:
256,192,68004,1,8,0:0:0:0:
256,192,68085,1,0,0:0:0:0:
256,192,68166,1,8,0:0:0:0:
256,192,68287,1,8,0:0:0:0:
256,192,68408,1,0,0:0:0:0:
256,192,68488,1,0,0:0:0:0:
256,192,68569,1,8,0:0:0:0:
256,192,68650,1,0,0:0:0:0:
256,192,68730,1,0,0:0:0:0:
256,192,68811,1,8,0:0:0:0:
256,192,68891,1,8,0:0:0:0:
256,192,68972,1,0,0:0:0:0:
256,192,69012,1,0,0:0:0:0:
256,192,69053,1,0,0:0:0:0:
256,192,69133,1,8,0:0:0:0:
256,192,69214,1,0,0:0:0:0:
256,192,69295,1,0,0:0:0:0:
256,192,69375,1,8,0:0:0:0:
256,192,69456,1,0,0:0:0:0:
256,192,69537,1,0,0:0:0:0:
256,192,69617,1,8,0:0:0:0:
256,192,69678,1,0,0:0:0:0:
256,192,69738,1,0,0:0:0:0:
256,192,69799,1,0,0:0:0:0:
256,192,69859,1,8,0:0:0:0:
256,192,69940,1,8,0:0:0:0:
256,192,70020,1,0,0:0:0:0:
256,192,70101,1,8,0:0:0:0:
256,192,70141,1,8,0:0:0:0:
256,192,70182,1,8,0:0:0:0:
256,192,70262,1,0,0:0:0:0:
256,192,70343,1,8,0:0:0:0:
256,192,70384,1,8,0:0:0:0:
256,192,70424,1,8,0:0:0:0:
256,192,70504,1,8,0:0:0:0:
256,192,70585,1,0,0:0:0:0:
256,192,70645,1,0,0:0:0:0:
256,192,70706,1,0,0:0:0:0:
256,192,70766,1,0,0:0:0:0:
256,192,70827,1,8,0:0:0:0:
256,192,71250,1,8,0:0:0:0:
256,192,71553,1,0,0:0:0:0:
256,192,71674,1,8,0:0:0:0:
256,192,71795,1,0,0:0:0:0:
256,192,72158,1,8,0:0:0:0:
256,192,72279,1,0,0:0:0:0:
256,192,72400,1,0,0:0:0:0:
256,192,72520,1,8,0:0:0:0:
256,192,72641,1,0,0:0:0:0:
256,192,72762,1,8,0:0:0:0:
256,192,72823,1,8,0:0:0:0:
256,192,72883,1,0,0:0:0:0:
256,192,73004,1,8,0:0:0:0:
256,192,73065,1,0,0:0:0:0:
256,192,73125,1,0,0:0:0:0:
256,192,73246,1,0,0:0:0:0:
256,192,73327,1,8,0:0:0:0:
256,192,73408,1,0,0:0:0:0:
256,192,73488,1,8,0:0:0:0:
256,192,73912,12,0,74275,0:0:0:0:
256,192,73972,5,8,0:0:0:0:
256,192,74002,5,0,0:0:0:0:
256,192,74033,1,8,0:0:0:0:
256,192,74063,1,0,0:0:0:0:
256,192,74093,1,8,0:0:0:0:
256,192,74123,1,0,0:0:0:0:
256,192,74154,1,8,0:0:0:0:
256,192,74184,1,0,0:0:0:0:
256,192,74214,1,8,0:0:0:0:
256,192,74456,1,0,0:0:0:0:
256,192,74698,1,8,0:0:0:0:
256,192,74819,1,8,0:0:0:0:
256,192,74940,1,0,0:0:0:0:
256,192,75182,1,0,0:0:0:0:
256,192,75303,1,8,0:0:0:0:
256,192,75424,1,8,0:0:0:0:
256,192,75545,1,8,0:0:0:0:
256,192,75666,1,0,0:0:0:0:
256,192,75908,1,8,0:0:0:0:
256,192,76029,1,0,0:0:0:0:
256,192,76150,1,0,0:0:0:0:
256,192,76190,1,8,0:0:0:0:
256,192,76391,1,4,0:0:0:0:
256,192,76633,1,12,0:0:0:0:
256,192,77117,1,4,0:0:0:0:
256,192,77601,1,4,0:0:0:0:
256,192,78085,1,12,0:0:0:0:
256,192,78569,1,4,0:0:0:0:
256,192,79053,1,4,0:0:0:0:
256,192,79537,1,4,0:0:0:0:
256,192,80020,1,4,0:0:0:0:
256,192,80504,1,4,0:0:0:0:
256,192,80746,1,12,0:0:0:0:
256,192,80988,1,4,0:0:0:0:
256,192,81230,1,12,0:0:0:0:
256,192,81472,1,4,0:0:0:0:
256,192,81714,1,12,0:0:0:0:
256,192,81956,1,4,0:0:0:0:
256,192,82198,1,12,0:0:0:0:
256,192,82440,1,0,0:0:0:0:
256,192,82924,1,0,0:0:0:0:
256,192,83166,1,8,0:0:0:0:
256,192,83408,1,0,0:0:0:0:
256,192,83650,1,8,0:0:0:0:
256,192,83770,1,0,0:0:0:0:
256,192,83891,1,8,0:0:0:0:
256,192,84133,1,0,0:0:0:0:
256,192,84375,1,8,0:0:0:0:
256,192,84617,1,8,0:0:0:0:
256,192,84859,1,0,0:0:0:0:
256,192,84920,1,0,0:0:0:0:
256,192,84980,1,8,0:0:0:0:
256,192,85101,1,0,0:0:0:0:
256,192,85141,1,0,0:0:0:0:
256,192,85182,1,0,0:0:0:0:
256,192,85222,1,8,0:0:0:0:
256,192,85343,1,0,0:0:0:0:
256,192,85373,1,0,0:0:0:0:
256,192,85404,1,0,0:0:0:0:
256,192,85434,1,0,0:0:0:0:
256,192,85464,1,8,0:0:0:0:
256,192,85585,1,8,0:0:0:0:
256,192,85666,1,8,0:0:0:0:
256,192,85746,1,0,0:0:0:0:
256,192,85827,1,8,0:0:0:0:
256,192,85908,1,8,0:0:0:0:
256,192,85988,1,0,0:0:0:0:
256,192,86069,1,8,0:0:0:0:
256,192,86150,1,8,0:0:0:0:
256,192,86230,1,0,0:0:0:0:
256,192,86311,1,8,0:0:0:0:
256,192,86795,1,8,0:0:0:0:
256,192,87037,1,0,0:0:0:0:
256,192,87279,1,0,0:0:0:0:
256,192,87400,1,8,0:0:0:0:
256,192,87520,1,0,0:0:0:0:
256,192,87762,1,8,0:0:0:0:
256,192,88004,1,0,0:0:0:0:
256,192,88246,1,8,0:0:0:0:
256,192,88307,1,8,0:0:0:0:
256,192,88367,1,8,0:0:0:0:
256,192,88428,1,8,0:0:0:0:
256,192,88488,1,0,0:0:0:0:
256,192,88609,1,0,0:0:0:0:
256,192,88730,1,8,0:0:0:0:
256,192,88851,1,8,0:0:0:0:
256,192,88972,1,0,0:0:0:0:
256,192,89456,1,0,0:0:0:0:
256,192,89698,1,8,0:0:0:0:
256,192,89940,1,0,0:0:0:0:
256,192,90182,1,8,0:0:0:0:
256,192,90262,1,0,0:0:0:0:
256,192,90343,1,0,0:0:0:0:
256,192,90424,1,8,0:0:0:0:
256,192,90545,1,0,0:0:0:0:
256,192,90666,1,8,0:0:0:0:
256,192,90746,1,8,0:0:0:0:
256,192,90827,1,8,0:0:0:0:
256,192,90908,1,0,0:0:0:0:
256,192,91391,1,0,0:0:0:0:
256,192,91633,1,0,0:0:0:0:
256,192,91674,1,8,0:0:0:0:
256,192,91875,1,8,0:0:0:0:
256,192,91996,1,0,0:0:0:0:
256,192,92117,1,0,0:0:0:0:
256,192,92359,1,8,0:0:0:0:
256,192,92480,1,8,0:0:0:0:
256,192,92601,1,0,0:0:0:0:
256,192,92722,1,0,0:0:0:0:
256,192,92843,1,8,0:0:0:0:
256,192,93085,1,8,0:0:0:0:
256,192,93327,1,0,0:0:0:0:
256,192,93408,1,0,0:0:0:0:
256,192,93488,1,0,0:0:0:0:
256,192,93569,1,8,0:0:0:0:
256,192,93629,1,8,0:0:0:0:
256,192,93690,1,8,0:0:0:0:
256,192,93750,1,8,0:0:0:0:
256,192,93811,1,0,0:0:0:0:
256,192,93891,1,0,0:0:0:0:
256,192,93972,1,0,0:0:0:0:
256,192,94053,1,8,0:0:0:0:
256,192,94174,1,0,0:0:0:0:
256,192,94295,1,8,0:0:0:0:
256,192,94416,1,8,0:0:0:0:
256,192,94537,1,0,0:0:0:0:
256,192,94779,1,0,0:0:0:0:
256,192,95020,1,8,0:0:0:0:
256,192,95141,1,0,0:0:0:0:
256,192,95262,1,8,0:0:0:0:
256,192,95303,1,0,0:0:0:0:
256,192,95343,1,0,0:0:0:0:
256,192,95383,1,8,0:0:0:0:
256,192,95504,1,8,0:0:0:0:
256,192,95625,1,0,0:0:0:0:
256,192,95746,1,8,0:0:0:0:
256,192,95787,1,8,0:0:0:0:
256,192,95827,1,8,0:0:0:0:
256,192,95867,1,0,0:0:0:0:
256,192,95988,1,8,0:0:0:0:
256,192,96230,1,8,0:0:0:0:
256,192,96472,1,0,0:0:0:0:
256,192,96714,1,8,0:0:0:0:
256,192,97198,1,0,0:0:0:0:
256,192,97682,1,0,0:0:0:0:
256,192,97803,1,0,0:0:0:0:
256,192,97863,1,0,0:0:0:0:
256,192,97924,1,8,0:0:0:0:
256,192,98045,1,0,0:0:0:0:
256,192,98166,1,8,0:0:0:0:
256,192,98226,1,8,0:0:0:0:
256,192,98287,1,8,0:0:0:0:
256,192,98408,1,0,0:0:0:0:
256,192,98468,1,8,0:0:0:0:
256,192,98529,1,0,0:0:0:0:
256,192,98650,1,0,0:0:0:0:
256,192,98710,1,0,0:0:0:0:
256,192,98770,1,0,0:0:0:0:
256,192,98891,1,8,0:0:0:0:
256,192,99375,1,0,0:0:0:0:
256,192,99617,1,8,0:0:0:0:
256,192,99738,1,0,0:0:0:0:
256,192,99799,1,0,0:0:0:0:
256,192,99859,1,8,0:0:0:0:
256,192,99980,1,0,0:0:0:0:
256,192,100101,1,8,0:0:0:0:
256,192,100162,1,0,0:0:0:0:
256,192,100222,1,8,0:0:0:0:
256,192,100343,1,8,0:0:0:0:
256,192,100404,1,8,0:0:0:0:
256,192,100464,1,0,0:0:0:0:
256,192,100585,1,8,0:0:0:0:
256,192,100645,1,0,0:0:0:0:
256,192,100706,1,0,0:0:0:0:
256,192,100827,1,8,0:0:0:0:
256,192,100908,1,0,0:0:0:0:
256,192,100988,1,8,0:0:0:0:
256,192,101069,1,8,0:0:0:0:
256,192,101150,1,0,0:0:0:0:
256,192,101230,1,8,0:0:0:0:
256,192,101311,1,8,0:0:0:0:
256,192,101553,1,0,0:0:0:0:
256,192,101795,1,12,0:0:0:0:
256,192,102037,1,12,0:0:0:0:
256,192,102279,1,4,0:0:0:0:
256,192,102641,1,0,0:0:0:0:
256,192,102672,1,8,0:0:0:0:
256,192,102823,1,0,0:0:0:0:
256,192,102853,1,8,0:0:0:0:
256,192,103004,1,8,0:0:0:0:
256,192,103035,1,0,0:0:0:0:
256,192,103186,1,0,0:0:0:0:
256,192,103216,1,8,0:0:0:0:
256,192,103367,1,8,0:0:0:0:
256,192,103397,1,0,0:0:0:0:
256,192,103549,1,8,0:0:0:0:
256,192,103579,1,0,0:0:0:0:
256,192,103730,1,8,0:0:0:0:
256,192,103972,1,8,0:0:0:0:
256,192,104214,1,0,0:0:0:0:
256,192,104456,1,8,0:0:0:0:
256,192,105182,1,12,0:0:0:0:
256,192,105666,1,0,0:0:0:0:
256,192,106150,1,0,0:0:0:0:
256,192,106392,1,0,0:0:0:0:
256,192,106513,1,8,0:0:0:0:
256,192,106634,1,0,0:0:0:0:
256,192,107027,1,0,0:0:0:0:
256,192,107057,1,0,0:0:0:0:
256,192,107087,1,0,0:0:0:0:
256,192,107118,1,8,0:0:0:0:
256,192,107601,1,0,0:0:0:0:
256,192,107843,1,0,0:0:0:0:
256,192,108084,1,8,0:0:0:0:
256,192,108326,1,0,0:0:0:0:
256,192,108810,1,4,0:0:0:0:
256,192,109052,1,8,0:0:0:0:
256,192,109294,1,4,0:0:0:0:
256,192,109536,1,12,0:0:0:0:
256,192,110020,1,8,0:0:0:0:
256,192,110262,1,8,0:0:0:0:
256,192,110504,1,0,0:0:0:0:
256,192,110988,1,0,0:0:0:0:
256,192,111068,1,8,0:0:0:0:
256,192,111149,1,8,0:0:0:0:
256,192,111230,1,0,0:0:0:0:
256,192,111472,1,0,0:0:0:0:
256,192,111714,1,0,0:0:0:0:
256,192,111775,1,0,0:0:0:0:
256,192,111835,1,8,0:0:0:0:
256,192,111955,1,8,0:0:0:0:
256,192,112197,1,0,0:0:0:0:
256,192,112258,1,0,0:0:0:0:
256,192,112319,1,8,0:0:0:0:
256,192,112440,1,0,0:0:0:0:
256,192,112500,1,8,0:0:0:0:
256,192,112561,1,8,0:0:0:0:
256,192,112682,1,0,0:0:0:0:
256,192,112742,1,8,0:0:0:0:
256,192,112803,1,0,0:0:0:0:
256,192,112924,1,0,0:0:0:0:
256,192,112984,1,8,0:0:0:0:
256,192,113045,1,8,0:0:0:0:
256,192,113166,1,0,0:0:0:0:
256,192,113226,1,8,0:0:0:0:
256,192,113287,1,0,0:0:0:0:
256,192,113408,1,12,0:0:0:0:
256,192,114050,1,0,0:0:0:0:
256,192,114693,1,8,0:0:0:0:
256,192,115122,1,0,0:0:0:0:
256,192,115408,1,0,0:0:0:0:
256,192,115550,1,8,0:0:0:0:
256,192,115836,1,8,0:0:0:0:
256,192,115979,1,0,0:0:0:0:
256,192,116408,1,0,0:0:0:0:
256,192,116836,1,8,0:0:0:0:
256,192,117265,1,8,0:0:0:0:
256,192,117550,1,0,0:0:0:0:
256,192,117693,1,8,0:0:0:0:
256,192,118122,1,8,0:0:0:0:
256,192,118193,1,8,0:0:0:0:
256,192,118265,1,8,0:0:0:0:
256,192,118408,1,8,0:0:0:0:
256,192,118550,1,0,0:0:0:0:
256,192,118622,1,8,0:0:0:0:
256,192,118693,1,8,0:0:0:0:
256,192,118836,1,0,0:0:0:0:
256,192,118979,1,8,0:0:0:0:
256,192,119050,1,8,0:0:0:0:
256,192,119122,1,8,0:0:0:0:
256,192,119265,1,0,0:0:0:0:
256,192,119408,1,8,0:0:0:0:
256,192,119479,1,8,0:0:0:0:
256,192,119550,1,0,0:0:0:0:
256,192,119693,1,0,0:0:0:0:
256,192,119836,1,0,0:0:0:0:
256,192,119979,1,8,0:0:0:0:
256,192,120122,1,0,0:0:0:0:
256,192,120265,1,12,0:0:0:0:
256,192,120693,1,0,0:0:0:0:
256,192,120836,1,8,0:0:0:0:
256,192,120979,1,0,0:0:0:0:
256,192,121122,1,8,0:0:0:0:
256,192,121550,1,8,0:0:0:0:
256,192,121693,1,8,0:0:0:0:
256,192,121836,1,0,0:0:0:0:
256,192,121979,1,8,0:0:0:0:
256,192,122408,1,0,0:0:0:0:
256,192,122550,1,0,0:0:0:0:
256,192,122693,1,8,0:0:0:0:
256,192,122836,1,0,0:0:0:0:
256,192,122979,1,8,0:0:0:0:
256,192,123122,1,8,0:0:0:0:
256,192,123265,1,0,0:0:0:0:
256,192,123550,1,0,0:0:0:0:
256,192,123693,12,8,127015,0:0:0:0:
256,192,126479,5,0,0:0:0:0:
256,192,126693,1,0,0:0:0:0:
256,192,126908,1,0,0:0:0:0:
256,192,127122,1,12,0:0:0:0:
256,192,127336,1,0,0:0:0:0:
256,192,127443,1,0,0:0:0:0:
256,192,127550,1,8,0:0:0:0:
256,192,127765,1,0,0:0:0:0:
256,192,127979,1,8,0:0:0:0:
256,192,128086,1,8,0:0:0:0:
256,192,128193,1,0,0:0:0:0:
256,192,128408,1,8,0:0:0:0:
256,192,128622,1,0,0:0:0:0:
256,192,128729,1,0,0:0:0:0:
256,192,128836,1,8,0:0:0:0:
256,192,128908,1,8,0:0:0:0:
256,192,128979,1,8,0:0:0:0:
256,192,129158,1,8,0:0:0:0:
256,192,129265,1,0,0:0:0:0:
256,192,129336,1,0,0:0:0:0:
256,192,129408,1,0,0:0:0:0:
256,192,129586,1,8,0:0:0:0:
256,192,129693,1,0,0:0:0:0:
256,192,129765,1,8,0:0:0:0:
256,192,129836,1,8,0:0:0:0:
256,192,129908,1,8,0:0:0:0:
256,192,129979,1,0,0:0:0:0:
256,192,130122,1,8,0:0:0:0:
256,192,130265,1,0,0:0:0:0:
256,192,130408,1,8,0:0:0:0:
256,192,130479,1,8,0:0:0:0:
256,192,130550,1,0,0:0:0:0:
256,192,130765,1,0,0:0:0:0:
256,192,130872,1,0,0:0:0:0:
256,192,130979,1,8,0:0:0:0:
256,192,131193,1,0,0:0:0:0:
256,192,131408,1,8,0:0:0:0:
256,192,131515,1,0,0:0:0:0:
256,192,131622,1,8,0:0:0:0:
256,192,131729,1,8,0:0:0:0:
256,192,131836,1,0,0:0:0:0:
256,192,132050,1,0,0:0:0:0:
256,192,132265,1,8,0:0:0:0:
256,192,132336,1,0,0:0:0:0:
256,192,132408,1,8,0:0:0:0:
256,192,132479,1,8,0:0:0:0:
256,192,132550,1,0,0:0:0:0:
256,192,132693,1,0,0:0:0:0:
256,192,132765,1,0,0:0:0:0:
256,192,132836,1,0,0:0:0:0:
256,192,132979,1,8,0:0:0:0:
256,192,133122,1,8,0:0:0:0:
256,192,133193,1,8,0:0:0:0:
256,192,133265,1,8,0:0:0:0:
256,192,133336,1,0,0:0:0:0:
256,192,133443,1,0,0:0:0:0:
256,192,133550,1,8,0:0:0:0:
256,192,133765,1,0,0:0:0:0:
256,192,133979,1,8,0:0:0:0:
256,192,134193,1,0,0:0:0:0:
256,192,134300,1,0,0:0:0:0:
256,192,134408,1,8,0:0:0:0:
256,192,134515,1,8,0:0:0:0:
256,192,134622,1,0,0:0:0:0:
256,192,134836,1,8,0:0:0:0:
256,192,135050,1,8,0:0:0:0:
256,192,135158,1,0,0:0:0:0:
256,192,135265,1,8,0:0:0:0:
256,192,135372,1,8,0:0:0:0:
256,192,135479,1,0,0:0:0:0:
256,192,135693,1,8,0:0:0:0:
256,192,135908,1,0,0:0:0:0:
256,192,135979,1,0,0:0:0:0:
256,192,136050,1,0,0:0:0:0:
256,192,136122,1,8,0:0:0:0:
256,192,136229,1,0,0:0:0:0:
256,192,136336,1,8,0:0:0:0:
256,192,136408,1,0,0:0:0:0:
256,192,136479,1,0,0:0:0:0:
256,192,136550,1,8,0:0:0:0:
256,192,136658,1,0,0:0:0:0:
256,192,136765,1,8,0:0:0:0:
256,192,136872,1,8,0:0:0:0:
256,192,136979,1,0,0:0:0:0:
256,192,137193,1,0,0:0:0:0:
256,192,137408,1,8,0:0:0:0:
256,192,137693,1,0,0:0:0:0:
256,192,137836,1,8,0:0:0:0:
256,192,138122,1,8,0:0:0:0:
256,192,138265,1,0,0:0:0:0:
256,192,138336,1,0,0:0:0:0:
256,192,138408,1,8,0:0:0:0:
256,192,138550,1,8,0:0:0:0:
256,192,138693,1,0,0:0:0:0:
256,192,138836,1,0,0:0:0:0:
256,192,138979,1,8,0:0:0:0:
256,192,139050,1,0,0:0:0:0:
256,192,139121,1,8,0:0:0:0:
256,192,139193,1,8,0:0:0:0:
256,192,139265,1,8,0:0:0:0:
256,192,139336,1,0,0:0:0:0:
256,192,139550,1,0,0:0:0:0:
256,192,139622,1,0,0:0:0:0:
256,192,139693,1,0,0:0:0:0:
256,192,139765,1,8,0:0:0:0:
256,192,139872,1,8,0:0:0:0:
256,192,139979,1,0,0:0:0:0:
256,192,140193,1,8,0:0:0:0:
256,192,140300,1,0,0:0:0:0:
256,192,140408,1,8,0:0:0:0:
256,192,140622,1,0,0:0:0:0:
256,192,140836,1,8,0:0:0:0:
256,192,141050,1,0,0:0:0:0:
256,192,141158,1,0,0:0:0:0:
256,192,141211,1,0,0:0:0:0:
256,192,141265,1,8,0:0:0:0:
256,192,141479,1,0,0:0:0:0:
256,192,141693,1,8,0:0:0:0:
256,192,141908,1,8,0:0:0:0:
256,192,142015,1,8,0:0:0:0:
256,192,142068,1,8,0:0:0:0:
256,192,142122,1,0,0:0:0:0:
256,192,142336,1,0,0:0:0:0:
256,192,142550,1,8,0:0:0:0:
256,192,142658,1,0,0:0:0:0:
256,192,142765,1,8,0:0:0:0:
256,192,142818,1,8,0:0:0:0:
256,192,142872,1,0,0:0:0:0:
256,192,142979,1,8,0:0:0:0:
256,192,143086,1,0,0:0:0:0:
256,192,143140,1,0,0:0:0:0:
256,192,143193,1,8,0:0:0:0:
256,192,143408,1,0,0:0:0:0:
256,192,143622,1,8,0:0:0:0:
256,192,143675,1,8,0:0:0:0:
256,192,143729,1,8,0:0:0:0:
256,192,143783,1,8,0:0:0:0:
256,192,143836,1,0,0:0:0:0:
256,192,143943,1,0,0:0:0:0:
256,192,144050,1,8,0:0:0:0:
256,192,144158,1,0,0:0:0:0:
256,192,144265,1,8,0:0:0:0:
256,192,144479,1,0,0:0:0:0:
256,192,144693,1,8,0:0:0:0:
256,192,144747,1,8,0:0:0:0:
256,192,144800,1,0,0:0:0:0:
256,192,144908,1,0,0:0:0:0:
256,192,144979,1,8,0:0:0:0:
256,192,145050,1,8,0:0:0:0:
256,192,145122,1,0,0:0:0:0:
256,192,145193,1,0,0:0:0:0:
256,192,145265,1,0,0:0:0:0:
256,192,145336,1,8,0:0:0:0:
256,192,145390,1,8,0:0:0:0:
256,192,145443,1,8,0:0:0:0:
256,192,145550,1,0,0:0:0:0:
256,192,145765,1,0,0:0:0:0:
256,192,145979,1,8,0:0:0:0:
256,192,146033,1,0,0:0:0:0:
256,192,146086,1,8,0:0:0:0:
256,192,146193,1,0,0:0:0:0:
256,192,146408,1,8,0:0:0:0:
256,192,146516,1,0,0:0:0:0:
256,192,146570,1,8,0:0:0:0:
256,192,146624,1,0,0:0:0:0:
256,192,146836,1,8,0:0:0:0:
256,192,146908,1,8,0:0:0:0:
256,192,146979,1,8,0:0:0:0:
256,192,147050,1,0,0:0:0:0:
256,192,147158,1,0,0:0:0:0:
256,192,147265,1,8,0:0:0:0:
256,192,147336,1,8,0:0:0:0:
256,192,147408,1,8,0:0:0:0:
256,192,147479,1,0,0:0:0:0:
256,192,147586,1,0,0:0:0:0:
256,192,147693,1,8,0:0:0:0:
256,192,147979,1,0,0:0:0:0:
256,192,148122,1,8,0:0:0:0:
256,192,148265,1,0,0:0:0:0:
256,192,148408,1,8,0:0:0:0:
256,192,148479,1,0,0:0:0:0:
256,192,148550,1,8,0:0:0:0:
256,192,148693,1,0,0:0:0:0:
256,192,148836,1,0,0:0:0:0:
256,192,148979,1,8,0:0:0:0:
256,192,149122,1,0,0:0:0:0:
256,192,149265,1,8,0:0:0:0:
256,192,149336,1,0,0:0:0:0:
256,192,149408,1,8,0:0:0:0:
256,192,149479,1,8,0:0:0:0:
256,192,149550,1,0,0:0:0:0:
256,192,149622,1,0,0:0:0:0:
256,192,149693,1,8,0:0:0:0:
256,192,149765,1,0,0:0:0:0:
256,192,149836,1,8,0:0:0:0:
256,192,149908,1,8,0:0:0:0:
256,192,149979,1,0,0:0:0:0:
256,192,150050,1,0,0:0:0:0:
256,192,150122,1,8,0:0:0:0:
256,192,150193,1,8,0:0:0:0:
256,192,150265,1,0,0:0:0:0:
256,192,150336,1,0,0:0:0:0:
256,192,150408,1,0,0:0:0:0:
256,192,150479,1,0,0:0:0:0:
256,192,150550,1,8,0:0:0:0:
256,192,150622,1,8,0:0:0:0:
256,192,150693,1,0,0:0:0:0:
256,192,150765,1,0,0:0:0:0:
256,192,150836,1,8,0:0:0:0:
256,192,150908,1,8,0:0:0:0:
256,192,150979,1,8,0:0:0:0:
256,192,151050,1,8,0:0:0:0:
256,192,151122,1,0,0:0:0:0:
256,192,151443,1,0,0:0:0:0:
256,192,151550,1,8,0:0:0:0:
256,192,151658,1,8,0:0:0:0:
256,192,151765,1,0,0:0:0:0:
256,192,151818,1,0,0:0:0:0:
256,192,151872,1,0,0:0:0:0:
256,192,151979,1,8,0:0:0:0:
256,192,152033,1,8,0:0:0:0:
256,192,152086,1,0,0:0:0:0:
256,192,152140,1,0,0:0:0:0:
256,192,152193,1,8,0:0:0:0:
256,192,152300,1,0,0:0:0:0:
256,192,152408,1,8,0:0:0:0:
256,192,152515,1,8,0:0:0:0:
256,192,152568,1,0,0:0:0:0:
256,192,152622,1,8,0:0:0:0:
256,192,152729,1,0,0:0:0:0:
256,192,152836,1,8,0:0:0:0:
256,192,152890,1,8,0:0:0:0:
256,192,152943,1,0,0:0:0:0:
256,192,152997,1,0,0:0:0:0:
256,192,153050,1,8,0:0:0:0:
256,192,153104,1,8,0:0:0:0:
256,192,153158,1,8,0:0:0:0:
256,192,153211,1,0,0:0:0:0:
256,192,153265,1,8,0:0:0:0:
256,192,153318,1,8,0:0:0:0:
256,192,153372,1,0,0:0:0:0:
256,192,153425,1,0,0:0:0:0:
256,192,153479,1,8,0:0:0:0:
256,192,153533,1,8,0:0:0:0:
256,192,153586,1,8,0:0:0:0:
256,192,153640,1,0,0:0:0:0:
256,192,153693,1,8,0:0:0:0:
256,192,153800,1,0,0:0:0:0:
256,192,153908,2,0,L|544:192,1,280
