osu file format v14

[General]
AudioFilename: 15-crystal-caves.mp3
AudioLeadIn: 0
PreviewTime: -1
Countdown: 1
SampleSet: None
StackLeniency: 0.7
Mode: 0
LetterboxInBreaks: 1
WidescreenStoryboard: 1

[Editor]
DistanceSpacing: 1
BeatDivisor: 4
GridSize: 4
TimelineZoom: 0.72

[Metadata]
Title:Crystal Caves
TitleUnicode:Crystal Caves
Artist:Grant Kirkhope
ArtistUnicode:Grant Kirkhope
Creator:Kitokofox
Version:timing
Source:Donkey Kong 64
Tags:videogame instrumental
BeatmapID:1290264
BeatmapSetID:367546

[Difficulty]
HPDrainRate:0
CircleSize:2
OverallDifficulty:10
ApproachRate:8
SliderMultiplier:1.88
SliderTickRate:1

[Events]
//Background and Video events
0,0,"dk64_crystal_caves_hq_wallpaper__windows__by_gwreanreepah-d60w2u1.png",0,0
//Break Periods
//Storyboard Layer 0 (Background)
//Storyboard Layer 1 (Fail)
//Storyboard Layer 2 (Pass)
//Storyboard Layer 3 (Foreground)
//Storyboard Sound Samples

[TimingPoints]
9227,1143.18376679051,4,2,0,49,1,0
100681,-100,4,2,0,49,0,1
118972,-100,4,2,0,49,0,0
215000,-100,4,2,0,49,0,1
233291,-100,4,2,0,49,0,0

[HitObjects]
188,192,9230,5,0,0:0:0:0:
256,128,9794,1,0,0:0:0:0:
324,192,10366,1,0,0:0:0:0:
256,256,10938,1,0,0:0:0:0:
188,192,11509,5,0,0:0:0:0:
256,128,12081,1,0,0:0:0:0:
324,192,12653,1,0,0:0:0:0:
256,256,13225,1,0,0:0:0:0:
188,192,13795,5,0,0:0:0:0:
256,128,14367,1,0,0:0:0:0:
324,192,14939,1,0,0:0:0:0:
256,256,15511,1,0,0:0:0:0:
188,192,16082,5,0,0:0:0:0:
256,128,16654,1,0,0:0:0:0:
324,192,17226,1,0,0:0:0:0:
256,256,17798,1,0,0:0:0:0:
188,192,18368,5,0,0:0:0:0:
256,128,18940,1,0,0:0:0:0:
324,192,19512,1,0,0:0:0:0:
256,256,20084,1,0,0:0:0:0:
188,192,20655,5,0,0:0:0:0:
256,128,21227,1,0,0:0:0:0:
324,192,21799,1,0,0:0:0:0:
256,256,22371,1,0,0:0:0:0:
188,192,22941,5,0,0:0:0:0:
256,128,23513,1,0,0:0:0:0:
324,192,24085,1,0,0:0:0:0:
256,256,24657,1,0,0:0:0:0:
188,192,25228,5,0,0:0:0:0:
256,128,25800,1,0,0:0:0:0:
324,192,26372,1,0,0:0:0:0:
256,256,26944,1,0,0:0:0:0:
188,192,27513,5,0,0:0:0:0:
256,128,28085,1,0,0:0:0:0:
324,192,28657,1,0,0:0:0:0:
256,256,29229,1,0,0:0:0:0:
188,192,29800,5,0,0:0:0:0:
256,128,30372,1,0,0:0:0:0:
324,192,30944,1,0,0:0:0:0:
256,256,31516,1,0,0:0:0:0:
188,192,32086,5,0,0:0:0:0:
256,128,32658,1,0,0:0:0:0:
324,192,33230,1,0,0:0:0:0:
256,256,33802,1,0,0:0:0:0:
188,192,34373,5,0,0:0:0:0:
256,128,34945,1,0,0:0:0:0:
324,192,35517,1,0,0:0:0:0:
256,256,36089,1,0,0:0:0:0:
188,192,36659,5,0,0:0:0:0:
256,128,37231,1,0,0:0:0:0:
324,192,37803,1,0,0:0:0:0:
256,256,38375,1,0,0:0:0:0:
188,192,38946,5,0,0:0:0:0:
256,128,39518,1,0,0:0:0:0:
324,192,40090,1,0,0:0:0:0:
256,256,40662,1,0,0:0:0:0:
188,192,41232,5,0,0:0:0:0:
256,128,41804,1,0,0:0:0:0:
324,192,42376,1,0,0:0:0:0:
256,256,42948,1,0,0:0:0:0:
188,192,43519,5,0,0:0:0:0:
256,128,44091,1,0,0:0:0:0:
324,192,44663,1,0,0:0:0:0:
256,256,45235,1,0,0:0:0:0:
188,192,45804,5,0,0:0:0:0:
256,128,46376,1,0,0:0:0:0:
324,192,46948,1,0,0:0:0:0:
256,256,47520,1,0,0:0:0:0:
188,192,48091,5,0,0:0:0:0:
256,128,48663,1,0,0:0:0:0:
324,192,49235,1,0,0:0:0:0:
256,256,49807,1,0,0:0:0:0:
188,192,50377,5,0,0:0:0:0:
256,128,50949,1,0,0:0:0:0:
324,192,51521,1,0,0:0:0:0:
256,256,52093,1,0,0:0:0:0:
188,192,52664,5,0,0:0:0:0:
256,128,53236,1,0,0:0:0:0:
324,192,53808,1,0,0:0:0:0:
256,256,54380,1,0,0:0:0:0:
188,192,54950,5,0,0:0:0:0:
256,128,55522,1,0,0:0:0:0:
324,192,56094,1,0,0:0:0:0:
256,256,56666,1,0,0:0:0:0:
188,192,57237,5,0,0:0:0:0:
256,128,57809,1,0,0:0:0:0:
324,192,58381,1,0,0:0:0:0:
256,256,58953,1,0,0:0:0:0:
188,192,59523,5,0,0:0:0:0:
256,128,60095,1,0,0:0:0:0:
324,192,60667,1,0,0:0:0:0:
256,256,61239,1,0,0:0:0:0:
188,192,61810,5,0,0:0:0:0:
256,128,62382,1,0,0:0:0:0:
324,192,62954,1,0,0:0:0:0:
256,256,63526,1,0,0:0:0:0:
188,192,64095,5,0,0:0:0:0:
256,128,64667,1,0,0:0:0:0:
324,192,65239,1,0,0:0:0:0:
256,256,65811,1,0,0:0:0:0:
188,192,66382,5,0,0:0:0:0:
256,128,66954,1,0,0:0:0:0:
324,192,67526,1,0,0:0:0:0:
256,256,68098,1,0,0:0:0:0:
188,192,68668,5,0,0:0:0:0:
256,128,69240,1,0,0:0:0:0:
324,192,69812,1,0,0:0:0:0:
256,256,70384,1,0,0:0:0:0:
188,192,70955,5,0,0:0:0:0:
256,128,71527,1,0,0:0:0:0:
324,192,72099,1,0,0:0:0:0:
256,256,72671,1,0,0:0:0:0:
188,192,73241,5,0,0:0:0:0:
256,128,73813,1,0,0:0:0:0:
324,192,74385,1,0,0:0:0:0:
256,256,74957,1,0,0:0:0:0:
188,192,75528,5,0,0:0:0:0:
256,128,76100,1,0,0:0:0:0:
324,192,76672,1,0,0:0:0:0:
256,256,77244,1,0,0:0:0:0:
188,192,77814,5,0,0:0:0:0:
256,128,78386,1,0,0:0:0:0:
324,192,78958,1,0,0:0:0:0:
256,256,79530,1,0,0:0:0:0:
188,192,80101,5,0,0:0:0:0:
256,128,80673,1,0,0:0:0:0:
324,192,81245,1,0,0:0:0:0:
256,256,81817,1,0,0:0:0:0:
188,192,82386,5,0,0:0:0:0:
256,128,82958,1,0,0:0:0:0:
324,192,83530,1,0,0:0:0:0:
256,256,84102,1,0,0:0:0:0:
188,192,84673,5,0,0:0:0:0:
256,128,85245,1,0,0:0:0:0:
324,192,85817,1,0,0:0:0:0:
256,256,86389,1,0,0:0:0:0:
188,192,86959,5,0,0:0:0:0:
256,128,87531,1,0,0:0:0:0:
324,192,88103,1,0,0:0:0:0:
256,256,88675,1,0,0:0:0:0:
188,192,89246,5,0,0:0:0:0:
256,128,89818,1,0,0:0:0:0:
324,192,90390,1,0,0:0:0:0:
256,256,90962,1,0,0:0:0:0:
188,192,91532,5,0,0:0:0:0:
256,128,92104,1,0,0:0:0:0:
324,192,92676,1,0,0:0:0:0:
256,256,93248,1,0,0:0:0:0:
188,192,93819,5,0,0:0:0:0:
256,128,94391,1,0,0:0:0:0:
324,192,94963,1,0,0:0:0:0:
256,256,95535,1,0,0:0:0:0:
188,192,96105,5,0,0:0:0:0:
256,128,96677,1,0,0:0:0:0:
324,192,97249,1,0,0:0:0:0:
256,256,97821,1,0,0:0:0:0:
188,192,98392,5,0,0:0:0:0:
256,128,98964,1,0,0:0:0:0:
324,192,99536,1,0,0:0:0:0:
256,256,100108,1,0,0:0:0:0:
188,192,100677,5,0,0:0:0:0:
256,128,101249,1,0,0:0:0:0:
324,192,101821,1,0,0:0:0:0:
256,256,102393,1,0,0:0:0:0:
188,192,102964,5,0,0:0:0:0:
256,128,103536,1,0,0:0:0:0:
324,192,104108,1,0,0:0:0:0:
256,256,104680,1,0,0:0:0:0:
188,192,105250,5,0,0:0:0:0:
256,128,105822,1,0,0:0:0:0:
324,192,106394,1,0,0:0:0:0:
256,256,106966,1,0,0:0:0:0:
188,192,107537,5,0,0:0:0:0:
256,128,108109,1,0,0:0:0:0:
324,192,108681,1,0,0:0:0:0:
256,256,109253,1,0,0:0:0:0:
188,192,109823,5,0,0:0:0:0:
256,128,110395,1,0,0:0:0:0:
324,192,110967,1,0,0:0:0:0:
256,256,111539,1,0,0:0:0:0:
188,192,112110,5,0,0:0:0:0:
256,128,112682,1,0,0:0:0:0:
324,192,113254,1,0,0:0:0:0:
256,256,113826,1,0,0:0:0:0:
188,192,114396,5,0,0:0:0:0:
256,128,114968,1,0,0:0:0:0:
324,192,115540,1,0,0:0:0:0:
256,256,116112,1,0,0:0:0:0:
188,192,116683,5,0,0:0:0:0:
256,128,117255,1,0,0:0:0:0:
324,192,117827,1,0,0:0:0:0:
256,256,118399,1,0,0:0:0:0:
