osu file format v14

[General]
AudioFilename: audio.mp3
AudioLeadIn: 0
PreviewTime: 12398
Countdown: 0
SampleSet: Normal
StackLeniency: 0.7
Mode: 1
LetterboxInBreaks: 0
WidescreenStoryboard: 0

[Editor]
DistanceSpacing: 2.6
BeatDivisor: 4
GridSize: 4
TimelineZoom: 1.8

[Metadata]
Title:Creepy Castle Mine Cart
TitleUnicode:Creepy Castle Mine Cart
Artist:Grant Kirkhope
ArtistUnicode:Grant Kirkhope
Creator:-Tenshi-
Version:Oni
Source:Donkey Kong 64
Tags:video game instrumental rareware nintendo bananas dk n64 kazaze
BeatmapID:2355561
BeatmapSetID:1127444

[Difficulty]
HPDrainRate:5
CircleSize:5
OverallDifficulty:5
ApproachRate:5
SliderMultiplier:1.4
SliderTickRate:1

[Events]
//Background and Video events
0,0,"bg.jpg",0,80
//Break Periods
//Storyboard Layer 0 (Background)
//Storyboard Layer 1 (Fail)
//Storyboard Layer 2 (Pass)
//Storyboard Layer 3 (Foreground)
//Storyboard Layer 4 (Overlay)
//Storyboard Sound Samples

[TimingPoints]
1435,342.596769312465,4,1,0,60,1,0
12398,-100,4,1,0,70,0,1
34324,-100,4,1,0,60,0,0
67213,-100,4,1,0,70,0,1
78176,-100,4,1,0,60,0,0

[HitObjects]
211,161,1435,5,12,0:0:0:0:
155,155,1606,1,0,0:0:0:0:
158,163,1777,1,8,0:0:0:0:
159,164,2120,1,4,0:0:0:0:
160,164,2291,1,8,0:0:0:0:
160,164,2462,1,0,0:0:0:0:
158,163,2805,1,12,0:0:0:0:
159,164,2976,1,0,0:0:0:0:
159,164,3147,1,8,0:0:0:0:
160,164,3319,1,0,0:0:0:0:
190,122,3490,1,12,0:0:0:0:
185,129,3661,1,8,0:0:0:0:
185,129,3833,1,8,0:0:0:0:
184,129,4004,1,0,0:0:0:0:
184,129,4175,1,12,0:0:0:0:
195,88,4347,1,0,0:0:0:0:
195,88,4518,1,8,0:0:0:0:
211,115,4860,1,4,0:0:0:0:
211,115,5032,1,8,0:0:0:0:
211,115,5203,1,0,0:0:0:0:
257,82,5546,1,12,0:0:0:0:
257,82,5717,1,0,0:0:0:0:
257,82,5888,1,8,0:0:0:0:
243,57,6060,1,0,0:0:0:0:
210,91,6231,1,12,0:0:0:0:
210,91,6402,1,8,0:0:0:0:
157,116,6573,1,0,0:0:0:0:
157,116,6745,1,0,0:0:0:0:
139,128,6916,1,12,0:0:0:0:
139,128,7087,1,0,0:0:0:0:
237,115,7259,1,8,0:0:0:0:
159,164,7601,1,4,0:0:0:0:
160,164,7773,1,8,0:0:0:0:
160,164,7944,1,0,0:0:0:0:
158,163,8286,1,12,0:0:0:0:
159,164,8458,1,0,0:0:0:0:
159,164,8629,1,8,0:0:0:0:
160,164,8800,1,0,0:0:0:0:
190,122,8972,1,12,0:0:0:0:
185,129,9143,1,8,0:0:0:0:
185,129,9314,1,8,0:0:0:0:
184,129,9486,1,0,0:0:0:0:
126,216,9657,1,12,0:0:0:0:
195,88,9828,1,0,0:0:0:0:
369,227,9999,1,8,0:0:0:0:
211,115,10342,1,4,0:0:0:0:
211,115,10513,1,8,0:0:0:0:
211,115,10685,1,0,0:0:0:0:
257,82,11027,1,12,0:0:0:0:
257,82,11199,1,0,0:0:0:0:
257,82,11370,1,8,0:0:0:0:
243,57,11541,1,0,0:0:0:0:
210,91,11712,1,12,0:0:0:0:
210,91,11884,1,8,0:0:0:0:
157,116,12055,1,0,0:0:0:0:
157,116,12226,1,0,0:0:0:0:
139,128,12398,1,12,0:0:0:0:
190,82,12569,1,8,0:0:0:0:
121,120,12740,1,0,0:0:0:0:
237,175,13083,1,0,0:0:0:0:
61,152,13254,1,8,0:0:0:0:
146,108,13425,1,0,0:0:0:0:
147,113,13597,1,8,0:0:0:0:
97,117,13682,1,8,0:0:0:0:
222,175,13768,1,0,0:0:0:0:
181,233,14111,1,8,0:0:0:0:
181,233,14453,1,8,0:0:0:0:
181,233,14796,1,8,0:0:0:0:
95,118,14967,1,0,0:0:0:0:
181,233,15138,1,12,0:0:0:0:
181,233,15310,1,8,0:0:0:0:
197,91,15395,1,8,0:0:0:0:
181,233,15481,1,0,0:0:0:0:
181,233,15824,1,0,0:0:0:0:
181,233,16166,1,0,0:0:0:0:
181,233,16337,1,8,0:0:0:0:
181,233,16509,1,0,0:0:0:0:
39,106,16594,1,0,0:0:0:0:
39,106,16680,1,0,0:0:0:0:
181,233,16851,1,0,0:0:0:0:
220,190,17023,5,8,0:0:0:0:
220,190,17194,1,0,0:0:0:0:
220,190,17280,1,8,0:0:0:0:
175,129,17365,1,0,0:0:0:0:
209,100,17451,1,8,0:0:0:0:
175,129,17537,1,0,0:0:0:0:
175,129,17622,1,8,0:0:0:0:
226,99,17708,1,0,0:0:0:0:
261,131,17879,1,12,0:0:0:0:
190,82,18050,1,8,0:0:0:0:
121,120,18222,1,0,0:0:0:0:
237,175,18564,1,0,0:0:0:0:
61,152,18736,1,8,0:0:0:0:
146,108,18907,1,0,0:0:0:0:
147,113,19078,1,8,0:0:0:0:
97,117,19164,1,8,0:0:0:0:
222,175,19250,1,0,0:0:0:0:
170,82,19592,1,0,0:0:0:0:
181,233,19763,1,0,0:0:0:0:
169,138,19849,1,0,0:0:0:0:
181,233,19935,1,8,0:0:0:0:
181,233,20277,1,0,0:0:0:0:
95,118,20449,1,0,0:0:0:0:
181,233,20620,1,12,0:0:0:0:
181,233,20963,1,0,0:0:0:0:
197,91,21134,1,8,0:0:0:0:
181,233,21219,1,8,0:0:0:0:
181,233,21305,1,0,0:0:0:0:
181,233,21648,1,0,0:0:0:0:
181,233,21819,1,8,0:0:0:0:
181,233,21990,1,0,0:0:0:0:
39,106,22076,1,0,0:0:0:0:
39,106,22162,1,0,0:0:0:0:
181,233,22333,1,0,0:0:0:0:
220,190,22504,5,8,0:0:0:0:
188,100,22675,1,0,0:0:0:0:
101,179,22761,1,0,0:0:0:0:
188,100,22847,1,8,0:0:0:0:
88,97,23018,1,0,0:0:0:0:
143,159,23104,1,0,0:0:0:0:
88,97,23189,1,8,0:0:0:0:
88,97,23361,1,4,0:0:0:0:
190,82,23532,1,0,0:0:0:0:
121,120,23703,1,8,0:0:0:0:
237,175,24046,1,8,0:0:0:0:
61,152,24217,1,0,0:0:0:0:
146,108,24388,1,8,0:0:0:0:
97,117,24560,1,0,0:0:0:0:
147,113,24645,1,0,0:0:0:0:
222,175,24731,1,8,0:0:0:0:
181,233,25074,1,0,0:0:0:0:
181,233,25416,1,0,0:0:0:0:
181,233,25759,1,0,0:0:0:0:
95,118,25930,1,8,0:0:0:0:
181,233,26101,1,4,0:0:0:0:
181,233,26273,1,0,0:0:0:0:
197,91,26358,1,0,0:0:0:0:
181,233,26444,1,8,0:0:0:0:
181,233,26787,1,8,0:0:0:0:
181,233,27129,1,8,0:0:0:0:
181,233,27301,1,0,0:0:0:0:
181,233,27472,1,8,0:0:0:0:
39,106,27558,1,8,0:0:0:0:
39,106,27643,1,8,0:0:0:0:
181,233,27814,1,8,0:0:0:0:
220,190,27986,5,0,0:0:0:0:
220,190,28157,1,8,0:0:0:0:
220,190,28243,1,0,0:0:0:0:
175,129,28328,1,8,0:0:0:0:
209,100,28414,1,0,0:0:0:0:
175,129,28500,1,8,0:0:0:0:
175,129,28585,1,0,0:0:0:0:
226,99,28671,1,8,0:0:0:0:
261,131,28842,1,4,0:0:0:0:
190,82,29014,1,0,0:0:0:0:
121,120,29185,1,8,0:0:0:0:
237,175,29527,1,8,0:0:0:0:
61,152,29699,1,0,0:0:0:0:
146,108,29870,1,8,0:0:0:0:
147,113,30041,1,0,0:0:0:0:
97,117,30127,1,0,0:0:0:0:
222,175,30213,1,8,0:0:0:0:
170,82,30555,1,8,0:0:0:0:
181,233,30727,1,8,0:0:0:0:
169,138,30812,1,8,0:0:0:0:
181,233,30898,1,0,0:0:0:0:
181,233,31240,1,8,0:0:0:0:
95,118,31412,1,8,0:0:0:0:
181,233,31583,1,4,0:0:0:0:
181,233,31926,1,8,0:0:0:0:
197,91,32097,1,0,0:0:0:0:
181,233,32183,1,0,0:0:0:0:
181,233,32268,1,8,0:0:0:0:
181,233,32611,1,8,0:0:0:0:
181,233,32782,1,0,0:0:0:0:
181,233,32953,1,8,0:0:0:0:
39,106,33039,1,8,0:0:0:0:
39,106,33125,1,8,0:0:0:0:
181,233,33296,1,8,0:0:0:0:
220,190,33467,5,0,0:0:0:0:
188,100,33639,1,8,0:0:0:0:
101,179,33724,1,8,0:0:0:0:
188,100,33810,1,0,0:0:0:0:
88,97,33981,1,8,0:0:0:0:
143,159,34067,1,8,0:0:0:0:
88,97,34152,1,0,0:0:0:0:
272,169,34324,1,4,0:0:0:0:
195,174,34495,1,0,0:0:0:0:
187,204,34666,1,8,0:0:0:0:
185,126,35009,1,0,0:0:0:0:
168,176,35352,1,8,0:0:0:0:
214,86,35437,1,0,0:0:0:0:
235,145,35523,1,0,0:0:0:0:
321,235,35694,1,12,0:0:0:0:
179,269,35865,1,0,0:0:0:0:
134,144,36037,1,8,0:0:0:0:
175,120,36379,1,0,0:0:0:0:
204,107,36722,1,8,0:0:0:0:
204,107,36808,1,0,0:0:0:0:
204,107,36893,1,8,0:0:0:0:
257,187,37065,1,4,0:0:0:0:
157,185,37236,1,0,0:0:0:0:
228,176,37407,1,8,0:0:0:0:
232,97,37750,1,0,0:0:0:0:
232,97,38092,1,8,0:0:0:0:
232,97,38178,1,0,0:0:0:0:
232,97,38264,1,0,0:0:0:0:
232,97,38435,1,12,0:0:0:0:
179,164,38606,1,0,0:0:0:0:
200,88,38778,1,8,0:0:0:0:
172,135,39120,1,0,0:0:0:0:
172,135,39463,1,8,0:0:0:0:
172,135,39548,1,0,0:0:0:0:
172,135,39634,1,8,0:0:0:0:
172,135,39805,1,4,0:0:0:0:
179,164,39977,1,0,0:0:0:0:
187,204,40148,1,8,0:0:0:0:
185,126,40491,1,0,0:0:0:0:
168,176,40833,1,8,0:0:0:0:
214,86,40919,1,0,0:0:0:0:
235,145,41004,1,0,0:0:0:0:
321,235,41176,1,12,0:0:0:0:
179,164,41347,1,0,0:0:0:0:
134,144,41518,1,8,0:0:0:0:
175,120,41861,1,0,0:0:0:0:
204,107,42204,1,8,0:0:0:0:
204,107,42289,1,0,0:0:0:0:
204,107,42375,1,8,0:0:0:0:
257,187,42546,1,4,0:0:0:0:
194,193,42717,1,0,0:0:0:0:
228,176,42889,1,8,0:0:0:0:
232,97,43231,1,0,0:0:0:0:
232,97,43574,1,8,0:0:0:0:
232,97,43660,1,0,0:0:0:0:
232,97,43745,1,0,0:0:0:0:
232,97,43916,1,12,0:0:0:0:
209,170,44088,1,0,0:0:0:0:
200,88,44259,1,8,0:0:0:0:
172,135,44602,1,0,0:0:0:0:
172,135,44944,1,8,0:0:0:0:
172,135,45030,1,0,0:0:0:0:
166,104,45116,1,8,0:0:0:0:
284,157,45287,1,4,0:0:0:0:
117,123,45629,1,8,0:0:0:0:
119,128,45801,1,8,0:0:0:0:
168,32,45886,1,8,0:0:0:0:
119,128,45972,1,8,0:0:0:0:
147,102,46315,1,0,0:0:0:0:
150,105,46657,1,8,0:0:0:0:
108,95,46743,1,0,0:0:0:0:
150,105,46829,1,8,0:0:0:0:
92,111,47000,1,8,0:0:0:0:
163,88,47342,1,8,0:0:0:0:
106,145,47685,1,0,0:0:0:0:
148,68,48028,1,12,0:0:0:0:
126,99,48370,1,8,0:0:0:0:
126,99,48542,1,0,0:0:0:0:
219,112,48627,1,0,0:0:0:0:
126,99,48713,1,8,0:0:0:0:
126,99,49055,1,0,0:0:0:0:
126,99,49398,1,8,0:0:0:0:
82,135,49484,1,0,0:0:0:0:
126,99,49569,1,0,0:0:0:0:
126,99,49741,1,8,0:0:0:0:
126,99,50083,1,8,0:0:0:0:
197,100,50426,1,0,0:0:0:0:
197,100,50768,1,12,0:0:0:0:
197,100,51111,1,8,0:0:0:0:
197,100,51282,1,8,0:0:0:0:
137,146,51368,1,8,0:0:0:0:
197,100,51454,1,8,0:0:0:0:
197,100,51796,1,0,0:0:0:0:
197,100,52139,1,8,0:0:0:0:
206,77,52224,1,0,0:0:0:0:
197,100,52310,1,8,0:0:0:0:
197,100,52481,1,8,0:0:0:0:
197,100,52824,1,8,0:0:0:0:
197,100,53167,1,0,0:0:0:0:
197,100,53509,1,12,0:0:0:0:
197,100,53852,1,8,0:0:0:0:
197,100,54023,1,0,0:0:0:0:
93,115,54109,1,0,0:0:0:0:
124,129,54194,1,8,0:0:0:0:
126,96,54537,1,0,0:0:0:0:
119,115,54880,1,8,0:0:0:0:
205,95,54965,1,0,0:0:0:0:
14,116,55051,1,0,0:0:0:0:
159,77,55222,5,8,0:0:0:0:
104,80,55565,1,8,0:0:0:0:
121,99,55907,1,0,0:0:0:0:
217,195,56250,5,4,0:0:0:0:
236,195,56421,1,0,0:0:0:0:
236,195,56593,1,8,0:0:0:0:
236,195,56764,1,0,0:0:0:0:
236,195,56935,1,8,0:0:0:0:
236,195,57106,1,8,0:0:0:0:
150,68,57192,1,8,0:0:0:0:
236,195,57278,1,0,0:0:0:0:
236,195,57449,1,0,0:0:0:0:
236,195,57620,1,12,0:0:0:0:
236,195,57963,1,8,0:0:0:0:
217,195,58134,5,0,0:0:0:0:
236,195,58306,1,8,0:0:0:0:
236,195,58477,1,0,0:0:0:0:
222,76,58563,1,0,0:0:0:0:
236,195,58648,1,8,0:0:0:0:
236,195,58819,1,8,0:0:0:0:
236,195,58991,1,4,0:0:0:0:
163,169,59162,1,0,0:0:0:0:
236,195,59333,1,8,0:0:0:0:
236,195,59505,1,0,0:0:0:0:
236,195,59676,1,8,0:0:0:0:
236,195,59847,1,8,0:0:0:0:
252,78,59933,1,8,0:0:0:0:
217,195,60019,5,0,0:0:0:0:
236,195,60190,1,0,0:0:0:0:
236,195,60361,1,12,0:0:0:0:
236,195,60704,1,8,0:0:0:0:
236,195,60875,1,0,0:0:0:0:
236,195,61046,1,8,0:0:0:0:
236,195,61218,1,0,0:0:0:0:
161,104,61303,1,0,0:0:0:0:
236,195,61389,1,8,0:0:0:0:
236,195,61560,1,8,0:0:0:0:
236,195,61732,1,4,0:0:0:0:
199,128,61903,1,0,0:0:0:0:
236,195,62074,1,8,0:0:0:0:
236,195,62245,1,0,0:0:0:0:
236,195,62417,1,8,0:0:0:0:
236,195,62588,1,8,0:0:0:0:
152,11,62674,1,8,0:0:0:0:
236,195,62759,1,0,0:0:0:0:
236,195,62931,1,0,0:0:0:0:
236,195,63102,1,12,0:0:0:0:
236,195,63445,1,8,0:0:0:0:
236,195,63616,1,0,0:0:0:0:
217,195,63787,5,8,0:0:0:0:
236,195,63958,1,0,0:0:0:0:
171,29,64044,1,0,0:0:0:0:
236,195,64130,1,8,0:0:0:0:
236,195,64301,1,8,0:0:0:0:
236,195,64472,1,4,0:0:0:0:
236,195,64815,1,8,0:0:0:0:
236,195,64986,1,0,0:0:0:0:
236,195,65157,1,8,0:0:0:0:
236,195,65329,1,8,0:0:0:0:
184,53,65414,1,8,0:0:0:0:
236,195,65500,1,0,0:0:0:0:
217,195,65671,5,0,0:0:0:0:
236,195,65843,1,12,0:0:0:0:
236,195,66185,1,0,0:0:0:0:
236,195,66357,1,8,0:0:0:0:
236,195,66528,1,0,0:0:0:0:
179,55,66614,1,0,0:0:0:0:
236,195,66699,1,8,0:0:0:0:
236,195,66870,1,0,0:0:0:0:
185,53,66956,1,0,0:0:0:0:
236,195,67042,1,8,0:0:0:0:
236,195,67213,1,12,0:0:0:0:
190,82,67384,1,8,0:0:0:0:
121,120,67556,1,0,0:0:0:0:
237,175,67898,1,0,0:0:0:0:
61,152,68070,1,8,0:0:0:0:
146,108,68241,1,0,0:0:0:0:
147,113,68412,1,8,0:0:0:0:
97,117,68498,1,8,0:0:0:0:
222,175,68583,1,0,0:0:0:0:
181,233,68926,1,8,0:0:0:0:
181,233,69269,1,8,0:0:0:0:
181,233,69611,1,8,0:0:0:0:
95,118,69783,1,0,0:0:0:0:
181,233,69954,1,12,0:0:0:0:
181,233,70125,1,8,0:0:0:0:
197,91,70211,1,8,0:0:0:0:
181,233,70296,1,0,0:0:0:0:
181,233,70639,1,0,0:0:0:0:
181,233,70982,1,0,0:0:0:0:
181,233,71153,1,8,0:0:0:0:
181,233,71324,1,0,0:0:0:0:
39,106,71410,1,0,0:0:0:0:
39,106,71496,1,0,0:0:0:0:
181,233,71667,1,0,0:0:0:0:
220,190,71838,5,8,0:0:0:0:
220,190,72009,1,0,0:0:0:0:
220,190,72095,1,8,0:0:0:0:
175,129,72181,1,0,0:0:0:0:
209,100,72266,1,8,0:0:0:0:
175,129,72352,1,0,0:0:0:0:
175,129,72438,1,8,0:0:0:0:
226,99,72523,1,0,0:0:0:0:
261,131,72695,1,12,0:0:0:0:
190,82,72866,1,8,0:0:0:0:
92,193,73037,1,0,0:0:0:0:
237,175,73380,1,0,0:0:0:0:
61,152,73551,1,8,0:0:0:0:
146,108,73722,1,0,0:0:0:0:
147,113,73894,1,8,0:0:0:0:
97,117,73979,1,8,0:0:0:0:
222,175,74065,1,0,0:0:0:0:
170,82,74408,1,0,0:0:0:0:
181,233,74579,1,0,0:0:0:0:
169,138,74665,1,0,0:0:0:0:
181,233,74750,1,8,0:0:0:0:
181,233,75093,1,0,0:0:0:0:
95,118,75264,1,0,0:0:0:0:
181,233,75435,1,12,0:0:0:0:
181,233,75778,1,0,0:0:0:0:
197,91,75949,1,8,0:0:0:0:
181,233,76035,1,8,0:0:0:0:
181,233,76121,1,0,0:0:0:0:
181,233,76463,1,0,0:0:0:0:
181,233,76634,1,8,0:0:0:0:
181,233,76806,1,0,0:0:0:0:
39,106,76891,1,0,0:0:0:0:
39,106,76977,1,0,0:0:0:0:
181,233,77148,1,0,0:0:0:0:
220,190,77320,5,8,0:0:0:0:
188,100,77491,1,0,0:0:0:0:
101,179,77577,1,0,0:0:0:0:
188,100,77662,1,8,0:0:0:0:
88,97,77834,1,0,0:0:0:0:
143,159,77919,1,0,0:0:0:0:
88,97,78005,1,8,0:0:0:0:
88,97,78176,1,4,0:0:0:0:
192,145,79547,1,12,0:0:0:0:
225,140,80917,1,4,0:0:0:0:
183,149,82287,1,12,0:0:0:0:
292,168,83658,1,4,0:0:0:0:
250,146,85028,1,12,0:0:0:0:
225,132,86398,1,12,0:0:0:0:
215,135,87769,1,4,0:0:0:0:
171,142,89139,1,12,0:0:0:0:
243,168,90510,1,4,0:0:0:0:
266,166,91880,1,12,0:0:0:0:
260,153,93250,1,4,0:0:0:0:
235,131,94621,1,12,0:0:0:0:
232,129,95991,1,4,0:0:0:0:
234,132,97362,1,12,0:0:0:0:
233,133,98732,1,12,0:0:0:0:
211,161,100102,5,12,0:0:0:0:
155,155,100274,1,0,0:0:0:0:
158,163,100445,1,8,0:0:0:0:
159,164,100788,1,4,0:0:0:0:
160,164,100959,1,8,0:0:0:0:
160,164,101130,1,0,0:0:0:0:
158,163,101473,1,12,0:0:0:0:
159,164,101644,1,0,0:0:0:0:
159,164,101815,1,8,0:0:0:0:
160,164,101987,1,0,0:0:0:0:
190,122,102158,1,12,0:0:0:0:
185,129,102329,1,8,0:0:0:0:
185,129,102501,1,8,0:0:0:0:
184,129,102672,1,0,0:0:0:0:
184,129,102843,1,12,0:0:0:0:
195,88,103014,1,0,0:0:0:0:
195,88,103186,1,8,0:0:0:0:
211,115,103528,1,4,0:0:0:0:
211,115,103700,1,8,0:0:0:0:
211,115,103871,1,0,0:0:0:0:
257,82,104214,1,12,0:0:0:0:
257,82,104385,1,0,0:0:0:0:
257,82,104556,1,8,0:0:0:0:
243,57,104727,1,0,0:0:0:0:
210,91,104899,1,12,0:0:0:0:
210,91,105070,1,8,0:0:0:0:
157,116,105241,1,0,0:0:0:0:
157,116,105413,1,0,0:0:0:0:
139,128,105584,1,12,0:0:0:0:
139,128,105755,1,0,0:0:0:0:
237,115,105927,1,8,0:0:0:0:
159,164,106269,1,4,0:0:0:0:
160,164,106440,1,8,0:0:0:0:
160,164,106612,1,0,0:0:0:0:
158,163,106954,1,12,0:0:0:0:
159,164,107126,1,0,0:0:0:0:
159,164,107297,1,8,0:0:0:0:
160,164,107468,1,0,0:0:0:0:
190,122,107639,1,12,0:0:0:0:
185,129,107811,1,8,0:0:0:0:
185,129,107982,1,8,0:0:0:0:
184,129,108153,1,0,0:0:0:0:
184,129,108325,1,12,0:0:0:0:
195,88,108496,1,0,0:0:0:0:
195,88,108667,1,8,0:0:0:0:
211,115,109010,1,4,0:0:0:0:
211,115,109181,1,8,0:0:0:0:
211,115,109352,1,0,0:0:0:0:
257,82,109695,1,12,0:0:0:0:
257,82,109866,1,0,0:0:0:0:
257,82,110038,1,8,0:0:0:0:
243,57,110209,1,0,0:0:0:0:
210,91,110380,1,12,0:0:0:0:
210,91,110552,1,8,0:0:0:0:
157,116,110723,1,0,0:0:0:0:
157,116,110894,1,0,0:0:0:0:
139,128,111065,1,12,0:0:0:0:
